#TITLE:Harnessing the Wind;
#SUBTITLE:(Howling Grotto Future);
#ARTIST:Rainbowdragoneyes;
#TITLETRANSLIT:;
#SUBTITLETRANSLIT:;
#ARTISTTRANSLIT:;
#GENRE:The Messenger;
#CREDIT:[Ness];
#BANNER:The Messenger - Harnessing the Wind (Howling Grotto Future).png;
#BACKGROUND:The Messenger - Harnessing the Wind (Howling Grotto Future)-bg.png;
#LYRICSPATH:;
#CDTITLE:;
#MUSIC:The Messenger - Harnessing the Wind (Howling Grotto Future).mp3;
#OFFSET:-0.015000;
#SAMPLESTART:14.405258;
#SAMPLELENGTH:13.950350;
#LASTBEATHINT:232.004547;
#SELECTABLE:YES;
#DISPLAYBPM:133.000000;
#BPMS:0.000000=133.350006
,30.000000=266.660004
,32.000000=133.330002
,222.000000=266.660004
,224.000000=133.330002
;
#STOPS:30.000000=0.075000,
30.333334=0.075000,
30.666666=0.075000,
31.000000=0.075000,
31.333334=0.075000,
31.666666=0.075000,
222.000000=0.075000,
222.333328=0.075000,
222.666672=0.075000,
223.000000=0.075000,
223.333328=0.075000,
223.666672=0.075000
;
#BGCHANGES:;
#KEYSOUNDS:;
#ATTACKS:;

//---------------dance-single - ----------------
#NOTES:
     dance-single:
     :
     Challenge:
     10:
     0.585729,0.647872,0.231383,0.286915,1.207819,443.000000,418.000000,25.000000,31.000000,109.000000,0.000000,0.585729,0.647872,0.231383,0.286915,1.207819,443.000000,418.000000,25.000000,31.000000,109.000000,0.000000:
// measure 0
0000
0000
0000
0000
,  // measure 1
0000
0000
0000
0000
,  // measure 2
0000
0000
0000
0000
,  // measure 3
0000
0000
0000
0000
,  // measure 4
0001
0100
0001
0010
0100
0010
0001
1000
0001
1000
0100
1000
,  // measure 5
0010
0100
0010
1000
0001
1000
0100
0010
0100
0010
0001
0100
,  // measure 6
0001
0000
0001
0010
0000
0010
1000
0000
1000
0100
0000
0000
,  // measure 7
0101
0000
0000
1100
0000
0000
M00M
00M0
0M00
M00M
0M00
000M
,  // measure 8
10M0
0001
1000
0010
M100
0001
2000
0000
000M
3100
0010
0001
,  // measure 9
0200
M000
0302
00M0
1003
0000
2010
0000
000M
3100
0000
0000
,  // measure 10
0010
0M01
1000
0010
0100
M001
0020
0000
000M
0130
1000
0010
,  // measure 11
0200
0000
M000
0302
00M0
0000
1003
0100
0010
1001
0M00
0000
,  // measure 12
0001
01M0
0001
M001
0010
0100
100M
0000
0M00
1000
0010
1000
,  // measure 13
010M
0000
0001
M000
0100
0010
0001
0M00
0001
0100
0000
0000
,  // measure 14
0010
100M
0100
0100
1000
00M1
0100
0000
M000
0001
0010
0100
,  // measure 15
1000
000M
0000
0110
0000
M000
0012
0000
0000
10M3
0000
0000
,  // measure 16
0001
1000
0100
001M
0100
1000
0002
00M0
0000
0103
0010
1000
,  // measure 17
0100
00M0
0101
0000
1000
000M
1020
0000
0000
M130
0000
0000
,  // measure 18
0001
0010
0100
1000
00M1
0100
0002
M000
0000
1003
0100
0010
,  // measure 19
010M
0000
0000
0110
0000
0000
M001
0010
1000
0200
000M
0000
,  // measure 20
0310
0000
0001
0000
0010
0000
1000
0000
0001
0000
01M0
0000
0002
0000
M000
0000
0000
0000
1003
0000
0100
0010
0100
0000
,  // measure 21
001M
0000
0001
0M00
1000
0001
10M0
0000
0000
0101
0000
0000
,  // measure 22
0001
1M00
0010
0100
0001
M100
0020
0000
0000
1030
0001
1000
,  // measure 23
0100
00M0
0000
0201
0000
M000
0310
0000
0000
100M
0000
0000
,  // measure 24
0001
1000
0001
0010
0001
0010
0100
0000
0100
1000
0000
1000
,  // measure 25
0010
1000
0001
1000
0100
0010
0100
0000
0100
1000
0000
1000
,  // measure 26
0001
0100
0010
1000
0010
0100
0010
0000
0010
1000
0000
1000
,  // measure 27
0100
0010
0100
1000
0001
0010
0001
0000
0000
2000
0000
0000
,  // measure 28
3001
0100
0010
0100
0001
0100
0010
1000
0100
M0MM
0M00
0001
,  // measure 29
1000
0001
1000
0100
1000
0001
0100
0000
0000
1001
0000
0000
,  // measure 30
0010
1000
0100
1000
0010
1000
0100
0010
0001
MMM0
000M
1000
,  // measure 31
0001
1000
0001
0100
0010
1000
0100
0000
0000
MMMM
0000
0000
,  // measure 32
0002
2003
3100
0110
,  // measure 33
0001
0100
1000
0100
0001
0010
1000
0000
1000
0100
0000
0100
,  // measure 34
0020
0230
1300
1001
,  // measure 35
1000
0001
1000
0010
0100
0010
1000
0001
0010
0100
0000
0000
,  // measure 36
1000
0100
1000
0001
0000
0000
0001
0100
0001
0010
0000
0000
,  // measure 37
0210
0000
0000
2300
0000
0000
3020
0000
0000
0130
0001
1000
,  // measure 38
0010
1000
1001
0000
MMMM
0000
1000
0001
0101
0000
MMMM
0000
,  // measure 39
1100
0000
0110
0000
0101
0000
1001
0000
0001
0010
0000
0100
,  // measure 40
1000
0100
0010
1000
0100
0010
1000
0100
0010
0001
0010
0100
,  // measure 41
1000
0001
0100
1000
0001
0100
1000
0001
0100
0010
1000
0001
,  // measure 42
0200
0000
0000
0320
0000
0000
1030
0000
1000
0001
0000
0001
,  // measure 43
0020
0230
0310
MMMM
,  // measure 44
2000
0000
0000
3020
0000
0000
0130
0000
0100
0000
1001
0000
,  // measure 45
0002
0000
0000
0023
0000
0000
0031
0000
0001
1000
0010
0000
,  // measure 46
0100
0000
0000
MMMM
0000
0001
1000
0000
0000
MMMM
0000
0100
,  // measure 47
0010
0000
0001
0000
0100
0000
1100
0000
0000
MMMM
0000
0000
,  // measure 48
0000
0010
100M
0010
0100
0010
M001
0010
0100
0010
100M
0010
,  // measure 49
0100
0010
M001
0010
0100
0010
100M
0010
0100
0010
M001
0010
,  // measure 50
0100
M001
0100
0010
0100
100M
0100
0010
0100
M001
0100
0010
,  // measure 51
0100
100M
0100
0010
0100
M001
0100
0010
0100
100M
0100
0001
,  // measure 52
1000
0100
0001
1000
0010
0001
0100
1000
0001
0010
1000
0001
,  // measure 53
0100
1000
0001
0010
1000
0100
0001
1000
0010
0001
1000
0100
,  // measure 54
0010
0000
0010
0001
0000
0001
1000
0000
1000
0100
0000
0000
,  // measure 55
0101
0000
0000
1001
0000
0000
M00M
0M00
00M0
M00M
00M0
0M00
,  // measure 56
0001
0000
0000
0000
;

//---------------dance-single - ----------------
#NOTES:
     dance-single:
     :
     Hard:
     8:
     0.440289,0.492383,0.222128,0.277660,0.592340,333.000000,309.000000,24.000000,30.000000,0.000000,0.000000,0.440289,0.492383,0.222128,0.277660,0.592340,333.000000,309.000000,24.000000,30.000000,0.000000,0.000000:
// measure 0
0000
0000
0000
0000
,  // measure 1
0000
0000
0000
0000
,  // measure 2
0000
0000
0000
0000
,  // measure 3
0000
0000
0000
0000
,  // measure 4
0001
0000
0001
1000
0000
1000
0010
0000
0010
0100
0000
0100
,  // measure 5
0001
0000
0001
0010
0000
0010
1000
0000
1000
0001
0000
0000
,  // measure 6
0101
1000
0001
1000
,  // measure 7
0110
1001
0000
0000
,  // measure 8
0001
0000
0001
0010
0100
1000
0200
0000
0000
0310
0000
0001
,  // measure 9
1000
0000
0100
0000
0010
0000
0012
0000
0000
0103
0000
0000
,  // measure 10
1000
0000
1000
0010
0100
0001
0200
0000
0000
0310
1000
0010
,  // measure 11
0200
0000
0000
0301
0000
0000
1000
0001
1000
0010
0000
0000
,  // measure 12
1100
0000
0000
0001
1000
0001
0200
0000
0000
0310
1000
0010
,  // measure 13
1000
0000
0100
0000
0010
0000
0001
0000
0000
1001
0000
0000
,  // measure 14
0010
0000
0010
0001
1000
0001
0200
0000
0000
0310
0000
0000
,  // measure 15
0101
0000
1000
0001
0000
1000
0001
0000
0000
1100
0000
0000
,  // measure 16
0100
0000
0100
1000
0001
0010
0200
0000
0000
1300
0001
1000
,  // measure 17
0100
0000
0010
0000
0001
0000
0100
0000
0000
1001
0000
0000
,  // measure 18
0010
0000
0010
0001
1000
0001
0200
0000
0000
0310
0000
1000
,  // measure 19
0002
0000
0000
0013
0000
0000
0100
1000
0001
1000
0000
0000
,  // measure 20
0101
0000
0000
1000
0001
0100
0020
0000
0000
1030
0100
1000
,  // measure 21
0100
0000
0010
0000
0001
0100
0001
0000
0000
0101
0000
0000
,  // measure 22
0001
0000
1000
0010
0000
1000
0200
0000
0000
1300
0000
0000
,  // measure 23
0110
0000
0001
0010
0000
0010
0100
0000
1000
0100
0000
0000
,  // measure 24
1002
0203
0320
2030
,  // measure 25
3100
0010
0100
0010
0001
0010
0002
0000
0000
0103
0000
0000
,  // measure 26
0001
0000
0001
1000
0000
1000
0100
0000
0000
0010
0000
0000
,  // measure 27
0012
2003
3020
0130
,  // measure 28
0001
0000
1000
0010
0000
0100
0001
1000
0001
0100
0000
0000
,  // measure 29
0001
0000
0010
0100
0000
1000
0010
0000
0000
1001
0000
0000
,  // measure 30
0100
0000
0001
1000
0000
0010
0100
0010
0100
0001
0000
1000
,  // measure 31
0100
1000
0100
1000
0000
0001
0100
0000
0000
1001
0000
0000
,  // measure 32
1000
0110
0110
0001
,  // measure 33
1000
0010
0100
0001
0000
0010
0100
0000
0000
1001
0000
0000
,  // measure 34
0001
1100
0101
0010
,  // measure 35
1000
0001
0100
0010
0000
1000
0100
0000
0010
0001
0000
0010
,  // measure 36
0100
0000
1000
0100
0000
0000
1000
0000
0001
0100
0000
0000
,  // measure 37
0002
0023
2030
3200
,  // measure 38
0301
0001
0001
0000
0000
0000
1000
1000
1000
0000
0000
0000
,  // measure 39
0001
0000
0100
0000
0010
0000
1000
0000
0100
0000
0001
0000
,  // measure 40
1000
0000
0000
0001
0000
0000
1000
0000
0000
0001
0000
1000
,  // measure 41
0100
0000
0000
0010
0000
0000
0100
0000
0000
0010
0000
0001
,  // measure 42
0020
0000
0000
0230
0000
0000
1300
0000
0000
0010
0000
1000
,  // measure 43
0200
0000
0000
0302
0000
0000
0203
0000
0000
1300
0000
1000
,  // measure 44
0020
0000
0000
0000
0000
0000
0130
0000
0000
0000
0001
0000
,  // measure 45
0100
0000
0000
0100
0000
0000
0010
0000
0000
0000
1000
0000
,  // measure 46
0100
0000
0000
0000
0000
0001
0100
0000
0000
0000
0000
0001
,  // measure 47
0010
0000
0100
0000
1000
0000
2100
0000
0000
0000
0000
0000
,  // measure 48
3000
0000
0001
0000
0100
0000
0001
0000
1000
0000
0001
0000
,  // measure 49
0010
0000
0100
0000
0010
0000
0100
0000
1000
0000
0010
0000
,  // measure 50
1000
0000
0100
0000
0010
0000
0001
0000
0100
0000
0001
0000
,  // measure 51
0010
0000
0100
0000
1000
0000
0010
0000
1000
0000
0001
0000
,  // measure 52
0100
0000
0100
0010
0000
0010
1000
0000
1000
0100
0000
0100
,  // measure 53
0010
0000
0010
0001
0000
0001
1000
0000
1000
0010
0000
0010
,  // measure 54
0100
0001
1000
0010
,  // measure 55
0110
1001
0000
0000
,  // measure 56
0010
0000
0000
0000
;

//---------------dance-single - ----------------
#NOTES:
     dance-single:
     :
     Medium:
     6:
     0.313359,0.388723,0.194362,0.268404,0.203617,237.000000,216.000000,21.000000,29.000000,0.000000,0.000000,0.313359,0.388723,0.194362,0.268404,0.203617,237.000000,216.000000,21.000000,29.000000,0.000000,0.000000:
// measure 0
0000
0000
0000
0000
,  // measure 1
0000
0000
0000
0000
,  // measure 2
0000
0000
0000
0000
,  // measure 3
0000
0000
0000
0000
,  // measure 4
0001
1000
0010
0100
,  // measure 5
0001
0010
0100
1000
,  // measure 6
1001
1000
0001
1000
,  // measure 7
0100
0100
0000
0000
,  // measure 8
1000
0000
1000
0010
0000
0010
0100
0000
0000
0110
0000
0000
,  // measure 9
2000
3002
0103
1001
,  // measure 10
0001
0000
0001
0010
0000
0010
0100
0000
0000
0110
0000
0000
,  // measure 11
2000
0000
0000
3002
0000
0000
0103
0000
0100
0010
0000
0000
,  // measure 12
1000
0000
1000
0001
0000
0001
0010
0000
0000
1001
0000
0000
,  // measure 13
0020
0032
0103
1100
,  // measure 14
0100
0000
0100
1000
0000
1000
0001
0000
0000
0100
0000
0000
,  // measure 15
0110
0110
2002
3003
,  // measure 16
0010
0000
0010
1000
0000
1000
0200
0000
0000
0000
0000
0000
,  // measure 17
1300
0000
1000
0001
0000
0000
0200
0000
0000
0000
0000
0000
,  // measure 18
0301
0000
0001
1000
0000
1000
0020
0000
0000
0000
0000
0000
,  // measure 19
0130
0000
0000
0001
0000
0000
1000
0000
0001
1000
0000
0000
,  // measure 20
0010
0000
0010
0100
0000
0100
0020
0000
0000
0000
0000
0000
,  // measure 21
1030
0000
0001
0010
0000
0000
0100
0000
0000
0110
0000
0000
,  // measure 22
1000
0000
1000
0100
0000
0100
0020
0000
0000
0000
0000
0000
,  // measure 23
0031
1000
1001
0000
,  // measure 24
0010
0001
0100
0101
,  // measure 25
1000
0100
0010
0110
,  // measure 26
1000
0000
0100
1000
0000
0000
0001
0000
0100
0001
0000
0000
,  // measure 27
0010
0100
2000
3001
,  // measure 28
0100
0000
0100
0010
0000
0010
1000
0000
0000
0100
0000
0000
,  // measure 29
1000
0010
0001
0100
,  // measure 30
0010
0000
0100
0010
0000
0000
1000
0000
0001
1000
0000
0000
,  // measure 31
0100
0010
0001
1001
,  // measure 32
0100
0110
0110
0100
,  // measure 33
0001
0000
0001
0010
0000
0010
0100
0000
0000
1000
0000
0000
,  // measure 34
0010
0100
0001
1000
,  // measure 35
0001
0010
0100
1000
,  // measure 36
0010
0001
0010
1000
,  // measure 37
0001
1000
0001
0100
,  // measure 38
2020
3030
0202
0303
,  // measure 39
0001
0000
1000
0000
0100
0000
0010
0000
0001
0000
1000
0000
,  // measure 40
0200
0000
0000
0000
0000
0000
0300
0000
0000
0000
0000
0010
,  // measure 41
0200
0000
0300
0000
,  // measure 42
0020
0000
0000
0000
0000
0000
0030
0000
0000
0000
0000
0001
,  // measure 43
2000
0000
3000
0000
,  // measure 44
0220
0000
0000
0000
0000
0000
0330
0000
0000
0000
1000
0000
,  // measure 45
0001
0000
0000
0000
0000
0000
0000
0000
0000
0000
0100
0000
,  // measure 46
0010
0000
0000
0000
0000
1000
0001
0000
0000
0000
0000
0010
,  // measure 47
0100
0000
1000
0000
0001
0000
0200
0000
0000
0000
0000
0000
,  // measure 48
0310
1000
0001
0010
,  // measure 49
1000
0100
0001
0100
,  // measure 50
0020
1030
0200
0301
,  // measure 51
2000
3100
0002
0013
,  // measure 52
0100
0000
1000
0100
0000
0000
1000
0000
0001
1000
0000
0000
,  // measure 53
0001
0000
0100
0001
0000
0000
0100
0000
0010
0100
0000
0000
,  // measure 54
0010
1000
0001
0010
,  // measure 55
1001
1001
0000
0000
,  // measure 56
0010
0000
0000
0000
;

//---------------dance-single - ----------------
#NOTES:
     dance-single:
     :
     Easy:
     3:
     0.189073,0.233234,0.009255,0.129574,0.000000,143.000000,142.000000,1.000000,14.000000,0.000000,0.000000,0.189073,0.233234,0.009255,0.129574,0.000000,143.000000,142.000000,1.000000,14.000000,0.000000,0.000000:
// measure 0
0000
0000
0000
0000
,  // measure 1
0000
0000
0000
0000
,  // measure 2
0000
0000
0000
0000
,  // measure 3
0000
0000
0000
0000
,  // measure 4
1000
1000
1000
0000
,  // measure 5
0001
0001
0001
0000
,  // measure 6
0010
0000
0010
0000
,  // measure 7
0100
0100
0000
0000
,  // measure 8
2000
3000
0002
0003
,  // measure 9
1000
0010
0100
0100
,  // measure 10
0002
0003
0020
0030
,  // measure 11
0100
1000
0001
0010
,  // measure 12
0002
0003
2000
3000
,  // measure 13
0010
0100
0001
0010
,  // measure 14
0200
0300
2000
3000
,  // measure 15
0010
0100
0010
0100
,  // measure 16
0001
0010
0100
0000
,  // measure 17
1000
0001
1000
0000
,  // measure 18
0010
0100
0001
0000
,  // measure 19
1000
0010
0001
0000
,  // measure 20
1000
0100
0010
0000
,  // measure 21
0001
0100
1000
0000
,  // measure 22
0001
0100
0010
0000
,  // measure 23
1000
0001
0010
0000
,  // measure 24
0100
0100
0010
0000
,  // measure 25
0001
0100
0001
0000
,  // measure 26
1000
1000
0100
0000
,  // measure 27
1000
0010
1000
0000
,  // measure 28
0100
0010
0100
0000
,  // measure 29
0001
1000
0001
0000
,  // measure 30
0010
0001
1000
0000
,  // measure 31
0010
0010
0010
1001
,  // measure 32
0100
0010
0100
0000
,  // measure 33
0001
1000
0001
0000
,  // measure 34
1000
0100
0010
0000
,  // measure 35
0001
0010
0100
0000
,  // measure 36
1000
0001
1000
0001
,  // measure 37
0100
0010
0100
0010
,  // measure 38
1000
0000
0001
0000
,  // measure 39
0010
0010
0010
0000
,  // measure 40
0100
0000
0000
0000
,  // measure 41
1000
0000
0000
0000
,  // measure 42
0002
0000
0003
0000
,  // measure 43
2000
0000
3000
0000
,  // measure 44
0020
0000
0000
0030
,  // measure 45
0200
0000
0000
0300
,  // measure 46
0002
0003
2000
3000
,  // measure 47
0100
0010
0100
0000
,  // measure 48
0010
0000
0001
0000
,  // measure 49
1000
0000
0010
0000
,  // measure 50
0100
0000
0001
0000
,  // measure 51
1000
0000
0100
0000
,  // measure 52
0010
0010
0001
0001
,  // measure 53
1000
1000
0010
0010
,  // measure 54
0100
0100
0001
0001
,  // measure 55
1000
1000
0000
0000
,  // measure 56
0010
0000
0000
0000
;

//---------------dance-single - ----------------
#NOTES:
     dance-single:
     :
     Beginner:
     1:
     0.093875,0.127839,0.009255,0.000000,0.000000,71.000000,70.000000,1.000000,0.000000,0.000000,0.000000,0.093875,0.127839,0.009255,0.000000,0.000000,71.000000,70.000000,1.000000,0.000000,0.000000,0.000000:
// measure 0
0000
0000
0000
0000
,  // measure 1
0000
0000
0000
0000
,  // measure 2
0000
0000
0000
0000
,  // measure 3
0000
0000
0000
0000
,  // measure 4
1000
0000
0000
0000
,  // measure 5
0001
0000
0000
0000
,  // measure 6
0100
0000
0000
0000
,  // measure 7
0010
0000
0000
0000
,  // measure 8
1000
0000
0000
0000
,  // measure 9
0100
0000
0000
0000
,  // measure 10
0010
0000
0000
0000
,  // measure 11
0100
0000
0000
0000
,  // measure 12
0001
0000
0000
0000
,  // measure 13
0100
0000
0000
0000
,  // measure 14
0010
0000
0000
0000
,  // measure 15
0100
0000
0000
0000
,  // measure 16
1000
0000
1000
0000
,  // measure 17
0001
0000
0001
0000
,  // measure 18
0100
0000
0100
0000
,  // measure 19
0010
0000
0010
0000
,  // measure 20
1000
0000
0000
0000
,  // measure 21
0001
0000
0000
0000
,  // measure 22
0010
0000
0100
0000
,  // measure 23
0010
0000
0100
0000
,  // measure 24
0010
0000
0000
0000
,  // measure 25
0001
0000
0000
0000
,  // measure 26
1000
0000
0000
0000
,  // measure 27
0010
0000
0010
0000
,  // measure 28
0100
0000
0000
0000
,  // measure 29
0001
0000
0000
0000
,  // measure 30
1000
0000
0000
0000
,  // measure 31
0100
0000
0000
1001
,  // measure 32
0000
0000
0000
0000
,  // measure 33
1000
0000
0000
0000
,  // measure 34
0001
0000
0000
0000
,  // measure 35
0010
0000
0000
0000
,  // measure 36
0100
0000
0000
0000
,  // measure 37
1000
0000
0000
0000
,  // measure 38
0010
0000
0010
0000
,  // measure 39
0100
0000
0100
0000
,  // measure 40
0001
0000
0000
0000
,  // measure 41
0000
0000
0000
0000
,  // measure 42
1000
0000
0000
0000
,  // measure 43
1000
0000
0000
0000
,  // measure 44
0100
0000
0000
0000
,  // measure 45
0100
0000
0000
0000
,  // measure 46
0010
0000
0010
0000
,  // measure 47
0010
0010
0010
0000
,  // measure 48
0000
0001
0000
0001
,  // measure 49
0000
0001
0000
0001
,  // measure 50
0000
1000
0000
1000
,  // measure 51
0000
1000
0000
1000
,  // measure 52
0000
0010
0000
0010
,  // measure 53
0000
0010
0000
0010
,  // measure 54
0010
0000
0000
0000
,  // measure 55
0100
0100
0000
0000
;
