#VERSION:0.83;
#TITLE:Harness the Winds;
#SUBTITLE:(Howling Grotto Past);
#ARTIST:Rainbowdragoneyes;
#TITLETRANSLIT:;
#SUBTITLETRANSLIT:;
#ARTISTTRANSLIT:;
#GENRE:The Messenger;
#ORIGIN:;
#CREDIT:[Ness];
#BANNER:The Messenger - Harness the Winds (Howling Grotto Past).png;
#BACKGROUND:The Messenger - Harness the Winds (Howling Grotto Past)-bg.png;
#PREVIEWVID:;
#JACKET:The Messenger - Harness the Winds (Howling Grotto Past)-jacket.png;
#CDIMAGE:;
#DISCIMAGE:Screenshot 2023-05-14 220518.png;
#LYRICSPATH:;
#CDTITLE:;
#MUSIC:The Messenger - Harness the Winds (Howling Grotto Past).mp3;
#OFFSET:-0.015000;
#SAMPLESTART:14.405258;
#SAMPLELENGTH:13.950350;
#SELECTABLE:YES;
#DISPLAYBPM:133.000;
#BPMS:0.000=133.350,
30.000=266.660,
32.000=133.330,
222.000=266.660,
224.000=133.330;
#STOPS:30.000=0.075,
30.333=0.075,
30.667=0.075,
31.000=0.075,
31.333=0.075,
31.667=0.075,
222.000=0.075,
222.333=0.075,
222.667=0.075,
223.000=0.075,
223.333=0.075,
223.667=0.075;
#DELAYS:;
#WARPS:;
#TIMESIGNATURES:0.000=4=4;
#TICKCOUNTS:0.000=2;
#COMBOS:0.000=1;
#SPEEDS:0.000=1.000=0.000=0;
#SCROLLS:0.000=1.000;
#FAKES:;
#LABELS:0.000=Song Start;
#LASTSECONDHINT:104.449539;
#BGCHANGES:;
#KEYSOUNDS:;
#ATTACKS:
;

//---------------dance-single - ----------------
#NOTEDATA:;
#CHARTNAME:;
#STEPSTYPE:dance-single;
#DESCRIPTION:;
#CHARTSTYLE:;
#DIFFICULTY:Challenge;
#METER:9;
#RADARVALUES:0.518298,0.544213,0.333191,0.222128,0.800585,392.000000,356.000000,36.000000,24.000000,0.000000,0.000000,0.000000,0.000000,0.000000,0.518298,0.544213,0.333191,0.222128,0.800585,392.000000,356.000000,36.000000,24.000000,0.000000,0.000000,0.000000,0.000000,0.000000;
#CREDIT:;
#DISPLAYBPM:0.000000;
#NOTES:
0000
0000
0000
0000
,
0000
0000
0000
0000
,
0000
0000
0000
0000
,
0000
0000
0000
0000
,
0001
0100
0001
0010
0000
0100
1000
0010
1000
0100
0000
0010
,
0001
1000
0001
0010
0000
0100
1000
0001
1000
0100
0000
0010
,
0001
0011
1010
0100
,
0101
1100
0000
0000
,
1000
0001
1000
0010
0100
0001
2000
0000
0000
3100
0010
0001
,
0200
0000
0302
0000
1003
0000
2000
0000
0000
3100
0000
0000
,
0010
0001
1000
0010
0100
0001
0020
0000
0000
0130
1000
0010
,
0200
0000
0000
0302
0000
0000
1003
0100
0010
1001
0000
0000
,
0001
0100
0001
0001
0010
0100
1000
0000
0000
1000
0010
1000
,
0100
0000
0001
0000
0100
0010
0001
0000
0001
0100
0000
0000
,
0010
1000
0100
0100
1000
0001
0100
0000
0000
0001
0010
0100
,
1000
0110
0012
1003
,
1001
0000
1000
0010
0000
0010
0100
0000
0000
0101
0000
0000
,
0001
0010
0100
1000
0000
0001
0010
0000
0000
0011
0000
0000
,
1010
0000
1000
0001
0000
0001
1000
0000
0000
1100
0000
0000
,
0001
0100
0010
1000
0010
0100
0001
0000
0000
1001
0000
0000
,
1010
0000
1000
0100
0000
0100
1000
0000
1000
0001
0000
0000
,
0100
0001
0010
0001
0000
1000
0100
0000
0010
0001
0000
0000
,
0110
0000
1000
0010
0000
0001
0100
0000
0010
1000
0100
1000
,
0100
0000
0100
0010
0000
0110
0000
0001
0100
0101
0000
0000
,
0001
0000
0001
0010
0000
0010
0100
0000
0100
1000
0000
1000
,
0010
1000
0001
1000
0000
1000
0100
0000
0100
0010
0000
0010
,
0001
0000
0001
0100
0000
0100
0010
0000
0010
1000
0000
1000
,
0100
0010
0100
1000
0000
0001
0010
0000
0100
2000
0000
0000
,
3001
0100
0010
0100
0001
0100
0010
0000
0000
1010
0000
0000
,
1000
0001
1000
0100
1000
0001
0100
0000
0000
1001
0000
0000
,
0010
1000
0100
1000
0010
1000
0100
0000
0000
0010
0001
1000
,
0001
0000
0100
0010
0000
0110
0000
1000
0010
1010
0000
0000
,
0002
2003
3100
0110
,
0001
0100
1000
0100
0000
0010
1000
0000
1000
0100
0100
0000
,
0020
0230
1300
1001
,
1000
0000
1000
0010
0100
0010
1000
0001
0010
0100
0000
0000
,
1000
0100
1000
0001
0000
0000
0001
0100
0001
0010
0000
0000
,
0210
0000
0000
2300
0000
0000
3020
0000
0000
0130
0001
1000
,
0010
1000
1001
0000
0000
0000
1000
0001
0101
0000
0000
0000
,
1100
0000
0110
0000
0101
0000
1001
0000
0001
0010
0000
0100
,
1000
0000
0000
1000
0000
0000
1000
0000
0010
0100
0000
0001
,
0010
0000
0000
0010
0000
0000
0010
0000
0100
1000
0000
0001
,
0200
0000
0000
0320
0000
0000
1030
0000
1000
0001
0000
0001
,
0020
0230
0310
0000
,
2000
0000
0000
3020
0000
0000
0130
0000
0100
0000
1001
0000
,
0002
0000
0000
0023
0000
0000
0031
0000
0001
1000
0000
0010
,
0100
0000
0000
0000
0000
0001
1000
0000
0000
0000
0000
0100
,
0010
0000
0001
0000
0100
0000
1100
0000
0000
0000
0000
0000
,
0000
0010
1000
0000
0100
0000
0001
0000
0100
0000
1000
0000
,
0010
0000
0100
0000
0001
0000
0010
0000
0100
0000
1000
0000
,
0001
0000
0010
0000
1000
0000
0100
0000
0010
0000
1000
0000
,
0100
0000
0001
0000
0010
0000
0100
0000
0001
0000
1000
0000
,
0100
1000
0001
0100
0000
0100
0010
1000
0001
0010
0000
0010
,
0100
1000
0010
0100
0000
0100
0001
0010
0001
0100
0000
0010
,
1000
0110
0101
0001
,
1100
1001
0000
0000
,
0010
0000
0000
0000
;

//---------------dance-single - ----------------
#NOTEDATA:;
#CHARTNAME:;
#STEPSTYPE:dance-single;
#DESCRIPTION:;
#CHARTSTYLE:;
#DIFFICULTY:Hard;
#METER:8;
#RADARVALUES:0.409878,0.440553,0.277660,0.222128,0.458138,310.000000,280.000000,30.000000,24.000000,0.000000,0.000000,0.000000,0.000000,0.000000,0.409878,0.440553,0.277660,0.222128,0.458138,310.000000,280.000000,30.000000,24.000000,0.000000,0.000000,0.000000,0.000000,0.000000;
#CREDIT:;
#NOTES:
0000
0000
0000
0000
,
0000
0000
0000
0000
,
0000
0000
0000
0000
,
0000
0000
0000
0000
,
0001
1001
0010
0011
,
1000
1001
0100
1100
,
0001
1000
0001
1000
,
0110
1001
0000
0000
,
0001
0000
0001
0010
0000
0100
2000
0000
0000
3010
0000
1000
,
0001
0000
0100
0000
0001
0000
0100
0000
0000
0101
0000
0000
,
1000
0000
1000
0010
0000
0100
0002
0000
0000
1003
0000
0010
,
0200
0000
0000
0301
0000
0000
1000
0001
1000
0010
0000
0000
,
1100
0000
0000
0001
1000
0001
0200
0000
0000
0310
0000
1000
,
0100
0000
0010
0000
0001
0000
0100
0000
0000
1001
0000
0000
,
0010
0000
0010
0001
0000
1000
0020
0000
0000
0130
0000
0000
,
0101
0000
0001
1000
0000
0001
1000
0000
0000
1100
0000
0000
,
0100
0000
0100
1000
0000
0010
0200
0000
0000
0301
0000
0010
,
0100
1000
0001
0110
,
0010
0000
0010
0001
0000
1000
0200
0000
0000
1300
0000
0001
,
0020
0000
0000
0130
0000
0000
0010
0001
1000
0001
0000
0000
,
0101
0000
0000
1000
0001
0100
0020
0000
0000
1030
0000
0000
,
0100
1000
0001
0100
0000
0000
0010
0000
0000
0101
0000
0000
,
0001
0000
1000
0010
0000
1000
0200
0000
0000
1300
0000
0000
,
0110
0000
0001
0010
0000
0100
0000
1000
0001
1000
0000
0000
,
1002
0000
0000
0203
0000
0000
0320
0000
0000
1030
0000
1000
,
0100
0000
0100
0010
0000
0010
0002
0000
0000
0103
0000
0000
,
0001
0000
0001
1000
0000
1000
0100
0000
0000
0010
0000
0000
,
0012
2003
3020
0130
,
0001
0000
1000
0010
0000
0100
0001
0000
0000
0101
0000
0000
,
0001
0000
0010
0100
0000
1000
0010
0000
0000
1010
0000
0000
,
0100
0000
0001
1000
0000
0010
0100
0000
0000
1001
0000
0000
,
0001
0000
1000
0100
0000
0010
0000
0001
0100
0001
0000
0000
,
1000
0110
0110
0001
,
1000
0010
0100
0001
0000
0000
0010
0000
0000
0110
0000
0000
,
0001
1100
1100
0010
,
1000
0001
0100
0010
0000
1000
0100
0000
0010
0001
0000
0010
,
0100
0000
1000
0100
0000
0000
1000
0000
0001
0100
0000
0000
,
0002
0023
2030
3200
,
0301
0001
0001
0000
0000
0000
1000
1000
1000
0000
0000
0000
,
0001
0000
0100
0000
0010
0000
1000
0000
0000
0110
0000
0000
,
0001
0000
0000
0001
0000
0000
0001
0000
0000
0001
0000
1000
,
0100
0100
0200
0300
,
0010
0000
0000
0010
0000
0000
0010
0000
0000
0001
0000
1000
,
0001
0001
0002
0003
,
0110
0000
0000
0010
0000
0000
0010
0000
0000
0000
1000
0000
,
0100
0000
0000
0100
0000
0000
0010
0000
0000
0000
0000
0001
,
0100
0000
0000
0000
0000
1000
0100
0000
0000
0000
0000
0001
,
0010
0000
0100
0000
1000
0000
2100
0000
0000
0000
0000
0000
,
3000
0000
0001
0000
0100
0000
0001
0000
1000
0000
0001
0000
,
0010
0000
0100
0000
0010
0000
0100
0000
1000
0000
0010
0000
,
1000
0000
0100
0000
0010
0000
0001
0000
0100
0000
0001
0000
,
0010
0000
0100
0000
1000
0000
0010
0000
1000
0000
0001
0000
,
0100
0000
0100
0010
0000
0010
1000
0000
1000
0100
0000
0100
,
0010
0000
0010
0001
0000
0001
1000
0000
1000
0010
0000
0010
,
0100
0001
1000
0010
,
0110
1001
0000
0000
,
0010
0000
0000
0000
;

//---------------dance-single - ----------------
#NOTEDATA:;
#CHARTNAME:;
#STEPSTYPE:dance-single;
#DESCRIPTION:;
#CHARTSTYLE:;
#DIFFICULTY:Medium;
#METER:6;
#RADARVALUES:0.278982,0.336894,0.166596,0.305425,0.097181,211.000000,193.000000,18.000000,33.000000,0.000000,0.000000,0.000000,0.000000,0.000000,0.278982,0.336894,0.166596,0.305425,0.097181,211.000000,193.000000,18.000000,33.000000,0.000000,0.000000,0.000000,0.000000,0.000000;
#CREDIT:;
#NOTES:
// measure 0
0000
0000
0000
0000
,  // measure 1
0000
0000
0000
0000
,  // measure 2
0000
0000
0000
0000
,  // measure 3
0000
0000
0000
0000
,  // measure 4
0001
1000
0010
0100
,  // measure 5
0001
0010
0100
1000
,  // measure 6
1001
1000
0001
1000
,  // measure 7
0100
0100
0000
0000
,  // measure 8
2000
3020
0130
0110
,  // measure 9
2000
3002
0103
1001
,  // measure 10
0002
0023
0130
0110
,  // measure 11
2000
0000
0000
3002
0000
0000
0103
0000
0100
0010
0000
0000
,  // measure 12
2000
3002
0013
1001
,  // measure 13
0020
0032
0103
1100
,  // measure 14
0200
2300
3001
0100
,  // measure 15
0110
0110
2002
3003
,  // measure 16
0010
1000
0200
0000
,  // measure 17
1300
0000
1000
0001
0000
0000
0200
0000
0000
0000
0000
0000
,  // measure 18
0301
0001
0020
0000
,  // measure 19
0130
0100
1001
0100
,  // measure 20
0010
0100
0020
0000
,  // measure 21
0031
0000
1000
0010
0000
0000
0100
0000
0000
0110
0000
0000
,  // measure 22
1000
0100
0020
0000
,  // measure 23
0031
1000
1001
0000
,  // measure 24
0010
0001
0100
0010
,  // measure 25
1000
0100
0010
0001
,  // measure 26
1000
0000
0100
1000
0000
0000
0001
0000
0100
0001
0000
0000
,  // measure 27
0010
0100
2000
3000
,  // measure 28
1000
0001
0100
0010
,  // measure 29
1000
0010
0001
0100
,  // measure 30
0010
0000
0100
0010
0000
0000
1000
0000
0001
1000
0000
0000
,  // measure 31
0100
0010
0001
1001
,  // measure 32
0100
0110
0110
0100
,  // measure 33
0001
0010
0100
1000
,  // measure 34
0010
0100
0001
1000
,  // measure 35
0001
0010
0100
1000
,  // measure 36
0010
0001
0010
1000
,  // measure 37
0001
1000
0001
0100
,  // measure 38
0010
0000
0100
0000
,  // measure 39
0001
0000
0001
0000
0001
0000
0001
0000
0000
1000
0000
0000
,  // measure 40
0200
0000
0000
0000
0000
0000
0300
0000
0000
0000
0000
0010
,  // measure 41
0200
0000
0300
0000
,  // measure 42
0020
0000
0000
0000
0000
0000
0030
0000
0000
0000
0000
0001
,  // measure 43
2000
0000
3000
0000
,  // measure 44
0220
0000
0000
0000
0000
0000
0330
0000
0000
0000
1000
0000
,  // measure 45
0001
0000
0000
0000
0000
0000
0000
0000
0000
0000
0000
0100
,  // measure 46
0010
0000
0000
0000
0000
1000
0001
0000
0000
0000
0000
0010
,  // measure 47
0100
0000
0100
0000
0100
0000
0200
0000
0000
0000
0000
0000
,  // measure 48
1300
1000
0001
0001
,  // measure 49
1000
0100
0001
0100
,  // measure 50
0020
1030
0200
0301
,  // measure 51
2000
3100
0002
0013
,  // measure 52
0100
0000
1000
0100
0000
0000
1000
0000
0001
1000
0000
0000
,  // measure 53
0001
0000
0100
0001
0000
0000
0100
0000
0010
0100
0000
0000
,  // measure 54
0010
1000
0001
0010
,  // measure 55
1001
1001
0000
0000
,  // measure 56
0010
0000
0000
0000
;

//---------------dance-single - ----------------
#NOTEDATA:;
#CHARTNAME:;
#STEPSTYPE:dance-single;
#DESCRIPTION:;
#CHARTSTYLE:;
#DIFFICULTY:Easy;
#METER:3;
#RADARVALUES:0.189073,0.233234,0.009255,0.129574,0.000000,143.000000,142.000000,1.000000,14.000000,0.000000,0.000000,0.000000,0.000000,0.000000,0.189073,0.233234,0.009255,0.129574,0.000000,143.000000,142.000000,1.000000,14.000000,0.000000,0.000000,0.000000,0.000000,0.000000;
#CREDIT:;
#NOTES:
// measure 0
0000
0000
0000
0000
,  // measure 1
0000
0000
0000
0000
,  // measure 2
0000
0000
0000
0000
,  // measure 3
0000
0000
0000
0000
,  // measure 4
0001
0001
0001
0000
,  // measure 5
1000
1000
1000
0000
,  // measure 6
0100
0000
0100
0000
,  // measure 7
0010
0010
0000
0000
,  // measure 8
0002
0003
2000
3000
,  // measure 9
0001
0100
0010
0010
,  // measure 10
2000
3000
0200
0300
,  // measure 11
0010
0001
1000
0100
,  // measure 12
2000
3000
0002
0003
,  // measure 13
0100
0010
1000
0100
,  // measure 14
0020
0030
0002
0003
,  // measure 15
0100
0010
0100
0010
,  // measure 16
1000
0100
0010
0000
,  // measure 17
0001
1000
0001
0000
,  // measure 18
0100
0010
1000
0000
,  // measure 19
0001
0100
1000
0000
,  // measure 20
0001
0010
0100
0000
,  // measure 21
1000
0010
0001
0000
,  // measure 22
1000
0010
0100
0000
,  // measure 23
0001
1000
0100
0000
,  // measure 24
0010
0010
0100
0000
,  // measure 25
1000
0010
1000
0000
,  // measure 26
0001
0001
0010
0000
,  // measure 27
0001
0100
0001
0000
,  // measure 28
0010
0100
0010
0000
,  // measure 29
1000
0001
1000
0000
,  // measure 30
0100
1000
0001
0000
,  // measure 31
0100
0100
0100
1001
,  // measure 32
0010
0100
0010
0000
,  // measure 33
1000
0001
1000
0000
,  // measure 34
0001
0010
0100
0000
,  // measure 35
1000
0100
0010
0000
,  // measure 36
0001
1000
0001
1000
,  // measure 37
0010
0100
0010
0100
,  // measure 38
0001
0000
1000
0000
,  // measure 39
0100
0100
0100
0000
,  // measure 40
0010
0000
0000
0000
,  // measure 41
0001
0000
0000
0000
,  // measure 42
2000
0000
3000
0000
,  // measure 43
0002
0000
0003
0000
,  // measure 44
0200
0000
0000
0300
,  // measure 45
0020
0000
0000
0030
,  // measure 46
2000
3000
0002
0003
,  // measure 47
0010
0100
0010
0000
,  // measure 48
0100
0000
1000
0000
,  // measure 49
0001
0000
0100
0000
,  // measure 50
0010
0000
1000
0000
,  // measure 51
0001
0000
0010
0000
,  // measure 52
0100
0100
1000
1000
,  // measure 53
0001
0001
0100
0100
,  // measure 54
0010
0010
1000
1000
,  // measure 55
0001
0001
0000
0000
,  // measure 56
0010
0000
0000
0000
;

//---------------dance-single - ----------------
#NOTEDATA:;
#CHARTNAME:;
#STEPSTYPE:dance-single;
#DESCRIPTION:;
#CHARTSTYLE:;
#DIFFICULTY:Beginner;
#METER:1;
#RADARVALUES:0.093875,0.127839,0.009255,0.000000,0.000000,71.000000,70.000000,1.000000,0.000000,0.000000,0.000000,0.000000,0.000000,0.000000,0.093875,0.127839,0.009255,0.000000,0.000000,71.000000,70.000000,1.000000,0.000000,0.000000,0.000000,0.000000,0.000000,0.000000;
#CREDIT:;
#NOTES:
// measure 0
0000
0000
0000
0000
,  // measure 1
0000
0000
0000
0000
,  // measure 2
0000
0000
0000
0000
,  // measure 3
0000
0000
0000
0000
,  // measure 4
0001
0000
0000
0000
,  // measure 5
1000
0000
0000
0000
,  // measure 6
0010
0000
0000
0000
,  // measure 7
0100
0000
0000
0000
,  // measure 8
0001
0000
0000
0000
,  // measure 9
0010
0000
0000
0000
,  // measure 10
0100
0000
0000
0000
,  // measure 11
0010
0000
0000
0000
,  // measure 12
1000
0000
0000
0000
,  // measure 13
0010
0000
0000
0000
,  // measure 14
0100
0000
0000
0000
,  // measure 15
0010
0000
0000
0000
,  // measure 16
0001
0000
0001
0000
,  // measure 17
1000
0000
1000
0000
,  // measure 18
0010
0000
0010
0000
,  // measure 19
0100
0000
0100
0000
,  // measure 20
0001
0000
0000
0000
,  // measure 21
1000
0000
0000
0000
,  // measure 22
0100
0000
0010
0000
,  // measure 23
0100
0000
0010
0000
,  // measure 24
0100
0000
0000
0000
,  // measure 25
1000
0000
0000
0000
,  // measure 26
0001
0000
0000
0000
,  // measure 27
0100
0000
0100
0000
,  // measure 28
0010
0000
0000
0000
,  // measure 29
1000
0000
0000
0000
,  // measure 30
0001
0000
0000
0000
,  // measure 31
0010
0000
0000
1001
,  // measure 32
0000
0000
0000
0000
,  // measure 33
0001
0000
0000
0000
,  // measure 34
1000
0000
0000
0000
,  // measure 35
0100
0000
0000
0000
,  // measure 36
0010
0000
0000
0000
,  // measure 37
0001
0000
0000
0000
,  // measure 38
0100
0000
0100
0000
,  // measure 39
0010
0000
0010
0000
,  // measure 40
1000
0000
0000
0000
,  // measure 41
0000
0000
0000
0000
,  // measure 42
0001
0000
0000
0000
,  // measure 43
0001
0000
0000
0000
,  // measure 44
0010
0000
0000
0000
,  // measure 45
0010
0000
0000
0000
,  // measure 46
0100
0000
0100
0000
,  // measure 47
0100
0100
0100
0000
,  // measure 48
0000
1000
0000
1000
,  // measure 49
0000
1000
0000
1000
,  // measure 50
0000
0001
0000
0001
,  // measure 51
0000
0001
0000
0001
,  // measure 52
0000
0100
0000
0100
,  // measure 53
0000
0100
0000
0100
,  // measure 54
0100
0000
0000
0000
,  // measure 55
0010
0010
0000
0000
;
