#VERSION:0.83;
#TITLE:Forgotten;
#SUBTITLE:(Forlorn Temple Past);
#ARTIST:Rainbowdragoneyes;
#TITLETRANSLIT:;
#SUBTITLETRANSLIT:;
#ARTISTTRANSLIT:;
#GENRE:The Messenger;
#ORIGIN:;
#CREDIT:[Ness];
#BANNER:The Messenger - Forgotten (Forlorn Temple Past).png;
#BACKGROUND:The Messenger - Forgotten (Forlorn Temple Past)-bg.png;
#PREVIEWVID:;
#JACKET:The Messenger - Forgotten (Forlorn Temple Past)-jacket.png;
#CDIMAGE:;
#DISCIMAGE:Screenshot 2023-05-14 224532.png;
#LYRICSPATH:;
#CDTITLE:;
#MUSIC:The Messenger - Forgotten (Forlorn Temple Past).mp3;
#OFFSET:-0.015000;
#SAMPLESTART:0.000000;
#SAMPLELENGTH:19.200001;
#SELECTABLE:YES;
#DISPLAYBPM:150.000000;
#BPMS:0.000=150.000,
143.000=600.000,
144.000=150.000;
#STOPS:143.000=0.075,
143.250=0.075,
143.500=0.075,
143.750=0.075,
150.000=0.400;
#DELAYS:;
#WARPS:;
#TIMESIGNATURES:0.000=4=4;
#TICKCOUNTS:0.000=2;
#COMBOS:0.000=1;
#SPEEDS:0.000=1.000=0.000=0;
#SCROLLS:0.000=1.000;
#FAKES:;
#LABELS:0.000=Song Start;
#LASTSECONDHINT:130.046951;
#BGCHANGES:;
#KEYSOUNDS:;
#ATTACKS:
;

//---------------dance-single - ----------------
#NOTEDATA:;
#CHARTNAME:;
#STEPSTYPE:dance-single;
#DESCRIPTION:;
#CHARTSTYLE:;
#DIFFICULTY:Challenge;
#METER:11;
#RADARVALUES:0.920251,1.024702,0.555457,0.277728,1.037624,835.000000,763.000000,72.000000,36.000000,0.000000,0.000000,24.000000,0.000000,0.000000,0.920251,1.024702,0.555457,0.277728,1.037624,835.000000,763.000000,72.000000,36.000000,0.000000,0.000000,24.000000,0.000000,0.000000;
#CREDIT:;
#DISPLAYBPM:0.000000;
#NOTES:
// measure 0
0000
0000
0000
0000
,  // measure 1
0000
0000
0000
0000
,  // measure 2
0000
0000
0000
0000
,  // measure 3
0000
0000
0000
0000
,  // measure 4
2002
0000
3003
0000
1010
1000
0001
1000
,  // measure 5
0020
0000
0000
0030
1001
1000
0001
0010
,  // measure 6
0200
0000
0000
0300
1100
1000
0010
0001
,  // measure 7
0010
0000
0100
0000
0001
0100
1000
0100
,  // measure 8
0001
0000
0000
0000
0000
0000
1000
0100
1000
0000
0000
0000
0010
0000
0000
0000
0000
0000
0100
0001
0100
0000
0000
0000
,  // measure 9
0001
1000
0100
0010
0001
0001
0100
0010
,  // measure 10
1000
0000
0000
0000
0000
0000
0010
0100
0010
0000
0000
0000
1000
0000
0000
0000
0000
0000
0001
0100
0001
0000
0000
0000
,  // measure 11
0040
0400
0000
0000
0000
0000
0000
0000
0000
0030
0300
0000
4000
0004
0000
0000
0000
0000
0000
0000
0000
3000
0003
0000
,  // measure 12
1000
0000
0000
0100
0000
0000
1000
0100
1000
0010
0000
0000
0100
0000
0000
0001
0000
0000
0010
0100
0010
0001
0000
0000
,  // measure 13
1000
0001
0100
0010
0110
0001
1000
0010
,  // measure 14
0100
0000
0000
0001
0000
0000
1000
0100
0010
0001
0000
0000
0010
0000
0000
0100
0000
0000
1000
0010
0100
0001
0000
0000
,  // measure 15
4000
0400
0000
0000
0000
0000
0000
0000
0000
3000
0300
0000
0040
0004
0000
0000
0000
0000
0000
0000
0000
0030
0003
0000
,  // measure 16
0010
0000
0000
0100
0000
0000
1000
0001
1000
0100
0000
0000
1001
0000
0000
0010
0000
0000
0100
0001
0010
0001
0000
0000
,  // measure 17
0010
0000
0100
1000
0010
0000
0100
0000
0001
0000
1000
0000
0100
0000
0100
0000
,  // measure 18
2100
0000
0000
0000
0000
0000
0000
0000
0000
3000
0000
0000
0012
0000
0000
0000
0000
0000
0000
0000
0000
0003
0000
0000
0100
0000
0000
0000
0000
0000
0010
0000
0000
0000
0000
0000
1000
0000
0001
0000
1000
0000
0100
0000
0000
0000
0000
0000
,  // measure 19
0040
0400
0000
0000
0000
0000
0000
0000
0000
0030
0300
0000
4000
0004
0000
0000
0000
0000
0000
0000
0000
3000
0003
0000
,  // measure 20
2000
0000
0000
0000
3001
0000
1000
0100
0020
0000
0000
0000
0130
0000
1000
0000
,  // measure 21
0001
0000
0100
0010
1000
0000
0001
1000
0000
0000
1020
0000
0000
0000
0030
0000
,  // measure 22
0201
0000
0000
0000
0000
0000
0310
1000
0010
0100
0000
0000
1001
0000
0000
0000
0000
0000
0001
0010
0001
1000
0000
0000
,  // measure 23
0400
4000
0000
0000
0000
0000
0000
0000
0000
0300
3000
0000
0004
0400
0000
0000
0000
0000
0000
0000
0000
0003
0300
0000
,  // measure 24
0001
0010
0001
1000
0010
1000
0001
1000
0001
0010
0001
1000
0010
1000
0001
1000
,  // measure 25
0001
0100
0001
1000
0100
1000
0001
1000
0001
0100
0001
1000
0100
1000
0001
1000
,  // measure 26
0001
0100
0010
0100
0001
1000
0010
0100
0001
0100
0010
0100
0001
1000
0010
0100
,  // measure 27
0002
0000
0013
0011
0010
0110
0100
1100
,  // measure 28
1000
0100
0010
0001
1000
0100
1000
0001
1000
0100
0010
0001
1000
0100
1000
0001
,  // measure 29
1000
0010
0100
0001
1000
0010
1000
0001
1000
0010
0100
0001
1000
0010
1000
0001
,  // measure 30
0100
0010
1000
0001
0100
0010
0100
0001
0100
0010
1000
0001
0100
0010
0100
0001
,  // measure 31
2000
0000
3100
1100
0001
1001
0100
0101
,  // measure 32
0002
0103
2000
3010
0200
1300
0002
0013
,  // measure 33
2000
3001
0020
1030
0200
0301
2000
3100
,  // measure 34
0010
0001
0000
0101
0000
2010
0001
3000
,  // measure 35
4000
0000
0040
0000
0000
0000
0000
0000
3000
0000
0030
0000
0000
0000
0000
0000
0000
0000
0000
0000
0000
0000
0000
0000
0400
0000
0004
0000
0000
0000
0000
0000
0300
0000
0003
0000
1000
0000
0000
0100
0000
0000
0010
0000
0000
0001
0000
0000
,  // measure 36
1000
0100
0001
1000
0010
0001
0100
0010
,  // measure 37
1000
0000
0001
0100
0010
0000
0001
0100
0000
0000
0002
0000
0013
0000
0100
0000
,  // measure 38
1000
0000
0000
0000
0000
0000
0000
0000
0010
0000
0000
0000
0000
0000
0000
0000
0100
0000
0000
0000
0000
0000
0000
0000
0010
0000
0000
0000
0000
0000
0000
0000
0000
0000
0000
0000
0000
0000
0000
0000
0000
0000
0000
0000
0000
0000
0000
0000
0100
0000
0000
0000
0000
0000
0000
0000
0000
0000
0000
0000
0001
0000
0000
0000
0000
0000
0000
0000
0000
0000
0000
0000
0010
0000
0000
0000
0000
0000
0000
0000
0000
0000
0000
0000
0100
0000
0000
0000
0000
0000
0000
0000
0000
0000
0000
0000
1000
0000
0000
0000
0000
0000
0000
0000
0000
0000
0000
0000
0001
0000
0000
0000
0000
0000
0000
0000
0000
0000
0000
0000
0100
0000
0000
0000
0000
0000
0000
0000
0000
0000
0000
0000
0010
0000
0000
0000
0000
0000
0000
0000
0000
0000
0000
0000
1000
0000
0000
0000
0000
0000
0000
0000
0000
0000
0000
0000
0100
0000
0000
0000
0000
0000
0000
0000
0000
0000
0000
0000
1000
0000
0000
0000
0000
0000
0100
0000
0000
0000
0000
0000
1000
0000
0000
0000
0000
0000
0000
0000
0000
0000
0000
0000
,  // measure 39
0000
0000
0000
0000
0001
0010
0001
0000
0000
0000
0000
0000
0010
0100
0010
0000
0000
0000
0000
0000
0100
1000
0100
0000
2000
0000
0000
0000
0000
0000
0000
0000
,  // measure 40
0000
0000
0000
0000
3001
0000
0100
0000
0010
0000
1000
0000
0000
0000
0100
1000
,  // measure 41
0010
0100
0001
1000
0000
0000
0100
0000
0010
0000
0100
0000
2000
0000
0000
0000
,  // measure 42
3001
0010
0001
0010
0000
0000
0200
0000
0000
0000
0000
0000
0310
0001
1000
0001
0000
0000
0400
0040
0000
0000
0000
0000
,  // measure 43
0000
0000
0000
0000
0000
0000
0300
0000
0030
0000
0000
0000
4000
0000
0004
0000
0000
0000
0000
0000
0000
0000
0000
0000
0000
0000
0000
0000
0000
0000
3000
0000
0003
0000
0000
0000
1000
0000
0000
0100
0000
0000
0010
0000
0000
0001
0000
0000
,  // measure 44
1000
0100
0010
0001
1000
0010
0100
0001
1000
0010
0100
0001
0010
0100
1000
0001
,  // measure 45
0010
0100
1000
0001
0100
0010
1000
0001
0100
0010
1000
0001
0010
0001
1000
0010
,  // measure 46
0100
0001
1000
0100
0010
0001
1000
0010
0100
0001
1000
0100
0010
0000
0000
0000
,  // measure 47
0001
0000
1100
0000
0100
0000
1010
0000
0010
0000
0101
0000
0001
1000
0010
0100
,  // measure 48
0001
0010
0100
1000
0001
1000
0010
0100
0001
0010
0100
1000
0010
1000
0001
0100
,  // measure 49
0010
0100
0001
1000
0010
1000
0001
0100
0010
0100
0001
1000
0100
1000
0010
0100
,  // measure 50
0001
0010
0100
1000
0010
0100
0001
0010
0100
1000
0010
0100
0001
0000
0000
0000
,  // measure 51
0100
1010
0100
0011
1000
0110
0001
1100
,  // measure 52
0101
0000
0201
0000
0000
0000
0320
0000
0000
1030
0001
0000
1000
0100
1000
0100
,  // measure 53
0001
0200
0000
1000
0000
0300
0020
0000
0000
0130
0001
0000
1000
0000
0001
1000
,  // measure 54
0010
0200
0000
0000
0301
0010
0001
0200
0000
0000
0300
0000
0010
0000
1000
0100
,  // measure 55
0000
1000
0100
0020
0000
0000
0130
0000
0001
0010
0000
0100
1000
0010
0100
0000
,  // measure 56
0001
1000
0000
0001
0100
0010
0100
0000
0001
1000
0000
0010
1000
0100
1000
0000
,  // measure 57
0001
0010
0000
0200
0000
0000
0010
0000
0000
1300
0100
0000
1000
0001
0100
0000
,  // measure 58
0010
2000
0000
0000
0000
3001
0000
0010
0100
0000
1000
0000
1000
0000
0000
0000
,  // measure 59
0001
0100
0000
0000
0010
1000
0002
0000
0000
0000
1003
0100
1000
0010
0100
0000
,  // measure 60
0110
0000
0001
0100
0010
0100
0001
0000
1001
0000
0001
0010
0100
0010
0001
0000
,  // measure 61
0011
0000
0001
1000
0010
1000
0100
0000
1100
0000
1000
0010
0100
0010
1000
0000
,  // measure 62
1001
0000
1000
0100
0010
0100
1000
0000
1100
0000
0001
0010
0100
0010
0001
0000
,  // measure 63
0011
0000
1000
0010
0100
0001
0010
0000
0110
0000
0100
1000
0001
0100
0010
0000
,  // measure 64
1010
0000
1000
0001
0010
0100
0010
0000
1001
0000
0010
0001
1000
0010
0100
0000
,  // measure 65
0101
0000
0001
0100
0010
1000
0100
0000
1100
0000
1000
0010
0100
0010
1000
0000
,  // measure 66
0110
0000
0001
0100
0010
1000
0100
0000
0101
0000
1000
0010
1000
0001
0010
0000
,  // measure 67
1001
0000
0010
0001
1000
0001
0010
0000
1100
0000
0010
0001
0100
0010
1000
0000
,  // measure 68
0110
0000
1000
0100
0001
0100
1000
0000
1001
0000
0001
1000
0010
0100
0001
0000
,  // measure 69
0011
0000
1000
0010
1000
0100
0010
0000
0110
0000
0100
1000
0001
0100
0001
0000
,  // measure 70
1100
0000
1000
0010
0100
0010
1000
0000
0011
0000
0100
0001
0010
0001
0100
0000
,  // measure 71
0110
0000
0010
1000
0100
1000
0010
0000
1001
0000
0100
0010
1000
0001
0100
0000
,  // measure 72
0101
0000
1000
0100
0010
0100
1000
0000
0011
0000
0100
0010
1000
0010
0100
0000
,  // measure 73
1010
0000
1000
0001
1000
0100
0010
0000
1001
0000
0010
0001
0100
0001
0010
0000
,  // measure 74
0011
0000
1000
0010
0100
0001
1000
0000
1100
0000
0010
0001
1000
0001
0100
0000
,  // measure 75
0110
0000
0000
1000
0000
0000
0001
0000
0100
0000
0101
0000
0000
0000
1000
0000
0001
0000
1001
0000
0000
0000
0000
0000
,  // measure 76
0101
1100
0110
0011
,  // measure 77
1010
0000
0011
0000
0110
0000
1100
1000
,  // measure 78
1001
0000
0001
0000
0101
0000
0100
0000
0110
0000
0010
0000
1000
0010
1000
0001
,  // measure 79
0010
0001
0100
0010
0100
0001
1000
0001
0100
0010
1000
0100
0020
0000
0000
0000
,  // measure 80
0000
0000
0030
0000
;

//---------------dance-single - ----------------
#NOTEDATA:;
#CHARTNAME:;
#STEPSTYPE:dance-single;
#DESCRIPTION:;
#CHARTSTYLE:;
#DIFFICULTY:Hard;
#METER:9;
#RADARVALUES:0.609460,0.714187,0.177438,0.169723,0.347161,553.000000,530.000000,23.000000,22.000000,0.000000,0.000000,0.000000,0.000000,0.000000,0.609460,0.714187,0.177438,0.169723,0.347161,553.000000,530.000000,23.000000,22.000000,0.000000,0.000000,0.000000,0.000000,0.000000;
#CREDIT:;
#DISPLAYBPM:150.000000;
#NOTES:
// measure 0
0000
0000
0000
0000
,  // measure 1
0000
0000
0000
0000
,  // measure 2
0000
0000
0000
0000
,  // measure 3
0000
0000
0000
0000
,  // measure 4
2002
0000
3003
0000
0010
1000
0001
1000
,  // measure 5
0020
0000
0030
0000
1000
0001
0100
0010
,  // measure 6
0200
0000
0000
0000
0301
0010
0001
1000
,  // measure 7
0200
0000
0320
0000
0031
0100
0010
1000
,  // measure 8
0100
0101
0100
1010
,  // measure 9
0100
0001
1000
0000
0100
1000
0001
0000
,  // measure 10
0100
1100
0100
0011
,  // measure 11
0010
0100
0010
0000
0100
0000
0000
0000
1000
0001
1000
0000
0100
0000
0000
0000
,  // measure 12
0010
0000
0001
1000
0010
0100
0001
0010
,  // measure 13
0002
0000
0000
0000
1003
0000
0100
0010
,  // measure 14
0001
0000
0010
0001
1000
0010
1000
0001
,  // measure 15
0100
0010
0100
0000
0001
0000
0000
0000
1000
0010
1000
0000
0100
0000
0000
0000
,  // measure 16
1100
0000
1000
0001
0010
0100
1000
0010
,  // measure 17
0200
0000
0301
0000
0001
1000
0100
1000
,  // measure 18
0001
0000
0100
0001
1000
0010
1000
0001
,  // measure 19
0010
0100
0010
0000
0001
0000
0000
0000
1000
0100
1000
0000
0010
0000
0000
0000
,  // measure 20
0102
0000
1003
0001
0020
0000
1000
0000
,  // measure 21
0031
0000
0000
0100
0000
0000
1000
0000
0000
0000
1001
0000
0000
0000
0000
0000
,  // measure 22
2010
0000
3001
1000
0200
0000
0001
0000
,  // measure 23
1300
0100
1000
0000
0001
0000
0000
0000
0100
0001
0100
0000
0010
0000
0000
0000
,  // measure 24
1001
0000
0000
0001
0100
0000
0000
0000
0010
0000
0000
1000
0010
0000
0000
0000
,  // measure 25
1000
0100
1000
0001
0200
0000
0310
0000
,  // measure 26
1000
0000
0000
1000
0010
0000
0000
0000
0100
0000
0000
0001
1000
0000
0000
0000
,  // measure 27
0001
0000
0010
0100
0100
1000
1000
0001
,  // measure 28
0001
0000
0000
0001
0100
0000
0000
0000
1000
0000
0000
0010
0100
0000
0000
0000
,  // measure 29
0010
0000
0000
0010
1000
0000
0000
1000
0001
0000
0000
0001
0010
0000
0000
0000
,  // measure 30
0100
0000
0000
0100
1000
0000
0000
0000
0001
0000
0000
0100
0001
0000
0000
0000
,  // measure 31
1000
0000
0001
0001
0100
0100
0010
0010
,  // measure 32
1000
0000
0000
1000
0100
0000
0000
0001
0010
0000
0000
0010
0001
0000
0000
0001
,  // measure 33
1000
0000
0000
1000
0010
0000
0000
0010
0100
0000
0001
0000
1000
0000
0010
0000
,  // measure 34
0100
0000
0000
0001
0100
0000
0000
0010
1000
0000
0000
1000
0010
0000
0000
0000
,  // measure 35
0100
0002
0000
0000
1003
0000
0000
0000
1000
0200
0000
0000
1300
0100
1000
0100
,  // measure 36
1000
0000
0001
0010
1000
0001
0100
1000
,  // measure 37
0100
0010
1001
0101
,  // measure 38
0001
0000
1000
0000
0100
0000
1000
0000
0001
0000
0100
0000
0010
1000
0010
0000
,  // measure 39
0100
0000
0000
0000
0001
1000
0001
0000
0010
0000
0000
0000
0011
0000
0000
0000
,  // measure 40
0010
0000
0000
0000
0100
0000
1000
0000
0010
0000
0001
0000
0010
0000
0000
0100
,  // measure 41
0000
0001
0000
0101
0000
0000
1001
0000
,  // measure 42
1000
0000
0100
0000
0001
0000
0100
0000
0010
0000
0001
0000
0100
0010
1000
0000
,  // measure 43
0100
0000
0000
0000
1000
0001
0010
0000
0100
0000
0000
0000
1100
0000
0000
1000
,  // measure 44
0100
0000
0000
0100
0001
0000
0000
0001
0100
0000
0000
0100
0010
0000
0000
0010
,  // measure 45
0001
0000
0000
0001
0010
0000
0000
0010
1000
0000
0000
1000
0001
0000
0000
0001
,  // measure 46
0010
0000
0000
0010
1000
0000
0000
1000
0001
0000
0000
0001
0100
0000
0000
0000
,  // measure 47
0010
0000
0010
0000
0001
0000
0001
0000
1000
0000
1000
0000
1001
0000
0000
0001
,  // measure 48
1000
0000
0000
1000
0010
0000
0000
0010
0100
0000
0000
0100
1000
0000
0000
1000
,  // measure 49
0001
0000
0000
0001
0010
0000
0000
0010
0100
0000
0000
0100
0001
0000
0000
0001
,  // measure 50
0010
0000
0000
0010
0100
0000
0000
0100
1000
0000
0000
1000
0010
0000
0000
0000
,  // measure 51
0100
0100
0001
0001
1000
1000
1100
0100
,  // measure 52
0010
0200
0000
2300
0000
3001
0010
0100
,  // measure 53
1000
0000
0000
0001
0000
0000
0100
0000
0000
0010
1000
0000
0001
0000
0100
0000
,  // measure 54
0010
2000
0000
0000
3001
0000
0100
0002
0000
0000
0013
0000
0010
0000
0100
0000
,  // measure 55
0100
1000
0000
0002
0000
0000
0103
0000
0010
0000
0000
0000
1000
0000
0100
0000
,  // measure 56
1000
0001
0000
0100
0000
0001
1000
0000
0010
0000
0000
0100
0001
0000
0100
0000
,  // measure 57
0010
0000
0000
1000
0000
0000
0100
0000
0000
0010
0001
0000
1000
0100
1000
0000
,  // measure 58
0100
0000
0000
0000
0000
0010
0000
0001
1000
0000
0000
0000
0001
0000
0000
0000
,  // measure 59
0100
0010
0000
0000
1000
0100
2000
0000
0000
0000
3001
0100
0001
0000
0010
0000
,  // measure 60
0001
0100
0010
0100
0001
1000
0010
0100
,  // measure 61
1001
0000
0010
0100
1001
0000
1000
0100
,  // measure 62
1000
0001
0010
0100
1000
0000
0010
0100
,  // measure 63
1001
0000
0010
0100
1001
0000
1000
0010
,  // measure 64
0001
0010
1000
0100
0010
0100
1000
0100
,  // measure 65
0001
0000
1000
0100
0001
0000
1000
0100
,  // measure 66
0010
0001
0100
0010
1000
0001
0010
0001
,  // measure 67
1000
0000
0010
0001
1000
0000
0001
0100
,  // measure 68
0010
1000
0100
1000
0001
0100
0010
0100
,  // measure 69
0001
0100
1000
0100
0001
0100
0010
1000
,  // measure 70
0010
0100
0001
0010
1000
0010
0001
0010
,  // measure 71
0100
0010
1000
0010
0100
0010
0001
0100
,  // measure 72
0010
1000
0001
1000
0100
1000
0001
0010
,  // measure 73
0100
1000
0010
0100
0010
1000
0001
0100
,  // measure 74
0010
0100
1000
0100
0010
0100
0001
1000
,  // measure 75
0010
0000
0000
0100
0000
0000
0001
0000
0010
0000
0001
0000
0000
0000
1000
0000
0100
0000
1000
0000
0000
0000
0000
0000
,  // measure 76
0101
0000
0010
1000
0100
0100
0010
0001
,  // measure 77
1000
1000
0001
0100
0010
0010
1000
0001
,  // measure 78
1000
0000
0010
0000
1000
0000
0100
0000
0010
0000
0001
0000
0100
0010
0100
0000
,  // measure 79
0001
0100
0001
0000
1000
0001
1000
0001
1000
0001
1000
0001
0020
0000
0000
0000
,  // measure 80
0000
0000
0030
0000
;

//---------------dance-single - ----------------
#NOTEDATA:;
#CHARTNAME:;
#STEPSTYPE:dance-single;
#DESCRIPTION:;
#CHARTSTYLE:;
#DIFFICULTY:Medium;
#METER:6;
#RADARVALUES:0.434226,0.558929,0.277728,0.208296,0.007715,394.000000,358.000000,36.000000,27.000000,0.000000,0.000000,0.000000,0.000000,0.000000,0.434226,0.558929,0.277728,0.208296,0.007715,394.000000,358.000000,36.000000,27.000000,0.000000,0.000000,0.000000,0.000000,0.000000;
#CREDIT:;
#DISPLAYBPM:150.000000;
#NOTES:
// measure 0
0000
0000
0000
0000
,  // measure 1
0000
0000
0000
0000
,  // measure 2
0000
0000
0000
0000
,  // measure 3
0000
0000
0000
0000
,  // measure 4
2002
0000
3003
0000
1000
0001
1000
0001
,  // measure 5
0200
0000
0300
0000
0001
1000
0001
1000
,  // measure 6
0020
0000
0030
0000
1000
0100
1000
0100
,  // measure 7
0010
0000
0001
0000
0100
0010
0100
0010
,  // measure 8
0200
0301
2000
3100
,  // measure 9
0010
0100
1000
0000
0010
1000
0100
0000
,  // measure 10
0002
1003
0020
0130
,  // measure 11
1000
1000
1000
0000
0001
0001
0001
0000
,  // measure 12
2000
3100
0002
0013
,  // measure 13
0100
1000
0001
0000
0100
0010
1000
0000
,  // measure 14
0002
0103
0020
0130
,  // measure 15
0001
0001
0001
0000
1000
1000
1000
0000
,  // measure 16
0002
0013
2000
3010
,  // measure 17
0100
0001
0100
0000
0010
1000
0010
0000
,  // measure 18
2000
3100
0002
0013
,  // measure 19
0100
0100
0100
0000
0010
0010
0010
0000
,  // measure 20
1001
0010
0001
1000
,  // measure 21
0001
0100
0010
0000
0100
0000
0001
0000
,  // measure 22
1000
0010
1000
0000
0001
0100
0010
0000
,  // measure 23
1000
0000
0001
0000
0010
0100
0010
0000
,  // measure 24
0220
0330
2002
3003
,  // measure 25
0001
1000
0001
1000
0100
0000
0100
0000
,  // measure 26
0010
0001
0100
0010
,  // measure 27
1000
0000
0001
1000
0001
0000
0110
0000
,  // measure 28
2020
3030
2200
3300
,  // measure 29
1000
0100
1000
0100
0010
0000
0010
0000
,  // measure 30
0001
0100
0001
0000
1000
0010
1000
0000
,  // measure 31
0110
0000
0001
0100
0001
0000
1000
0000
,  // measure 32
1100
0001
0010
0001
,  // measure 33
0101
1000
0010
1000
,  // measure 34
1001
0010
0100
0010
,  // measure 35
1000
1000
2000
0000
3001
0001
0002
0000
,  // measure 36
0103
1000
0010
0001
,  // measure 37
0100
1000
0010
1000
,  // measure 38
0100
0001
0010
1001
,  // measure 39
0010
0110
0100
1001
,  // measure 40
0000
0000
1000
0001
1000
0001
0010
0000
,  // measure 41
0010
0100
0000
0010
,  // measure 42
0001
0000
1000
0000
0010
0000
0100
0010
,  // measure 43
0100
0000
0001
1000
0001
0000
0101
0000
,  // measure 44
0000
0000
1010
0000
0000
0000
1000
0100
,  // measure 45
1000
0001
0010
0100
,  // measure 46
0000
0110
0000
0010
,  // measure 47
0001
1000
0001
1000
0001
0000
0110
0000
,  // measure 48
1000
0000
0110
0000
0001
0000
1000
0100
,  // measure 49
1000
0001
0100
0000
0010
0000
1000
0000
,  // measure 50
1001
0010
0110
0001
,  // measure 51
0010
0100
0010
0000
0110
0000
1001
0000
,  // measure 52
1000
0001
0000
0100
0000
0000
1000
0100
,  // measure 53
0001
0000
0100
0000
0000
0000
0001
0100
,  // measure 54
0001
0000
1000
0100
1000
0000
0001
0000
,  // measure 55
0010
0000
0100
0000
1000
0000
0010
0100
,  // measure 56
0001
0000
0011
0000
0000
0000
0010
0001
,  // measure 57
0010
0100
1000
0000
0000
0000
1000
0000
,  // measure 58
0010
0000
0110
0000
0000
0000
0010
1000
,  // measure 59
0001
0000
1000
0100
0000
0001
0100
0000
,  // measure 60
1001
0000
0010
0001
0010
0001
0010
0000
,  // measure 61
0001
1000
0001
1000
,  // measure 62
0100
0000
0010
0100
0010
0100
0010
0000
,  // measure 63
0100
1000
0001
0100
,  // measure 64
0010
0000
1000
0100
1000
0100
1000
0000
,  // measure 65
0001
0100
0010
0100
,  // measure 66
0001
0000
0010
0001
0010
0001
0010
0000
,  // measure 67
0100
1000
0001
0100
,  // measure 68
0010
0000
1000
0100
1000
0001
0100
0000
,  // measure 69
0010
1000
0001
0010
,  // measure 70
0100
0000
0010
0001
1000
0001
0010
0000
,  // measure 71
0100
1000
0010
0100
,  // measure 72
0001
0000
1000
0010
0100
0001
0010
0000
,  // measure 73
0001
1000
0001
0100
,  // measure 74
0010
1000
0100
0010
,  // measure 75
0001
0000
0000
1000
0000
1000
0000
1000
0000
1000
0000
0000
,  // measure 76
1000
1100
1100
0110
,  // measure 77
0110
0011
0011
1001
,  // measure 78
0110
0000
1001
0000
0110
0000
0001
1000
,  // measure 79
0001
1000
0010
0100
0010
0100
0020
0000
,  // measure 80
0000
0000
0030
0000
;

//---------------dance-single - ----------------
#NOTEDATA:;
#CHARTNAME:;
#STEPSTYPE:dance-single;
#DESCRIPTION:;
#CHARTSTYLE:;
#DIFFICULTY:Easy;
#METER:4;
#RADARVALUES:0.281035,0.465774,0.084861,0.308587,0.000000,255.000000,244.000000,11.000000,40.000000,0.000000,0.000000,0.000000,0.000000,0.000000,0.281035,0.465774,0.084861,0.308587,0.000000,255.000000,244.000000,11.000000,40.000000,0.000000,0.000000,0.000000,0.000000,0.000000;
#CREDIT:;
#DISPLAYBPM:150.000000;
#NOTES:
// measure 0
0000
0000
0000
0000
,  // measure 1
0000
0000
0000
0000
,  // measure 2
0000
0000
0000
0000
,  // measure 3
0000
0000
0000
0000
,  // measure 4
2000
3000
0010
1000
,  // measure 5
0002
0003
0010
0100
,  // measure 6
2000
3000
0100
0001
,  // measure 7
0010
1000
0200
0300
,  // measure 8
0010
0010
0001
0001
,  // measure 9
0200
0300
0020
0030
,  // measure 10
1000
1000
0001
0001
,  // measure 11
2000
3000
0200
0300
,  // measure 12
0010
0100
0010
0100
,  // measure 13
0020
0000
0030
0000
,  // measure 14
0000
0001
0100
0010
,  // measure 15
0200
0300
0002
0003
,  // measure 16
1000
0001
0100
0010
,  // measure 17
2000
0000
3001
0000
,  // measure 18
0010
0001
1000
0010
,  // measure 19
0200
0300
0020
0030
,  // measure 20
1000
0100
0010
0000
,  // measure 21
0000
0001
1000
0000
,  // measure 22
0001
0100
0010
1000
,  // measure 23
0200
0300
0020
0030
,  // measure 24
0001
0010
0001
0010
,  // measure 25
1000
0010
1000
0010
,  // measure 26
0001
1000
0001
1000
,  // measure 27
0001
0100
0010
1000
,  // measure 28
0100
0100
0010
0010
,  // measure 29
0100
0100
0010
0010
,  // measure 30
0001
0100
0010
1000
,  // measure 31
0100
0010
0001
1000
,  // measure 32
0200
0300
2000
3000
,  // measure 33
0002
0003
0200
0300
,  // measure 34
0010
1000
0100
0010
,  // measure 35
0200
0300
0020
0030
,  // measure 36
0001
0001
1000
1000
,  // measure 37
0200
0300
0010
0001
,  // measure 38
0001
0100
0100
0020
,  // measure 39
0030
2000
3000
0100
,  // measure 40
0001
0100
1000
0020
,  // measure 41
0030
0200
0300
0010
,  // measure 42
1000
0010
0001
0200
,  // measure 43
0300
0020
0030
1000
,  // measure 44
0100
1000
0100
0001
,  // measure 45
0100
0001
0100
1000
,  // measure 46
0100
1000
0100
0010
,  // measure 47
0001
0100
0010
1000
,  // measure 48
1000
0001
0001
0100
,  // measure 49
0100
0010
0010
1000
,  // measure 50
0100
0010
0001
1000
,  // measure 51
0001
1000
0001
0020
,  // measure 52
0030
0200
0300
1000
,  // measure 53
0100
2000
3000
0001
,  // measure 54
1000
0002
0003
0010
,  // measure 55
0010
0200
0300
0010
,  // measure 56
0001
0020
0030
0001
,  // measure 57
0100
0002
0003
2000
,  // measure 58
3000
0002
0003
1000
,  // measure 59
0100
2000
3000
0001
,  // measure 60
0001
1000
1000
0100
,  // measure 61
0000
0100
0000
1000
,  // measure 62
1000
0001
0001
0100
,  // measure 63
0000
0010
0000
1000
,  // measure 64
1000
0010
0010
0100
,  // measure 65
0000
0001
0000
0010
,  // measure 66
0000
0100
0100
1000
,  // measure 67
0000
0001
0000
1000
,  // measure 68
0010
1000
0001
0100
,  // measure 69
0010
1000
0100
0010
,  // measure 70
0100
1000
0001
0010
,  // measure 71
0100
0010
0001
1000
,  // measure 72
0001
0100
0010
1000
,  // measure 73
0001
0010
0100
0010
,  // measure 74
0001
0100
0010
1000
,  // measure 75
0100
1100
0000
0101
,  // measure 76
0000
1001
0000
0110
,  // measure 77
0000
1010
0000
0011
,  // measure 78
0010
1001
1000
1100
,  // measure 79
0101
1100
0101
0020
,  // measure 80
0000
0000
0030
0000
;

//---------------dance-single - ----------------
#NOTEDATA:;
#CHARTNAME:;
#STEPSTYPE:dance-single;
#DESCRIPTION:;
#CHARTSTYLE:;
#DIFFICULTY:Beginner;
#METER:2;
#RADARVALUES:0.176336,0.403671,0.046288,0.084861,0.000000,160.000000,154.000000,6.000000,11.000000,0.000000,0.000000,0.000000,0.000000,0.000000,0.176336,0.403671,0.046288,0.084861,0.000000,160.000000,154.000000,6.000000,11.000000,0.000000,0.000000,0.000000,0.000000,0.000000;
#CREDIT:;
#DISPLAYBPM:150.000000;
#NOTES:
// measure 0
0000
0000
0000
0000
,  // measure 1
0000
0000
0000
0000
,  // measure 2
0000
0000
0000
0000
,  // measure 3
0000
0000
0000
0000
,  // measure 4
1000
0000
0010
0000
,  // measure 5
0001
0000
0010
0000
,  // measure 6
0100
0000
1000
0000
,  // measure 7
0001
0000
0100
0000
,  // measure 8
0010
0010
0000
1000
,  // measure 9
0000
0000
0000
0000
,  // measure 10
0000
0001
0000
0010
,  // measure 11
0020
0030
0020
0030
,  // measure 12
0000
0100
0000
0100
,  // measure 13
0000
0000
0000
0000
,  // measure 14
0000
1000
0000
0001
,  // measure 15
0002
0003
0002
0003
,  // measure 16
0000
0100
0000
0010
,  // measure 17
0000
0000
0000
0000
,  // measure 18
0000
0001
0000
1000
,  // measure 19
2000
3000
2000
3000
,  // measure 20
0100
0000
0010
0000
,  // measure 21
0000
0100
0100
0000
,  // measure 22
0010
0000
0001
0000
,  // measure 23
0200
0300
0200
0300
,  // measure 24
0010
0000
0010
0000
,  // measure 25
1000
0000
1000
0000
,  // measure 26
0001
0000
0001
0000
,  // measure 27
0010
0000
0100
0000
,  // measure 28
0010
0000
0001
0000
,  // measure 29
1000
0000
0010
0000
,  // measure 30
0100
0000
0001
0000
,  // measure 31
1000
0000
0100
0000
,  // measure 32
1000
0000
1000
0000
,  // measure 33
0001
0000
0001
0000
,  // measure 34
0100
0000
0100
0000
,  // measure 35
0020
0030
0020
0030
,  // measure 36
1000
0000
1000
0000
,  // measure 37
0100
0000
0000
0001
,  // measure 38
0000
0001
0000
0100
,  // measure 39
0000
0100
0000
0010
,  // measure 40
0000
1000
0000
0100
,  // measure 41
0000
0001
0000
0100
,  // measure 42
0000
0010
0000
1000
,  // measure 43
0000
0001
0000
0010
,  // measure 44
0010
0010
0000
0100
,  // measure 45
0100
0100
0000
1000
,  // measure 46
0000
0100
0000
0001
,  // measure 47
0000
0100
0000
0010
,  // measure 48
0000
0010
0000
0001
,  // measure 49
0000
0001
0000
1000
,  // measure 50
0000
1000
0000
0010
,  // measure 51
0000
0100
0000
0001
,  // measure 52
0001
0000
0000
1000
,  // measure 53
1000
1000
0000
0100
,  // measure 54
0000
0100
0000
0010
,  // measure 55
0000
0010
0000
0001
,  // measure 56
0000
0001
0000
1000
,  // measure 57
0000
1000
0000
0010
,  // measure 58
0000
0010
0000
0100
,  // measure 59
0000
0100
0000
0001
,  // measure 60
0000
0001
0000
1000
,  // measure 61
0000
1000
0000
0100
,  // measure 62
0000
0100
0000
0010
,  // measure 63
0000
0010
0000
0001
,  // measure 64
0000
0001
0000
0010
,  // measure 65
0000
0010
0000
0100
,  // measure 66
0000
0100
0000
1000
,  // measure 67
0000
1000
0000
0001
,  // measure 68
0000
1000
0000
0100
,  // measure 69
0000
0010
0000
0001
,  // measure 70
0000
0100
0000
0010
,  // measure 71
0000
1000
0000
0001
,  // measure 72
0000
0010
0000
0100
,  // measure 73
0000
0010
0000
0001
,  // measure 74
0000
1000
0000
0100
,  // measure 75
0000
0010
0000
0010
,  // measure 76
0010
0010
0000
0100
,  // measure 77
0100
0100
0000
0110
,  // measure 78
0110
0110
0000
1001
,  // measure 79
1001
1001
0000
0020
,  // measure 80
0000
0000
0030
0000
;
