#TITLE:Find a Way;
#SUBTITLE:(Dark Cave Past);
#ARTIST:Rainbowdragoneyes;
#TITLETRANSLIT:;
#SUBTITLETRANSLIT:;
#ARTISTTRANSLIT:;
#GENRE:The Messenger;
#CREDIT:[Ness];
#BANNER:The Messenger - Find a Way (Dark Cave Past).png;
#BACKGROUND:The Messenger - Find a Way (Dark Cave Past)-bg.png;
#LYRICSPATH:;
#CDTITLE:;
#MUSIC:The Messenger - Find a Way (Dark Cave Past).mp3;
#OFFSET:-0.035000;
#SAMPLESTART:15.366938;
#SAMPLELENGTH:23.039999;
#LASTBEATHINT:151.958313;
#SELECTABLE:YES;
#BPMS:0.000000=124.999992
;
#STOPS:
;
#BGCHANGES:;
#KEYSOUNDS:;
#ATTACKS:;

//---------------dance-single - ----------------
#NOTES:
     dance-single:
     :
     Challenge:
     10:
     0.758376,0.772874,0.169147,0.247216,1.177527,408.000000,395.000000,13.000000,19.000000,0.000000,0.000000,0.758376,0.772874,0.169147,0.247216,1.177527,408.000000,395.000000,13.000000,19.000000,0.000000,0.000000:
0000
0000
0000
0000
,
0000
0000
0000
0000
,
0001
0000
0000
0001
0000
0000
0010
0000
0100
0000
0000
0100
0000
0000
1000
1000
,
0010
0000
0000
0010
0000
0000
1000
0000
0001
0010
0000
0100
1000
0000
0001
0000
,
0100
0001
1000
0001
0000
0000
0011
0000
0010
0000
0110
0000
0000
0010
0001
1000
,
0001
0100
0010
1000
0000
0000
0001
0000
0100
0001
0000
1000
0100
0000
0010
0000
,
0100
0000
0000
1000
0000
0000
0010
0000
0000
0100
0000
0000
0000
0000
0000
0000
0000
0000
1001
0000
0000
0000
0000
0000
0001
0000
0000
0000
0000
0000
0011
0000
0000
0000
0000
0000
0001
0000
0010
0000
0000
0000
0100
0000
1000
0000
0000
0000
,
0001
0100
0001
1000
0000
0001
1000
0000
0100
0010
0000
0010
0100
0000
1000
0000
,
0001
0100
0020
1000
0000
0000
1030
0000
1000
0100
0020
0001
0000
0000
0031
0000
,
0010
0100
2000
0100
0000
0000
3001
0000
0100
0010
0000
1000
0001
0000
0100
0000
,
0010
1000
0001
0020
0000
0030
0110
0000
0100
1000
0001
0200
0000
0300
0110
0000
,
0010
1000
0001
0010
0000
0100
0010
0000
0001
0010
0001
0010
0001
0000
1001
0000
,
1000
0001
0200
0010
0000
0000
0310
0000
1000
0001
0020
0100
0000
0000
0130
0000
,
1000
0100
0010
0002
0000
0000
0013
0000
0010
0100
0010
0100
0010
0000
0110
0000
,
0100
1000
0001
0020
0000
0000
0031
0000
1000
0010
0100
0002
0000
0000
0103
0000
,
0010
1000
0001
1000
0000
0001
1000
0000
0010
1000
0000
0010
0100
0000
0001
0000
,
1000
0200
0000
0301
0200
0000
0310
0000
0001
0000
2000
0010
3000
0200
0001
0300
,
0002
0000
0000
0000
0000
0000
0013
0000
0000
0200
0000
0000
0000
0000
0000
2300
0000
0000
0000
0000
0000
3000
0000
0000
0001
0000
0000
0000
1000
0000
0000
0000
0001
0000
0000
0000
0100
0000
0000
0000
0010
0000
0000
0000
1000
0000
0000
0000
,
0001
0200
0000
1300
0200
0000
0310
0000
1000
0000
0011
0000
0000
1001
0000
0000
,
1000
0000
0000
0000
0000
0000
0000
0000
0000
0101
0000
0000
0000
0000
0000
0110
0000
0000
0000
0000
0000
0000
0000
0000
1000
0000
0000
0000
0010
0000
0000
0000
0001
0000
0000
0000
1000
0000
0000
0000
0100
0000
0000
0000
0001
0000
0000
0000
,
0100
0010
0000
1000
0010
0000
0100
0000
0001
0000
0010
0001
0000
0010
0100
0000
,
1000
0000
0000
0000
0000
0000
1000
0000
0000
0001
0000
0000
0000
0000
0000
0001
0000
0000
0100
0000
0000
0000
0000
0000
0010
0000
0000
0000
1000
0000
0000
0000
0100
0000
0000
0000
0010
0000
0000
0000
0001
0000
0000
0000
1000
0000
0000
0000
,
0001
0010
0000
0100
1000
0000
0010
0000
1000
0000
0001
0100
0000
0010
1000
0000
,
0010
0000
0100
0001
0000
1000
0100
0000
0010
0001
0000
1000
0010
0000
0100
0000
,
0101
0000
0000
0001
1000
0000
0010
0000
1000
0100
1000
0001
0100
0010
0100
0001
,
1000
0010
1000
0100
0000
1000
0001
1000
0001
0010
0001
0100
0000
0001
1000
0001
,
0100
0100
0000
0001
1000
0000
0010
0000
1000
0001
0100
0010
1000
0001
0100
0001
,
1000
0100
0010
0001
0100
0010
1000
0100
0010
0001
0100
0010
1000
0001
1000
0100
,
0010
0001
0000
1000
0001
0000
0010
0000
0001
0100
0001
1000
0010
0100
0010
1000
,
0001
0100
0001
0010
0000
0001
1000
0001
1000
0100
1000
0010
0000
1000
0001
1000
,
0010
0100
0000
0001
1000
0000
0010
0000
1000
0100
0010
0001
0100
0001
0010
0100
,
1000
0010
0100
0001
1000
0100
0010
0001
0100
0010
1000
0001
0010
0100
1000
0001
,
0100
0010
0100
0010
1000
0001
0100
0010
1000
0001
1000
0001
0100
0010
1000
0001
,
0100
0010
1000
0010
0100
0001
0100
0010
1000
0010
0100
0001
0100
0010
1000
0010
,
0100
0001
0100
0001
1000
0010
0100
0001
1000
0010
1000
0010
0100
0001
1000
0010
,
0100
0001
1000
0001
0010
0001
1000
0001
1000
0010
1000
0001
1000
0100
1000
0100
,
1000
0000
0000
0000
;

//---------------dance-single - ----------------
#NOTES:
     dance-single:
     :
     Hard:
     8:
     0.433092,0.444988,0.429374,0.247216,0.331789,233.000000,200.000000,33.000000,19.000000,0.000000,0.000000,0.433092,0.444988,0.429374,0.247216,0.331789,233.000000,200.000000,33.000000,19.000000,0.000000,0.000000:
0000
0000
0000
0000
,
0000
0000
0000
0000
,
1000
0000
0000
1100
0000
0000
0100
0000
0010
0000
0000
0110
0000
0000
0010
0000
,
0001
0000
0000
0011
0000
0000
0001
0000
1000
0001
0000
1000
0001
0000
0100
0000
,
0010
0000
0000
0010
0000
0000
1000
0000
0001
0000
0010
0000
0001
0000
0000
0000
,
1000
0000
0000
1000
0000
0000
0001
0000
0100
0000
0010
0000
1000
0000
0000
0000
,
0100
0000
0000
0100
0000
0000
0010
0000
0100
0000
1000
0000
0001
0000
0000
0000
,
1000
0000
0000
1000
0000
0000
0010
0000
0100
0000
0001
0000
0010
0000
0000
0000
,
0001
0100
0002
0000
0000
0000
0000
0000
1003
0100
2000
0000
0000
0000
0000
0000
,
3001
0000
1000
0020
0000
0000
0000
0000
0030
0000
0000
0000
0000
0000
0000
0000
,
0100
0000
0001
0020
0000
0000
0000
0000
0130
0000
1000
0002
0000
0000
0000
0000
,
1003
0000
0100
0010
0000
0100
2000
0000
0000
0000
3000
0000
0000
0000
0000
0000
,
0010
1000
0020
0000
0000
0000
0000
0000
0130
0000
0001
0200
0000
0000
0310
0000
,
1000
0000
0100
2000
0000
0000
0000
0000
3000
0000
0000
0000
0000
0000
0000
0000
,
0100
0000
0010
0002
0000
0000
0000
0000
1003
0000
0010
0200
0000
0000
0301
0000
,
2000
0000
0000
0000
3000
0000
0000
0000
0100
0010
0000
0100
0010
0000
0001
0000
,
0000
1001
0000
0000
0101
0000
0000
0000
0000
0000
0101
0000
0000
0110
0000
0000
,
1000
0000
0000
0001
0000
0010
0000
0000
0012
0000
0000
0000
1003
0000
0000
0000
,
0000
0110
0000
0000
1100
0000
0000
0000
0000
0000
1100
0000
0000
1001
0000
0000
,
0010
0000
0000
1000
0000
0100
0000
0000
1200
0000
0000
0000
0310
0000
0000
0000
,
0000
0110
0000
0000
1001
0000
0000
0000
0000
0000
0011
0000
0000
1001
0000
0000
,
0100
0000
0000
0001
0000
1000
0000
0000
1002
0000
0000
0000
0103
0000
0000
0000
,
0000
0101
0000
0000
1100
0000
0000
0000
0000
0000
1100
0000
0000
1010
0000
0000
,
1001
0000
0000
0101
0000
0000
0110
0000
0000
1010
0000
0000
1001
0000
0000
0000
,
0010
0000
0000
0000
1000
0000
0001
0000
1000
0100
0000
0000
0010
0000
0001
0000
,
0100
0000
0000
0002
0000
0000
1003
0000
0100
0000
0000
2000
0000
0000
3010
0000
,
0100
0000
0000
0000
0001
0000
0010
0000
0001
1000
0000
0000
0001
0000
0010
0000
,
0100
0000
0000
1001
0000
0000
0010
0000
0000
1001
0000
0000
0110
0000
0000
0000
,
0100
0000
0000
0000
0001
0000
1000
0000
0001
0010
0000
0000
0100
0000
1000
0000
,
0010
0000
0000
2000
0000
0000
3001
0000
0010
0000
0000
0002
0000
0000
0103
0000
,
0010
0000
0000
0000
1000
0000
0100
0000
1000
0001
0000
0000
1000
0000
0100
0000
,
0010
0000
0000
0011
0000
0000
1000
0000
0000
1010
0000
0000
1001
0000
0000
0000
,
0001
0100
0001
0100
1000
0100
1000
0100
,
0001
0100
0010
0100
0001
1000
0010
0100
,
0010
0001
0010
0100
0010
1000
0100
0010
,
0100
1000
0001
1000
0100
0010
0001
0100
,
0001
0000
0000
0000
;

//---------------dance-single - ----------------
#NOTES:
     dance-single:
     :
     Medium:
     6:
     0.349448,0.398147,0.234204,0.234204,0.065057,188.000000,170.000000,18.000000,18.000000,0.000000,0.000000,0.349448,0.398147,0.234204,0.234204,0.065057,188.000000,170.000000,18.000000,18.000000,0.000000,0.000000:
0000
0000
0000
0000
,
0000
0000
0000
0000
,
1000
0000
0000
1000
0000
0000
0000
0000
0001
0000
0000
0001
0000
0000
0000
0000
,
0100
0000
0000
0100
0000
0000
0100
0000
0010
0000
0000
0000
0110
0000
0000
0000
,
1000
0000
0000
1000
0000
0000
1000
0000
0100
0000
0000
0100
0000
0000
0100
0000
,
0010
0000
0000
0010
0000
0000
0010
0000
0001
0000
0000
0001
0000
0000
0001
0000
,
0100
0000
0000
0001
0000
0000
1000
0000
0100
0000
0000
1000
0000
0000
0001
0000
,
0100
0000
0000
0010
0000
0000
1000
0000
0200
0000
0000
0000
0310
0000
0000
0000
,
0001
0002
0000
0000
1003
2000
0000
0000
,
3010
0020
0000
0000
0030
0000
0000
0000
,
0100
0200
0000
0000
0301
0002
0000
0000
,
0013
0020
0000
0230
0000
0300
0000
0000
,
1000
2000
0000
0000
3001
0002
0000
0103
,
0010
0200
0000
0000
0300
0000
0000
0000
,
0001
2000
0000
3000
0100
2000
0000
3001
,
0020
0030
0100
0110
,
0001
0100
0001
0000
0001
0010
0001
0000
,
1000
0000
1001
0000
0010
1000
0100
0000
,
1000
0100
1000
0000
1000
0010
1000
0000
,
0010
0000
0110
0000
1000
0100
0001
0000
,
0100
0010
0100
0000
0100
1000
0100
0000
,
1000
0000
1001
0000
0001
0100
0001
0000
,
0010
1000
0010
0000
0010
0100
0001
0000
,
1000
1001
0110
1001
,
0001
0000
1000
0001
1000
0000
0100
1000
,
0020
0130
0002
0013
,
0100
0000
1000
0001
1000
0000
0100
0010
,
0002
0103
2000
3001
,
1000
0100
1000
0010
1000
0000
0110
0000
,
0001
0100
0001
0010
0001
0000
0110
0000
,
0001
0010
0001
0000
1000
0010
1000
0000
,
0001
1100
0101
1001
,
1000
1000
0001
0001
0100
0100
0010
0010
,
0100
0101
1010
0100
,
0010
0010
0100
0100
1000
1000
0001
0001
,
0100
1010
0011
0100
,
1001
0000
0000
0000
;

//---------------dance-single - ----------------
#NOTES:
     dance-single:
     :
     Easy:
     3:
     0.200746,0.210784,0.000000,0.143125,0.000000,108.000000,108.000000,0.000000,11.000000,0.000000,0.000000,0.200746,0.210784,0.000000,0.143125,0.000000,108.000000,108.000000,0.000000,11.000000,0.000000,0.000000:
0000
0000
0000
0000
,
0000
0000
0000
0000
,
1000
0000
1000
0000
,
1000
0000
0001
0100
,
0010
0010
0100
0000
,
0001
0001
1000
0000
,
0100
0100
0010
0000
,
0001
0001
1000
0000
,
0001
0010
0001
0010
,
0100
0000
0000
0000
,
1000
0100
1000
0100
,
1000
0000
0001
0000
,
0100
0010
0100
0010
,
1000
0000
0001
0000
,
0010
0001
1000
0000
,
0001
1000
0100
0000
,
1000
1000
0001
0001
,
0100
0000
0020
0030
,
0100
0100
0001
0001
,
1000
0000
0200
0300
,
0010
0010
0001
0001
,
1000
1000
0002
0003
,
0100
0100
0010
0010
,
1000
1000
0100
0100
,
1000
0001
1000
0001
,
0200
0000
0320
0000
,
1030
0010
1000
0010
,
0200
0000
0302
0000
,
0013
0001
0010
0001
,
0020
0000
0230
0000
,
1300
0100
1000
0100
,
2000
0000
3002
0000
,
0103
0100
0010
0010
,
1000
1000
0001
0001
,
1000
1000
0100
0100
,
0010
0010
0001
0001
,
1000
0000
0000
0000
;

//---------------dance-single - ----------------
#NOTES:
     dance-single:
     :
     Beginner:
     1:
     0.128255,0.117102,0.000000,0.000000,0.000000,69.000000,69.000000,0.000000,0.000000,0.000000,0.000000,0.128255,0.117102,0.000000,0.000000,0.000000,69.000000,69.000000,0.000000,0.000000,0.000000,0.000000:
0000
0000
0000
0000
,
0000
0000
0000
0000
,
0010
0000
0100
0000
,
1000
0000
0001
0000
,
0100
0000
0010
0000
,
1000
0000
0100
0000
,
1000
0000
0001
0000
,
1000
0000
0100
0000
,
0010
0000
0001
0000
,
0100
0000
0010
0000
,
0100
0000
0100
0000
,
0001
0000
1000
0000
,
0100
0000
0100
0000
,
0010
0000
0010
0000
,
0001
0000
1000
0000
,
0001
0000
0100
0000
,
0010
0000
0010
0000
,
1000
0000
1000
0000
,
0001
0000
0001
0000
,
0010
0000
0100
0000
,
0010
0000
0010
0000
,
0001
0000
1000
0000
,
0001
0000
0100
0000
,
1000
0000
0001
0000
,
1000
0000
1000
0000
,
0001
0000
0001
0000
,
0100
0000
0100
0000
,
0010
0000
0010
0000
,
0100
0000
0001
0000
,
1000
0000
0001
0000
,
1000
0000
0001
0000
,
0010
0000
0100
0000
,
1000
0000
0010
0000
,
0001
0000
0100
0000
,
1000
0000
0100
0000
,
0010
0000
0001
0000
,
0100
0000
0000
0000
;
