#TITLE:Evil Manfred;
#SUBTITLE:(Cloud Ruins Boss);
#ARTIST:Rainbowdragoneyes;
#TITLETRANSLIT:;
#SUBTITLETRANSLIT:;
#ARTISTTRANSLIT:;
#GENRE:The Messenger;
#CREDIT:[Ness];
#BANNER:The Messenger - Evil Manfred (Cloud Ruins Boss).png;
#BACKGROUND:The Messenger - Evil Manfred (Cloud Ruins Boss)-bg.png;
#LYRICSPATH:;
#CDTITLE:;
#MUSIC:The Messenger - Evil Manfred (Cloud Ruins Boss).mp3;
#OFFSET:-0.015000;
#SAMPLESTART:9.154395;
#SAMPLELENGTH:14.629685;
#LASTBEATHINT:328.000000;
#SELECTABLE:YES;
#BPMS:0.000000=262.480011
;
#STOPS:
;
#BGCHANGES:;
#KEYSOUNDS:;
#ATTACKS:;

//---------------dance-single - ----------------
#NOTES:
     dance-single:
     :
     Challenge:
     11:
     0.807143,0.897000,0.100000,0.200000,0.330000,565.000000,555.000000,10.000000,20.000000,0.000000,0.000000,0.807143,0.897000,0.100000,0.200000,0.330000,565.000000,555.000000,10.000000,20.000000,0.000000,0.000000:
0000
0000
0000
0000
,
0000
0000
0000
0000
,
0000
0000
0000
0000
,
0000
0000
0000
0000
,
0000
0000
0000
0000
,
0000
0000
0000
0000
,
0000
0000
0000
0000
,
0000
0000
0000
0000
,
0000
0000
0000
0000
,
0000
0000
0000
0000
,
0001
0100
0010
0000
1000
0001
0100
0000
,
0001
0000
0010
0000
0001
0000
0100
0001
0100
0000
0010
0000
1000
0000
0000
0000
,
0001
0010
0100
0000
1000
0100
0010
0000
,
0001
0100
0001
0000
0100
0000
0010
0000
1000
0100
1000
0000
0100
0000
0010
0000
,
0001
1000
0100
0000
0010
0001
0100
0000
,
0001
0000
1000
0000
0100
0000
0010
0100
0010
0000
0001
0000
0100
0000
0000
0000
,
0010
1000
0001
0000
0010
0100
1000
0000
,
0001
0100
0001
0000
1000
0000
0010
0000
0100
0001
0100
0000
0010
0000
1000
0000
,
0100
0010
0001
0010
0100
1000
0100
0010
,
0001
0000
1000
0000
0010
0000
0100
0001
0100
0000
0010
0000
1000
0000
0100
0000
,
0010
0001
1000
0001
0010
0100
1000
0001
,
0100
0010
0100
0000
0001
0000
1000
0000
0100
1000
0100
1000
0100
0000
0010
0000
,
0001
1000
0010
0100
0001
0010
0001
1000
,
0010
0000
0100
0000
0001
0000
0010
0100
0010
0000
0100
0000
1000
0000
0010
0000
,
1000
0100
0010
0100
1000
0001
0100
0010
,
1000
0100
1000
0000
0010
0000
0100
0000
0001
1000
0001
0000
0010
0000
0100
0000
,
1000
0000
0010
0202
0000
0303
1000
0000
,
1001
0000
0100
0000
0010
0000
1000
0100
1000
0000
0001
0000
0010
0000
0100
0000
,
0020
0000
0031
0100
0000
1000
0100
0000
,
0010
0001
0020
0000
0001
0000
0030
0000
1000
0100
2000
0000
0100
0000
3000
0000
,
1000
0000
0001
2200
0000
3300
0010
0000
,
0100
0000
0001
0000
1000
0000
0001
0010
0001
0000
1000
0000
0100
0000
0010
0000
,
0200
0000
1300
0010
0000
0001
0010
0000
,
0001
0100
0002
0000
1000
0000
0003
0000
0010
1000
0020
0000
0100
0000
0030
0000
,
0001
1000
0010
0100
0001
0010
0100
1000
,
0010
0100
0010
0000
1000
0000
0001
0000
0100
0001
1000
0000
0100
1000
0100
1000
,
0001
0010
0001
1000
0010
0100
0010
1000
,
0100
0000
1000
0000
0100
0000
1000
0001
1000
0000
0001
0000
0100
0000
0001
0000
,
1000
0001
0100
0001
0010
0100
1000
0010
,
0100
0001
0100
0000
0010
0000
1000
0000
0100
1000
0100
0000
0010
0000
0001
0000
,
1000
0001
0100
0010
1000
0100
0010
0001
,
1000
0000
0010
0000
0100
0000
0001
0100
0001
0000
1000
0000
0010
0000
0100
0000
,
0001
0010
0100
1000
0010
0100
0001
0010
,
0100
1000
0100
1000
0100
1000
0100
1000
0100
1000
0100
1000
0100
0000
1000
0000
,
0001
0100
0010
0000
1000
0001
0010
0000
,
0100
0000
1000
0000
0010
0000
0100
0001
0100
0000
0010
0000
1000
0000
0000
0000
,
0010
0100
0001
0000
1000
0010
0100
0000
,
0001
1000
0001
0000
0100
0000
0010
0000
1000
0001
1000
0000
0100
0000
0010
0000
,
0001
0100
0101
0000
0010
1000
1100
0000
,
1000
0000
0001
0000
0100
0000
0010
0100
0010
0000
1000
0000
0100
0000
0000
0000
,
0010
0001
1001
0000
0010
0100
1001
0000
,
1000
0100
1000
0000
0001
0000
0010
0000
0100
1000
0100
0000
0010
0000
0001
0000
,
0100
0010
1000
0010
0100
0001
0100
0010
,
1000
0000
0001
0000
0010
0000
0100
1000
0100
0000
0010
0000
0001
0000
0100
0000
,
0010
1000
0001
1000
0010
0100
0001
1000
,
0100
0010
0100
0000
1000
0000
0001
0000
0100
0001
0100
0001
0100
0000
0010
0000
,
1000
0001
0010
0100
1000
0010
1000
0001
,
0010
0000
0100
0000
1000
0000
0010
0100
0010
0000
0100
0000
0001
0000
0010
0000
,
0001
0100
0010
0100
0001
1000
0100
0010
,
0001
0100
0001
0000
0010
0000
0100
0000
1000
0001
1000
0000
0010
0000
0100
0000
,
0001
0000
0100
2020
0000
3030
0001
0000
,
1001
0000
0100
0000
0010
0000
0001
0010
0001
0000
1000
0000
0100
0000
0010
0000
,
0002
0000
1003
0100
0000
0010
0001
0000
,
0100
1000
0200
0000
0010
0000
0300
0000
0001
1000
0002
0000
0100
0000
0003
0000
,
0001
0000
0100
0022
0000
0033
1000
0000
,
0100
0000
1000
0000
0010
0000
0100
0001
0100
0000
0010
0000
1000
0000
0001
0000
,
0200
0000
0301
0010
0000
0100
1000
0000
,
0010
1000
0020
0000
0100
0000
0030
0000
0001
1000
0002
0000
0010
0000
0003
0000
,
1000
0001
0010
0100
1000
0010
0100
0001
,
0010
0100
0010
0000
0001
0000
1000
0000
0100
1000
0001
0000
0100
0001
1000
0001
,
0100
0010
1000
0001
0010
0100
0010
0100
,
1000
0000
0001
0000
0100
0000
0001
1000
0001
0000
1000
0000
0100
0000
1000
0000
,
0001
1000
0100
1000
0010
0100
0001
0010
,
0100
1000
0100
0000
0010
0000
0001
0000
0100
0001
0100
0000
0010
0000
1000
0000
,
0100
1000
0001
0010
0001
0100
0010
1000
,
0001
0000
0010
0000
0100
0000
1000
0100
1000
0000
0001
0000
0100
0000
0010
0000
,
1000
0100
0010
0001
0100
0010
1000
0010
,
1000
0001
1000
0001
1000
0001
1000
0001
1000
0001
1000
0001
1000
0000
0001
0000
,
0100
0000
0000
0000
;

//---------------dance-single - ----------------
#NOTES:
     dance-single:
     :
     Hard:
     9:
     0.517143,0.585000,0.290000,0.000000,0.000000,362.000000,333.000000,29.000000,0.000000,0.000000,0.000000,0.517143,0.585000,0.290000,0.000000,0.000000,362.000000,333.000000,29.000000,0.000000,0.000000,0.000000:
0000
0000
0000
0000
,
0000
0000
0000
0000
,
0000
0000
0000
0000
,
0000
0000
0000
0000
,
0000
0000
0000
0000
,
0000
0000
0000
0000
,
0000
0000
0000
0000
,
0000
0000
0000
0000
,
0000
0000
0000
0000
,
0000
0000
0000
0000
,
1100
0000
1000
0010
0000
0010
0001
0000
,
1000
1001
0100
1001
,
0001
0000
0100
0010
0000
1000
0100
0000
,
0010
0001
1001
0101
,
0001
0000
0000
1000
0100
0000
0010
0001
,
0100
0101
1000
1001
,
0100
1000
1001
0110
,
0010
0100
0010
0001
,
1000
0100
0001
0100
,
1000
0010
0100
0001
,
0010
0100
0010
0001
,
1000
0100
1000
0001
,
0010
0100
1000
0010
,
0001
0010
1000
0100
,
0010
0001
0100
1000
,
0001
0100
0010
1000
,
1100
0000
0001
0100
0000
0100
1000
0000
,
0010
1000
0001
0000
0010
0001
1000
0000
,
0001
0000
0010
0100
0000
1000
0010
0000
,
1001
0000
0010
0100
0000
0001
0010
0000
,
1001
0000
0001
0100
0000
1000
0100
0000
,
0110
0001
0011
1000
,
1001
0000
1000
0010
0000
0100
0001
0000
,
0010
0000
0100
1000
0000
0001
0100
0000
,
0001
1000
0010
0100
,
0001
1000
0100
0010
,
0001
0010
0001
0000
1000
0100
1000
0000
,
0001
0010
0001
1000
0100
1000
0100
0000
,
0010
0100
0010
0000
0001
1000
0001
0000
,
0100
0010
0100
0010
1000
0001
1000
0000
,
0001
0000
0100
0000
0010
0000
1000
0100
,
1000
0000
0001
0010
0100
1000
0100
0000
,
0010
0001
0100
0000
0010
1000
0100
0000
,
1000
0001
1000
0001
1000
0001
1000
0001
,
0100
0000
0001
0010
0000
1000
0010
0000
,
0100
1100
0001
0101
,
1000
0000
0001
0100
0000
0010
1000
0000
,
0100
1000
0101
0110
,
0010
0000
0000
0001
1000
0000
0010
1000
,
0100
1100
0010
1001
,
0100
0001
0101
1100
,
0001
0100
1000
0100
,
0010
1000
0001
0100
,
0001
0010
0100
1000
,
0010
0100
0010
1000
,
0001
0100
0001
1000
,
0010
0100
0001
0010
,
1000
0010
0001
0100
,
0010
1000
0100
0001
,
1000
0100
0010
0001
,
0101
0000
1000
0100
0000
0100
0001
0000
,
0010
0001
0100
0000
0010
1000
0001
0000
,
1000
0000
0010
0100
0000
0010
1000
0000
,
1001
0000
0010
0100
0000
1000
0001
0000
,
1001
0000
1000
0010
0000
0001
0100
0000
,
0101
1000
1010
0001
,
1100
0000
0010
0100
0000
0010
0001
0000
,
1000
0000
0001
0100
0000
0010
1000
0000
,
0100
1000
0001
0100
,
0010
1000
0001
0100
,
1000
0010
1000
0000
0001
0100
0001
0000
,
1000
0010
1000
0001
0100
0001
0100
0000
,
0010
0100
0010
0000
1000
0001
1000
0000
,
0100
0010
0100
0010
0001
1000
0001
0000
,
1000
0000
0100
0000
0010
0000
0001
0100
,
0001
0000
1000
0010
0100
0001
0100
0000
,
0010
1000
0100
0000
0010
0001
0100
0000
,
0001
1000
0001
1000
0001
1000
0001
1000
,
0100
0000
0000
0000
;

//---------------dance-single - ----------------
#NOTES:
     dance-single:
     :
     Medium:
     6:
     0.265714,0.312000,0.170000,0.400000,0.000000,186.000000,169.000000,17.000000,40.000000,0.000000,0.000000,0.265714,0.312000,0.170000,0.400000,0.000000,186.000000,169.000000,17.000000,40.000000,0.000000,0.000000:
0000
0000
0000
0000
,
0000
0000
0000
0000
,
0000
0000
0000
0000
,
0000
0000
0000
0000
,
0000
0000
0000
0000
,
0000
0000
0000
0000
,
0000
0000
0000
0000
,
0000
0000
0000
0000
,
0000
0000
0000
0000
,
0000
0000
0000
0000
,
0001
0000
0000
1000
0000
0000
0010
0000
,
0100
0001
0000
0001
,
0010
0000
0000
0100
0000
0000
1000
0000
,
0010
1000
0100
0000
,
0010
0000
0001
1000
,
0100
0010
0100
0000
,
1000
0100
1000
0100
,
0010
0001
0100
0000
,
0001
0000
1000
0001
,
0100
0000
0010
1000
,
0100
0000
1000
0000
,
0001
0000
0010
0000
,
0100
0000
1000
0010
,
0100
0000
0010
1000
,
0001
0000
0010
0000
,
0100
0000
1000
0000
,
2002
0000
3003
0020
0000
0000
0030
0000
,
2000
3000
0200
0300
,
2002
0000
3003
0200
0000
0000
0300
0000
,
0202
0000
0303
0000
,
2002
0000
3003
0020
0000
0000
0030
0000
,
0200
0300
0020
0030
,
2002
0000
3003
0200
0000
0000
0300
0000
,
2002
0000
0000
3003
,
1000
0001
1000
0001
,
0100
0010
0100
0010
,
0000
1000
0000
0100
,
0000
0001
0000
0100
,
0000
1000
0000
1001
,
0000
0110
0000
1000
,
0001
0000
0010
0100
,
1000
0000
0001
0000
,
0100
0000
0010
0000
,
1000
0000
0001
0000
,
0010
0000
0000
0001
0000
0000
0100
0000
,
0001
1000
0000
0001
,
0100
0000
0000
0010
0000
0000
1000
0000
,
0100
0010
0001
0000
,
0100
0000
0010
1000
,
0001
1000
0010
0000
,
0001
0100
0001
0100
,
0010
1000
0100
0000
,
1000
0000
0001
1000
,
0010
0000
0100
0001
,
0010
0000
0001
0000
,
1000
0000
0100
0000
,
0010
0000
0001
0100
,
0010
0000
0100
0001
,
1000
0000
0100
0000
,
0010
0000
0001
0000
,
2002
0000
3003
0200
0000
0000
0300
0000
,
0002
0003
0020
0030
,
2002
0000
3003
0020
0000
0000
0030
0000
,
2020
0000
3030
0000
,
2002
0000
3003
0200
0000
0000
0300
0000
,
0020
0030
0200
0300
,
2002
0000
3003
0020
0000
0000
0030
0000
,
2002
0000
0000
3003
,
0001
1000
0001
1000
,
0010
0100
0010
0100
,
0000
0001
0000
0010
,
0000
1000
0000
0010
,
0000
0001
0000
1010
,
0000
0011
0000
0001
,
1000
0000
0100
0010
,
0001
0000
1000
0000
,
0010
0000
0100
0000
,
0001
0000
1000
0000
,
1001
0000
0000
0000
;

//---------------dance-single - ----------------
#NOTES:
     dance-single:
     :
     Easy:
     5:
     0.210000,0.312000,0.100000,0.120000,0.000000,147.000000,137.000000,10.000000,12.000000,0.000000,0.000000,0.210000,0.312000,0.100000,0.120000,0.000000,147.000000,137.000000,10.000000,12.000000,0.000000,0.000000:
0000
0000
0000
0000
,
0000
0000
0000
0000
,
0000
0000
0000
0000
,
0000
0000
0000
0000
,
0000
0000
0000
0000
,
0000
0000
0000
0000
,
0000
0000
0000
0000
,
0000
0000
0000
0000
,
0000
0000
0000
0000
,
0000
0000
0000
0000
,
1000
0000
0100
0000
,
0001
0000
0100
0000
,
0010
0000
0100
0000
,
1000
0001
1000
0000
,
0010
0000
0100
0000
,
0001
0000
0010
0000
,
0001
0000
0100
0000
,
0010
0100
0010
0000
,
1000
0000
0001
0000
,
1000
0000
0100
0000
,
1000
0000
0001
0000
,
0100
0000
0010
0000
,
1000
0000
0100
0000
,
0010
0000
0100
0000
,
1000
0000
0001
0000
,
0100
0000
0010
0000
,
2000
0000
3000
0000
,
1001
0000
0110
0000
,
0002
0000
0003
0000
,
2000
0000
3000
0000
,
0002
0000
0003
0000
,
1001
0000
0110
0000
,
2000
0000
3000
0000
,
0002
0000
0003
0000
,
0010
0100
0010
0000
,
1000
0001
1000
0000
,
1001
0000
0010
0000
,
0001
0000
0010
0000
,
1000
0000
0100
0000
,
0010
0000
0100
0000
,
1000
0000
0001
0000
,
0100
0000
0010
0000
,
1000
0000
0001
0000
,
0010
0100
0010
0100
,
0001
0000
0100
0000
,
1000
0000
0100
0000
,
0010
0000
0100
0000
,
0001
1000
0001
0000
,
0010
0000
0100
0000
,
1000
0000
0010
0000
,
1000
0000
0100
0000
,
0010
0100
0010
0000
,
0001
0000
1000
0000
,
0001
0000
0100
0000
,
0001
0000
1000
0000
,
0100
0000
0010
0000
,
0001
0000
0100
0000
,
0010
0000
0100
0000
,
0001
0000
1000
0000
,
0100
0000
0010
0000
,
0002
0000
0003
0000
,
0101
0000
1100
0000
,
2000
0000
3000
0000
,
0002
0000
0003
0000
,
2000
0000
3000
0000
,
1100
0000
0101
0000
,
0002
0000
0003
0000
,
2000
0000
3000
0000
,
0010
0100
0010
0000
,
0001
1000
0001
0000
,
1001
0000
0010
0000
,
1000
0000
0010
0000
,
0001
0000
0100
0000
,
0010
0000
0100
0000
,
0001
0000
1000
0000
,
0100
0000
0010
0000
,
0001
0000
1000
0000
,
0010
0100
0010
0100
,
0010
0000
0000
0000
;

//---------------dance-single - ----------------
#NOTES:
     dance-single:
     :
     Beginner:
     2:
     0.115714,0.156000,0.000000,0.000000,0.000000,81.000000,81.000000,0.000000,0.000000,0.000000,0.000000,0.115714,0.156000,0.000000,0.000000,0.000000,81.000000,81.000000,0.000000,0.000000,0.000000,0.000000:
// measure 0
0000
0000
0000
0000
,  // measure 1
0000
0000
0000
0000
,  // measure 2
0000
0000
0000
0000
,  // measure 3
0000
0000
0000
0000
,  // measure 4
0000
0000
0000
0000
,  // measure 5
0000
0000
0000
0000
,  // measure 6
0000
0000
0000
0000
,  // measure 7
0000
0000
0000
0000
,  // measure 8
0000
0000
0000
0000
,  // measure 9
0000
0000
0000
0000
,  // measure 10
1000
0000
1000
0000
,  // measure 11
1000
0000
0000
0000
,  // measure 12
0001
0000
0001
0000
,  // measure 13
0001
0000
0000
0000
,  // measure 14
0100
0000
0100
0000
,  // measure 15
0100
0000
0000
0000
,  // measure 16
0010
0000
0010
0000
,  // measure 17
0010
0000
0000
0000
,  // measure 18
1000
0000
0000
0000
,  // measure 19
0100
0000
0000
0000
,  // measure 20
0010
0000
0000
0000
,  // measure 21
0001
0000
0000
0000
,  // measure 22
1000
0000
0000
0000
,  // measure 23
0001
0000
0000
0000
,  // measure 24
0100
0000
0000
0000
,  // measure 25
0010
0000
0000
0000
,  // measure 26
1000
0000
0000
0000
,  // measure 27
0100
0000
0100
0000
,  // measure 28
0100
0000
0000
0000
,  // measure 29
0100
0000
0000
0000
,  // measure 30
0010
0000
0000
0000
,  // measure 31
0001
0000
0001
0000
,  // measure 32
0001
0000
0000
0000
,  // measure 33
0001
0000
0000
0000
,  // measure 34
1000
0000
0000
0000
,  // measure 35
0001
0000
0000
0000
,  // measure 36
0100
0000
0100
0000
,  // measure 37
0000
0000
0000
0000
,  // measure 38
0010
0000
0010
0000
,  // measure 39
0000
0000
0000
0000
,  // measure 40
1000
0000
1000
0000
,  // measure 41
0000
0000
0000
0000
,  // measure 42
0001
0000
0001
0000
,  // measure 43
0000
0000
0000
0000
,  // measure 44
0010
0000
0010
0000
,  // measure 45
0010
0000
0000
0000
,  // measure 46
0100
0000
0100
0000
,  // measure 47
0100
0000
0000
0000
,  // measure 48
1000
0000
1000
0000
,  // measure 49
1000
0000
0000
0000
,  // measure 50
0001
0000
0001
0000
,  // measure 51
0001
0000
0000
0000
,  // measure 52
0100
0000
0000
0000
,  // measure 53
0010
0000
0000
0000
,  // measure 54
1000
0000
0000
0000
,  // measure 55
0100
0000
0000
0000
,  // measure 56
0010
0000
0000
0000
,  // measure 57
0001
0000
0000
0000
,  // measure 58
0100
0000
0000
0000
,  // measure 59
0010
0000
0000
0000
,  // measure 60
1000
0000
0000
0000
,  // measure 61
0001
0000
0001
0000
,  // measure 62
0001
0000
0000
0000
,  // measure 63
0010
0000
0000
0000
,  // measure 64
0100
0000
0000
0000
,  // measure 65
1000
0000
1000
0000
,  // measure 66
1000
0000
0000
0000
,  // measure 67
0001
0000
0000
0000
,  // measure 68
0100
0000
0000
0000
,  // measure 69
0010
0000
0000
0000
,  // measure 70
1000
0000
1000
0000
,  // measure 71
0000
0000
0000
0000
,  // measure 72
0100
0000
0100
0000
,  // measure 73
0000
0000
0000
0000
,  // measure 74
0010
0000
0010
0000
,  // measure 75
0000
0000
0000
0000
,  // measure 76
0001
0000
0001
0000
,  // measure 77
0000
0000
0000
0000
,  // measure 78
0100
0000
0000
0000
;
