#VERSION:0.83;
#TITLE:Detritus Risen;
#SUBTITLE:(Autumn Hills Boss);
#ARTIST:Rainbowdragoneyes;
#TITLETRANSLIT:;
#SUBTITLETRANSLIT:;
#ARTISTTRANSLIT:;
#GENRE:The Messenger;
#ORIGIN:;
#CREDIT:[Ness];
#BANNER:The Messenger - Detritus Risen (Autumn Hills Boss).png;
#BACKGROUND:The Messenger - Detritus Risen (Autumn Hills Boss)-bg.png;
#PREVIEWVID:;
#JACKET:The Messenger - Detritus Risen (Autumn Hills Boss)-jacket.png;
#CDIMAGE:;
#DISCIMAGE:;
#LYRICSPATH:;
#CDTITLE:;
#MUSIC:The Messenger - Detritus Risen (Autumn Hills Boss).mp3;
#OFFSET:-0.021000;
#SAMPLESTART:6.412938;
#SAMPLELENGTH:14.400000;
#SELECTABLE:YES;
#BPMS:0.000=150.000,
16.000=300.000;
#STOPS:;
#DELAYS:;
#WARPS:;
#TIMESIGNATURES:0.000=4=4;
#TICKCOUNTS:0.000=2;
#COMBOS:0.000=1;
#SPEEDS:0.000=1.000=0.000=0;
#SCROLLS:0.000=1.000;
#FAKES:;
#LABELS:0.000=Song Start;
#LASTSECONDHINT:41.652939;
#BGCHANGES:;
#KEYSOUNDS:;
#ATTACKS:
;

//---------------dance-single - ----------------
#NOTEDATA:;
#CHARTNAME:;
#STEPSTYPE:dance-single;
#DESCRIPTION:;
#CHARTSTYLE:;
#DIFFICULTY:Challenge;
#METER:12;
#RADARVALUES:0.501429,0.550000,0.000000,0.000000,0.170000,351.000000,351.000000,0.000000,0.000000,0.000000,0.000000,0.000000,0.000000,0.000000,0.501429,0.550000,0.000000,0.000000,0.170000,351.000000,351.000000,0.000000,0.000000,0.000000,0.000000,0.000000,0.000000,0.000000;
#CREDIT:;
#DISPLAYBPM:0.000000;
#NOTES:
0000
0000
0000
0000
,
0000
0000
0000
0000
,
0001
1000
0001
1000
,
0001
0000
1000
0000
0001
0000
1000
0000
0001
0000
1000
0000
0001
1000
0001
1000
,
0100
1000
0100
1000
0100
0010
0100
0010
,
0001
0010
0001
0010
0001
1000
0001
1000
,
0001
0100
0001
0100
0010
0100
0010
0100
,
0010
1000
0010
1000
0001
1000
0001
1000
,
0100
1000
0100
1000
0100
0010
0100
0010
,
0001
0010
0001
0010
0001
1000
0001
1000
,
0001
0100
0001
0100
0010
0100
0010
0100
,
0010
1000
0010
1000
0001
1000
0001
1000
,
0100
1000
0010
0100
0001
0010
0100
1000
,
0010
1000
0001
1000
0100
1000
0001
1000
,
0010
0100
0001
0010
0100
1000
0010
0100
,
0001
0010
0001
1000
0001
0100
0001
1000
,
0100
0010
0001
0010
0100
1000
0100
0010
,
0001
1000
0010
0100
0001
0100
0010
1000
,
0100
1000
0001
1000
0100
1000
0001
1000
,
0010
0100
0001
0100
0010
0100
0001
0100
,
0010
1000
0100
0010
0001
1000
0001
1000
,
0100
0010
0100
0010
0001
1000
0001
1000
,
0010
0100
0010
0100
0010
0100
0001
1000
0001
1000
0001
1000
,
0010
0100
0010
0100
0001
0100
0001
1000
0001
1000
0100
1000
,
0100
1000
0100
1000
0100
0010
0100
0010
,
0001
0010
0001
0010
0001
1000
0001
1000
,
0001
0100
0001
0100
0010
0100
0010
0100
,
0010
1000
0010
1000
0001
1000
0001
1000
,
0100
0010
0100
0010
0001
0100
0001
0100
,
0010
1000
0010
1000
0001
0010
0001
0010
,
0100
1000
0100
1000
0010
0100
0010
0100
,
0001
1000
0001
1000
0100
0010
0100
0010
,
0001
1000
0010
0100
0001
0100
0010
1000
,
0100
1000
0001
1000
0010
0100
0001
0010
,
0100
1000
0001
1000
0100
0010
0001
0100
,
0010
0100
0001
1000
0100
0010
0100
1000
,
0001
0010
0001
1000
0100
0010
0001
1000
,
0010
0100
0001
0100
0010
1000
0001
1000
,
0100
0010
0001
1000
0010
1000
0001
1000
,
0100
0010
0001
0100
0010
1000
0100
0010
,
0001
1000
0001
1000
0010
1000
0010
1000
,
0010
0100
0010
0100
0010
1000
0010
1000
,
0001
1000
0001
1000
0001
1000
0100
1000
0100
1000
0100
1000
,
0010
0100
0010
0100
0010
0100
0001
0100
0001
0100
0001
0100
,
0001
0000
0000
0000
;

//---------------dance-single - ----------------
#NOTEDATA:;
#CHARTNAME:;
#STEPSTYPE:dance-single;
#DESCRIPTION:;
#CHARTSTYLE:;
#DIFFICULTY:Hard;
#METER:9;
#RADARVALUES:0.241429,0.330000,0.100000,0.540000,0.010000,169.000000,159.000000,10.000000,54.000000,0.000000,0.000000,0.000000,0.000000,0.000000,0.241429,0.330000,0.100000,0.540000,0.010000,169.000000,159.000000,10.000000,54.000000,0.000000,0.000000,0.000000,0.000000,0.000000;
#CREDIT:;
#NOTES:
0000
0000
0000
0000
,
0000
0000
0000
0000
,
0001
1000
0001
1000
,
0001
0000
1000
0000
0001
0000
1000
0000
0001
0000
1000
0000
0001
1000
0001
1000
,
0100
0010
0100
0010
,
0001
0100
0001
0100
,
0010
1000
0100
1000
,
0001
0010
0100
1000
,
0020
2030
3020
2030
,
3020
2030
3020
0130
,
0002
0203
0302
0203
,
0302
0203
0302
0013
,
0100
1000
0001
0100
,
0010
1000
0001
0010
,
0002
0103
0020
1030
,
0200
1300
0020
0130
,
0001
0010
0001
0100
,
0010
0100
0001
1000
,
0010
0000
1000
0000
0100
1000
0000
0000
,
0001
0000
0010
0000
0100
0010
0000
0000
,
0001
0100
0001
0200
0000
0000
0000
0000
,
0000
0000
0300
0000
,
0220
0330
2002
3003
,
2020
3030
0022
0033
,
1001
0100
0010
0100
,
1000
0010
1000
0010
,
0100
0001
0010
0001
,
1000
0100
0010
0001
,
0200
0302
0203
0302
,
0203
0302
0203
0310
,
2000
3020
2030
3020
,
2030
3020
2030
3100
,
0010
0001
1000
0010
,
0100
0001
1000
0100
,
2000
3010
0200
0301
,
0020
0031
0200
0310
,
1000
0100
1000
0010
,
0100
0010
1000
0001
,
0100
0000
0001
0000
0010
0100
0000
0000
,
1000
0000
0001
0000
0100
0001
0000
0000
,
1000
0010
0100
0002
0000
0000
0000
0000
,
0000
0000
0003
0000
,
2200
3300
0202
0303
,
2020
3030
0022
0033
,
1001
0000
0000
0000
;

//---------------dance-single - ----------------
#NOTEDATA:;
#CHARTNAME:;
#STEPSTYPE:dance-single;
#DESCRIPTION:;
#CHARTSTYLE:;
#DIFFICULTY:Medium;
#METER:6;
#RADARVALUES:0.171429,0.286000,0.090000,0.020000,0.000000,120.000000,111.000000,9.000000,2.000000,0.000000,0.000000,0.000000,0.000000,0.000000,0.171429,0.286000,0.090000,0.020000,0.000000,120.000000,111.000000,9.000000,2.000000,0.000000,0.000000,0.000000,0.000000,0.000000;
#CREDIT:;
#NOTES:
0000
0000
0000
0000
,
0000
0000
0000
0000
,
0001
1000
0001
1000
,
0001
1000
0001
1000
0001
1000
0001
1000
,
0001
1000
0001
0000
,
0100
0000
0010
0000
,
1000
0100
1000
0000
,
0001
0000
0010
0000
,
0100
0010
0001
0000
,
1000
0100
0010
0000
,
0001
0100
0010
0000
,
1000
0001
1000
0000
,
0010
0000
0100
0000
,
0001
0000
0010
0000
,
0100
1000
0100
0000
,
0010
0001
0100
0000
,
0001
0000
1000
0000
,
0010
0000
1000
0000
,
0001
0010
0100
0000
,
1000
0100
0010
0000
,
0001
0100
0020
0000
,
0000
0000
0030
0000
,
1100
0000
0101
0000
,
0110
0000
1001
0000
,
0010
1000
0100
0000
,
1000
0000
0001
0000
,
0100
0001
0010
0000
,
0100
0000
0010
0000
,
0001
0100
0001
0000
,
1000
0000
0010
0000
,
1000
0100
1000
0000
,
0001
0000
0010
0000
,
0100
0010
0001
0000
,
1000
0000
0100
0000
,
1000
0010
0100
0000
,
0001
1000
0100
0000
,
0010
0001
0100
0000
,
0001
0000
1000
0000
,
0010
1000
0100
0000
,
0010
0001
1000
0000
,
0001
0100
0020
0000
,
0000
0000
0030
0000
,
1010
0000
0011
0000
,
1100
0000
0101
0000
,
1001
0000
0000
0000
;

//---------------dance-single - ----------------
#NOTEDATA:;
#CHARTNAME:;
#STEPSTYPE:dance-single;
#DESCRIPTION:;
#CHARTSTYLE:;
#DIFFICULTY:Easy;
#METER:4;
#RADARVALUES:0.127143,0.198000,0.000000,0.000000,0.000000,89.000000,89.000000,0.000000,0.000000,0.000000,0.000000,0.000000,0.000000,0.000000,0.127143,0.198000,0.000000,0.000000,0.000000,89.000000,89.000000,0.000000,0.000000,0.000000,0.000000,0.000000,0.000000,0.000000;
#CREDIT:;
#NOTES:
// measure 0
0000
0000
0000
0000
,  // measure 1
0000
0000
0000
0000
,  // measure 2
0001
1000
0001
1000
,  // measure 3
0001
1000
0001
1000
,  // measure 4
0001
0000
0100
0000
,  // measure 5
1000
0000
0100
0000
,  // measure 6
0001
0000
0010
0000
,  // measure 7
0100
0000
1000
0000
,  // measure 8
0010
0000
0010
0000
,  // measure 9
0100
0000
0100
0000
,  // measure 10
0001
0000
0001
0000
,  // measure 11
1000
0000
1000
0000
,  // measure 12
0100
0000
0010
0000
,  // measure 13
0100
0000
0010
0000
,  // measure 14
0001
0000
1000
0000
,  // measure 15
0100
0000
0010
0000
,  // measure 16
0100
0000
0100
0000
,  // measure 17
0100
0000
0010
0000
,  // measure 18
0001
0000
0001
0000
,  // measure 19
1000
0000
1000
0000
,  // measure 20
0001
0000
0100
0000
,  // measure 21
0001
0000
0100
0000
,  // measure 22
0010
0000
1000
0000
,  // measure 23
0010
0000
1000
0000
,  // measure 24
0100
0000
1000
0000
,  // measure 25
0001
0000
1000
0000
,  // measure 26
0100
0000
0010
0000
,  // measure 27
0001
0000
0100
0000
,  // measure 28
0001
0000
0001
0000
,  // measure 29
0001
0000
0001
0000
,  // measure 30
1000
0000
1000
0000
,  // measure 31
1000
0000
1000
0000
,  // measure 32
0010
0000
0001
0000
,  // measure 33
0010
0000
1000
0000
,  // measure 34
0100
0000
0010
0000
,  // measure 35
0100
0000
0010
0000
,  // measure 36
0001
0000
0001
0000
,  // measure 37
0001
0000
1000
0000
,  // measure 38
0100
0000
0010
0000
,  // measure 39
0100
0000
1000
0000
,  // measure 40
0001
0000
0100
0000
,  // measure 41
0001
0000
0100
0000
,  // measure 42
0010
0000
1000
0000
,  // measure 43
0001
0000
1000
0000
,  // measure 44
0100
0000
0000
0000
;

//---------------dance-single - ----------------
#NOTEDATA:;
#CHARTNAME:;
#STEPSTYPE:dance-single;
#DESCRIPTION:;
#CHARTSTYLE:;
#DIFFICULTY:Beginner;
#METER:2;
#RADARVALUES:0.075714,0.154000,0.000000,0.000000,0.000000,53.000000,53.000000,0.000000,0.000000,0.000000,0.000000,0.000000,0.000000,0.000000,0.075714,0.154000,0.000000,0.000000,0.000000,53.000000,53.000000,0.000000,0.000000,0.000000,0.000000,0.000000,0.000000,0.000000;
#CREDIT:;
#NOTES:
// measure 0
0000
0000
0000
0000
,  // measure 1
0000
0000
0000
0000
,  // measure 2
0100
0000
0100
0000
,  // measure 3
0100
0100
0100
0100
,  // measure 4
0100
0000
0100
0000
,  // measure 5
0100
0000
0000
0000
,  // measure 6
0010
0000
0010
0000
,  // measure 7
0010
0000
0000
0000
,  // measure 8
1000
0000
0000
0000
,  // measure 9
0001
0000
0000
0000
,  // measure 10
0100
0000
0000
0000
,  // measure 11
0010
0000
0000
0000
,  // measure 12
1000
0000
1000
0000
,  // measure 13
1000
0000
0000
0000
,  // measure 14
0001
0000
0001
0000
,  // measure 15
0001
0000
0001
0000
,  // measure 16
0001
0000
0000
0000
,  // measure 17
0000
0000
0000
0000
,  // measure 18
0010
0000
0000
0000
,  // measure 19
0100
0000
0000
0000
,  // measure 20
0010
0000
0000
0000
,  // measure 21
0000
0000
0000
0000
,  // measure 22
0100
0000
0100
0000
,  // measure 23
0100
0000
0100
0000
,  // measure 24
0100
0000
0000
0000
,  // measure 25
1000
0000
0000
0000
,  // measure 26
0001
0000
0000
0000
,  // measure 27
1000
0000
0000
0000
,  // measure 28
0010
0000
0000
0000
,  // measure 29
0000
0000
0000
0000
,  // measure 30
0100
0000
0000
0000
,  // measure 31
0000
0000
0000
0000
,  // measure 32
0001
0000
0000
0000
,  // measure 33
0010
0000
0000
0000
,  // measure 34
0100
0000
0100
0000
,  // measure 35
0100
0000
0100
0000
,  // measure 36
0100
0000
0000
0000
,  // measure 37
0000
0000
1000
0000
,  // measure 38
1000
0000
0000
0000
,  // measure 39
0001
0000
0000
0000
,  // measure 40
0100
0000
0000
0000
,  // measure 41
0000
0000
0000
0000
,  // measure 42
0010
0000
0010
0000
,  // measure 43
0010
0000
0010
0000
,  // measure 44
0010
0000
0000
0000
;
