#VERSION:0.83;
#TITLE:Colos & Suses;
#SUBTITLE:(Searing Crags Boss);
#ARTIST:Rainbowdragoneyes;
#TITLETRANSLIT:;
#SUBTITLETRANSLIT:;
#ARTISTTRANSLIT:;
#GENRE:The Messenger;
#ORIGIN:;
#CREDIT:[Ness];
#BANNER:The Messenger - Colos & Suses (Searing Crags Boss).png;
#BACKGROUND:The Messenger - Colos & Suses (Searing Crags Boss)-bg.png;
#PREVIEWVID:;
#JACKET:The Messenger - Colos & Suses (Searing Crags Boss)-jacket.png;
#CDIMAGE:;
#DISCIMAGE:;
#LYRICSPATH:;
#CDTITLE:;
#MUSIC:The Messenger - Colos & Suses (Searing Crags Boss).mp3;
#OFFSET:-0.024000;
#SAMPLESTART:16.611681;
#SAMPLELENGTH:14.042553;
#SELECTABLE:YES;
#BPMS:0.000=188.000;
#STOPS:;
#DELAYS:;
#WARPS:;
#TIMESIGNATURES:0.000=4=4;
#TICKCOUNTS:0.000=2;
#COMBOS:0.000=1;
#SPEEDS:0.000=1.000=0.000=0;
#SCROLLS:0.000=1.000;
#FAKES:;
#LABELS:0.000=Song Start;
#LASTSECONDHINT:93.247421;
#BGCHANGES:;
#KEYSOUNDS:;
#ATTACKS:
;

//---------------dance-single - ----------------
#NOTEDATA:;
#CHARTNAME:;
#STEPSTYPE:dance-single;
#DESCRIPTION:;
#CHARTSTYLE:;
#DIFFICULTY:Challenge;
#METER:12;
#RADARVALUES:1.060300,1.222924,0.334047,0.375803,0.929067,711.000000,679.000000,32.000000,36.000000,0.000000,0.000000,0.000000,0.000000,0.000000,1.060300,1.222924,0.334047,0.375803,0.929067,711.000000,679.000000,32.000000,36.000000,0.000000,0.000000,0.000000,0.000000,0.000000;
#CREDIT:;
#DISPLAYBPM:0.000000;
#NOTES:
// measure 0
0000
0000
0000
0000
,  // measure 1
0000
0000
0000
0000
,  // measure 2
0000
0000
0000
0000
,  // measure 3
0000
0000
0000
0000
,  // measure 4
0000
0000
0000
0000
,  // measure 5
1000
0100
0010
0001
0001
0010
0100
1000
,  // measure 6
1000
0010
0100
0001
0001
0100
0010
1000
,  // measure 7
0001
0100
0010
1000
1000
0010
0100
0001
,  // measure 8
0001
0010
0100
1000
1000
0100
0010
0001
,  // measure 9
1000
0110
0010
0001
1001
0010
0100
1001
,  // measure 10
1000
0010
0110
0001
0001
1001
0010
1000
,  // measure 11
0110
0100
0010
1000
1000
0010
0100
0001
,  // measure 12
0001
0000
0010
0000
0100
0000
1000
0100
0010
0100
1000
0000
0001
0100
0010
0100
,  // measure 13
0001
1000
0010
0202
0303
0010
2200
3300
,  // measure 14
0100
0000
2020
0000
3030
0000
0100
0000
0022
0000
0033
0000
1000
0010
0100
0001
,  // measure 15
1000
1000
0100
0100
0001
0001
0010
0010
,  // measure 16
0100
0100
1000
1000
0001
0100
1000
0100
,  // measure 17
0001
0000
0010
0100
1000
0000
2200
0000
3300
0000
1000
0000
0202
0000
0303
0000
,  // measure 18
0010
0000
2002
0000
3003
0000
0010
0000
2200
0000
3300
0000
0010
1000
0001
0100
,  // measure 19
0010
0010
1000
1000
0100
0100
0001
0001
,  // measure 20
0100
0100
1000
1000
0010
0010
0100
0100
,  // measure 21
0102
0000
0000
0000
1003
0000
0010
0000
1020
0000
0000
0000
0130
0000
0001
1000
,  // measure 22
0100
0100
0100
0100
,  // measure 23
0100
0000
0100
0000
0100
0000
0100
0000
0100
0000
0100
0000
0100
0010
0100
0010
,  // measure 24
0001
0100
0001
0000
1000
0010
1000
0000
0100
1000
0100
0000
0010
0001
0010
0000
,  // measure 25
0100
1000
0100
0000
0001
0100
0001
0000
0100
0010
0100
0000
1000
0100
1000
0000
,  // measure 26
0001
0010
0100
1000
0100
0000
0010
0001
1000
0100
0010
0000
0001
1000
0001
0000
,  // measure 27
0100
0001
1000
0000
0010
1000
0001
0000
0100
0010
1000
0000
0001
0100
0010
1000
,  // measure 28
0100
0010
0100
0000
1000
0001
1000
0000
0010
1000
0001
0000
0010
0001
0010
0000
,  // measure 29
0100
1000
0001
0000
0100
0001
1000
0000
0010
1000
0100
0000
1000
0100
0010
0000
,  // measure 30
0001
0010
0100
1000
0100
0000
1000
0010
0100
0001
0100
0000
0010
1000
0001
0000
,  // measure 31
1000
0100
0010
0001
0100
0000
0001
1000
0100
0010
0001
0000
1000
0010
0100
0001
,  // measure 32
0010
0000
0010
0001
0100
0000
0100
0010
1000
0000
1000
0100
0010
0000
0010
0001
,  // measure 33
1000
0000
1000
0010
0100
0000
0100
0001
0010
0000
0010
0100
1000
0000
1000
0010
,  // measure 34
0100
0000
0001
0100
0010
0000
1000
0100
0010
0000
0100
1000
0010
0000
0100
0001
,  // measure 35
0010
0000
0001
1000
0010
0000
1000
0001
0010
0000
0100
0010
0001
0000
0100
0010
,  // measure 36
1000
0000
0100
0010
0001
0000
1000
0010
0100
0000
0001
0010
0001
0000
1000
0100
,  // measure 37
0010
0000
0100
1000
0100
0000
0010
0001
1000
0000
0001
0100
0010
0000
1000
0100
,  // measure 38
1000
0001
1000
0100
1000
0001
1000
0100
1000
0001
0010
0001
1000
0001
0010
0001
,  // measure 39
0100
0001
1000
0001
0100
0001
1000
0001
0100
0010
1000
0010
0100
0010
1000
0010
,  // measure 40
0100
1001
0010
0001
0011
0010
0100
1100
,  // measure 41
1000
0010
1010
0001
0100
0101
0010
1000
,  // measure 42
1001
0001
0010
0100
1000
0010
0100
0001
,  // measure 43
0001
0000
0010
0000
0100
0000
1000
0001
0010
0100
0010
0000
0001
0100
0010
1000
,  // measure 44
0100
0010
0001
2200
3300
1000
0202
0303
,  // measure 45
0010
0000
2200
0000
3300
0000
0100
0000
2020
0000
3030
0000
0100
0001
0010
0100
,  // measure 46
1000
0010
1000
0010
0001
0010
0001
0010
,  // measure 47
0100
1000
0100
1000
0100
0001
0100
0001
,  // measure 48
0010
0000
0100
1000
0010
0000
0202
0000
0303
0000
0010
0000
2200
0000
3300
0000
,  // measure 49
0010
0000
2002
0000
3003
0000
0100
0000
0022
0000
0033
0000
0010
0001
1000
0100
,  // measure 50
0010
0010
0001
0001
1000
1000
0010
0010
,  // measure 51
0100
0100
0001
0001
0010
0010
0100
0100
,  // measure 52
2100
0000
0000
0000
3001
0000
0010
0000
0021
0000
0000
0000
0130
0000
1000
0001
,  // measure 53
0100
0100
0100
0100
,  // measure 54
0010
0000
0010
0000
0100
0000
0100
0000
0010
0000
0010
0000
0100
0010
0100
0010
,  // measure 55
1000
0100
1000
0000
1000
0010
1000
0000
0100
1000
0100
0000
0100
0010
0100
0000
,  // measure 56
0010
0001
0010
0000
0010
0100
0010
0000
0001
0100
0001
0000
0001
1000
0001
0000
,  // measure 57
0010
0100
1000
0100
0010
0000
0001
0010
0100
1000
0100
0000
0010
0001
0010
0000
,  // measure 58
0100
1000
0001
0000
0010
0001
1000
0000
0100
0010
0001
0000
0100
0010
1000
0100
,  // measure 59
0010
0001
0100
0000
0010
1000
0001
0000
0010
0001
1000
0000
0010
0100
0001
0000
,  // measure 60
0100
0010
1000
0000
0001
0100
0010
0000
1000
0100
0010
0000
0001
1000
0100
0000
,  // measure 61
0010
0001
1000
0100
0010
0000
0001
1000
0010
0100
0001
0000
0010
0100
1000
0000
,  // measure 62
0100
0010
0001
0100
0010
0000
1000
0010
0100
0001
0010
0000
0100
1000
0001
0100
,  // measure 63
0010
0000
0010
1000
0100
0000
0100
0010
0001
0000
0001
0100
0010
0000
0010
1000
,  // measure 64
0001
0000
0001
0010
0100
0000
0100
1000
0010
0000
0010
0100
0001
0000
0001
0010
,  // measure 65
0100
0000
1000
0100
0010
0000
0001
0100
0010
0000
0100
0001
0010
0000
0100
1000
,  // measure 66
0010
0000
1000
0001
0010
0000
0001
1000
0010
0000
0100
0010
1000
0000
0100
0010
,  // measure 67
0001
0000
0100
0010
1000
0000
0001
0010
0100
0000
1000
0010
1000
0000
0001
0100
,  // measure 68
0010
0000
0100
0001
0100
0000
0010
1000
0001
0000
1000
0100
0010
0000
0001
0100
,  // measure 69
0010
1000
0001
0100
0010
1000
0001
0100
0001
1000
0010
0100
0001
1000
0010
0100
,  // measure 70
0001
0010
0100
1000
0100
0010
0001
1000
0100
0010
0100
1000
0001
0010
0100
1000
,  // measure 71
0100
0000
0000
0000
;

//---------------dance-single - ----------------
#NOTEDATA:;
#CHARTNAME:;
#STEPSTYPE:dance-single;
#DESCRIPTION:;
#CHARTSTYLE:;
#DIFFICULTY:Hard;
#METER:9;
#RADARVALUES:0.773974,0.667049,0.459314,0.083512,0.292291,519.000000,475.000000,44.000000,8.000000,0.000000,0.000000,0.000000,0.000000,0.000000,0.773974,0.667049,0.459314,0.083512,0.292291,519.000000,475.000000,44.000000,8.000000,0.000000,0.000000,0.000000,0.000000,0.000000;
#CREDIT:;
#DISPLAYBPM:0.000000;
#NOTES:
0000
0000
0000
0000
,
0000
0000
0000
0000
,
0000
0000
0000
0000
,
0000
0000
0000
0000
,
0000
0000
0000
0000
,
1000
0010
1000
0200
0000
0310
0001
0000
,
0100
0010
0100
0002
0000
1003
0100
0000
,
0010
0001
1000
0020
0000
0130
0001
0000
,
0010
0001
0100
0020
0000
1030
0100
0000
,
0000
1001
0000
0011
0000
1010
0000
0110
,
0000
0101
0000
0011
0000
0110
0000
1100
,
1000
0010
1000
0100
0010
0001
0100
0010
,
1000
0100
1000
0001
0010
0100
1000
0000
,
0001
0010
0001
0101
0000
0100
0101
0000
,
0010
0101
0000
1000
0101
0000
0001
1000
,
0100
0100
0010
0010
0001
0001
1000
1000
,
0100
0010
0100
0010
0001
1000
0100
0010
,
0001
1000
0010
1100
0000
1000
1100
0000
,
0001
1100
0000
0100
1100
0000
0001
0010
,
0100
0100
1000
1000
0010
0010
0100
0100
,
0001
1000
0010
0100
0001
1000
0001
1000
,
1200
0000
1300
0010
0102
0000
0013
0100
,
1100
0101
1001
0110
,
0001
1000
0001
1000
0001
1000
0001
1000
,
0100
0010
0100
0010
0100
0010
0100
0010
,
0001
0010
0001
0010
0001
0010
0001
0010
,
0001
1000
0010
0100
0001
1000
0001
1000
,
0100
0010
0001
1000
0100
0010
0001
1000
,
0100
1000
0100
1000
0001
0010
0100
1000
,
0100
0010
0100
0010
0001
1000
0100
0010
,
0001
0100
0010
0100
0001
0100
1000
0100
,
0001
0100
0010
1000
0100
0001
0100
1000
,
0001
0000
0000
0001
0010
0000
0000
0010
1000
0000
0000
1000
0010
0000
0100
0000
,
0001
0000
0000
0001
0100
0000
0000
0100
0010
0000
0000
0010
1000
0000
0100
0000
,
1000
0000
0000
1000
0001
0000
0000
0001
0100
0000
0000
0100
0010
0000
0000
0010
,
1000
0000
0000
1000
0100
0000
0000
0100
0010
0000
0000
0010
0001
0000
0000
0001
,
1000
0000
0000
0010
0100
0000
0000
0001
0010
0000
0000
0100
1000
0000
0010
0000
,
0100
0000
0000
0001
0010
0000
0000
0100
1000
0000
0000
0010
0100
0000
0001
0000
,
1000
0000
0000
0100
0010
0000
0000
0001
0100
0000
0000
0010
1000
0000
0000
0100
,
0010
0000
0000
0001
1000
0000
0000
0010
0100
0000
0000
0001
1000
0000
0000
0010
,
0100
1001
0000
0101
0000
1001
0000
1100
,
0000
0110
0000
0011
0000
1010
0000
0101
,
0100
0001
1000
0100
0010
0001
1000
0010
,
0100
0001
1000
0100
0010
0100
1000
0000
,
0010
1000
0010
1010
0000
1000
1010
0000
,
0001
1010
0000
0100
1010
0000
0001
0010
,
0100
0100
1000
1000
0010
0010
0100
0100
,
0001
1000
0001
1000
0010
0100
0001
1000
,
0010
0100
0001
0101
0000
0100
0101
0000
,
0010
0101
0000
1000
0101
0000
0010
0001
,
1000
1000
0100
0100
0010
0010
0001
0001
,
1000
0010
0100
0001
0010
0100
0010
0100
,
2001
0000
3100
0010
1002
0000
1003
0010
,
0110
0101
1010
1001
,
0010
0100
0010
0100
0010
0100
0010
0100
,
1000
0001
0100
0001
1000
0001
0100
0001
,
0010
0001
1000
0001
0010
0001
1000
0001
,
0010
0100
1000
0001
0010
0100
0010
0100
,
1000
0001
0010
0100
1000
0001
0010
0100
,
1000
0100
1000
0100
0010
0001
1000
0100
,
1000
0001
1000
0001
0010
0100
1000
0000
,
0010
1000
0001
1000
0010
1000
0100
1000
,
0010
1000
0001
0100
0010
1000
0001
0100
,
0010
0000
0000
0010
1000
0000
0000
1000
0100
0000
0000
0100
0010
0000
0001
0000
,
0010
0000
0000
0010
0001
0000
0000
0001
1000
0000
0000
1000
0100
0000
0010
0000
,
0100
0000
0000
0100
0010
0000
0000
0010
0001
0000
0000
0001
1000
0000
0000
1000
,
0100
0000
0000
0100
0010
0000
0000
0010
0001
0000
0000
0001
0010
0000
0000
0010
,
0100
0000
0000
1000
0001
0000
0000
0010
0001
0000
0000
1000
0100
0000
0010
0000
,
0001
0000
0000
0010
0100
0000
0000
1000
0010
0000
0000
0100
0001
0000
0010
0000
,
0100
0000
0000
1000
0001
0000
0000
0010
0100
0000
0000
1000
0100
0000
0000
0010
,
0001
0000
0000
1000
0010
0000
0000
0100
0001
0000
0000
1000
0010
0000
0000
0100
,
0001
0000
0000
0000
;

//---------------dance-single - ----------------
#NOTEDATA:;
#CHARTNAME:;
#STEPSTYPE:dance-single;
#DESCRIPTION:;
#CHARTSTYLE:;
#DIFFICULTY:Medium;
#METER:6;
#RADARVALUES:0.501070,0.518816,0.281852,0.542826,0.000000,336.000000,309.000000,27.000000,52.000000,0.000000,0.000000,0.000000,0.000000,0.000000,0.501070,0.518816,0.281852,0.542826,0.000000,336.000000,309.000000,27.000000,52.000000,0.000000,0.000000,0.000000,0.000000,0.000000;
#CREDIT:;
#DISPLAYBPM:0.000000;
#NOTES:
0000
0000
0000
0000
,
0000
0000
0000
0000
,
0000
0000
0000
0000
,
0000
0000
0000
0000
,
0000
0000
0000
0000
,
0002
0000
0003
0020
0000
0030
0100
0000
,
2000
0000
3000
0002
0000
0003
1000
0000
,
0020
0000
0030
0200
0000
0300
0001
0000
,
0020
0000
0030
0002
0000
0003
1000
0000
,
0000
0010
0000
1000
0000
0010
0000
0001
,
0000
0010
0000
0100
0000
1000
0000
0100
,
0000
0001
0000
0100
0000
1000
0000
0010
,
0000
0001
0000
0010
0000
1000
0000
0100
,
0000
0000
0010
0002
0000
0013
0002
0000
,
1003
0002
0000
1003
0002
0000
1003
0010
,
2000
3100
0002
0013
,
0200
1300
0020
0031
,
0000
0000
1000
0020
0000
1030
0020
0000
,
0130
0020
0000
0130
0020
0000
0130
0001
,
2000
3100
0020
0031
,
0200
0310
2000
3001
,
2002
3003
2020
3030
,
0202
0303
1001
1001
,
1000
0001
1000
0001
,
1000
0010
1000
0000
1000
0100
1000
0000
,
0001
0010
0001
0000
0001
0100
0001
0000
,
0100
0010
0100
0000
0100
0010
0100
0000
,
0001
1000
0001
0000
0001
1000
0001
0000
,
0010
0001
0010
0000
0100
1000
0100
0000
,
0010
0001
0010
0000
0100
1000
0100
0000
,
1000
0010
1000
0000
0001
0100
0001
0000
,
1000
0010
1000
0000
0100
0010
0100
0000
,
0010
0011
1000
1100
,
0010
0110
1000
1001
,
0010
1000
0100
0000
1000
0001
0100
0000
,
0010
1000
0100
0001
,
1000
0100
1000
0000
0001
0010
0001
0000
,
0100
0010
0100
0000
0001
1000
0001
0000
,
0100
0101
0010
1010
,
0100
1100
0010
0011
,
0000
1000
0000
0010
0000
0001
0000
1000
,
0000
0100
0000
0001
0000
0100
0000
1000
,
0000
0001
0000
0010
0000
1000
0000
0010
,
0000
0100
0000
0001
0000
1000
0000
1001
,
0000
0000
0010
2000
0000
3010
2000
0000
,
3001
2000
0000
3001
2000
0000
3001
0010
,
0002
0103
2000
3010
,
0200
0301
0020
1030
,
0000
0000
0001
0200
0000
0301
0200
0000
,
0310
0200
0000
0310
0200
0000
0310
1000
,
0002
0103
0020
1030
,
0200
0310
0002
1003
,
2200
3300
0202
0303
,
2002
3003
0110
1001
,
0001
1000
0010
0100
,
0001
1000
0010
0000
1000
0100
1000
0000
,
0001
1000
0100
0000
0010
0100
0010
0000
,
0001
0100
0001
0000
1000
0010
0100
0000
,
0010
1000
0010
0000
1000
0100
0010
0000
,
0100
1000
0100
0000
0010
0001
0100
0000
,
0001
1000
0001
0000
0010
0100
1000
0000
,
0001
0100
0010
0000
1000
0100
1000
0000
,
0001
0010
0100
0000
0010
0001
0010
0000
,
0100
1100
0010
0110
,
0001
1001
0010
0011
,
1000
0010
0100
0000
0001
0100
0010
0000
,
1000
0100
1000
0000
0001
0010
0100
0000
,
0010
0011
1000
1001
,
0010
1010
0001
1001
,
1000
0100
1000
0000
0001
0100
0001
0000
,
1000
0100
1000
0000
0001
0100
0001
0000
,
0100
0000
0000
0000
;

//---------------dance-single - ----------------
#NOTEDATA:;
#CHARTNAME:;
#STEPSTYPE:dance-single;
#DESCRIPTION:;
#CHARTSTYLE:;
#DIFFICULTY:Easy;
#METER:5;
#RADARVALUES:0.381768,0.370583,0.083512,0.334047,0.000000,256.000000,248.000000,8.000000,32.000000,0.000000,0.000000,0.000000,0.000000,0.000000,0.381768,0.370583,0.083512,0.334047,0.000000,256.000000,248.000000,8.000000,32.000000,0.000000,0.000000,0.000000,0.000000,0.000000;
#CREDIT:;
#DISPLAYBPM:0.000000;
#NOTES:
0000
0000
0000
0000
,
0000
0000
0000
0000
,
0000
0000
0000
0000
,
0000
0000
0000
0000
,
0000
0000
0000
0000
,
1000
1000
0100
0000
,
0001
1000
0100
0010
,
0100
0100
0001
0000
,
0100
1000
0100
0000
,
0010
0001
0100
0000
,
1000
0100
0001
0010
,
0100
0010
0100
0000
,
0001
0001
1000
0000
,
0001
0010
0001
0010
,
1000
0010
1000
0010
,
0001
0001
1000
1000
,
0010
0010
0100
0100
,
0001
0100
0001
0100
,
1000
0100
1000
0100
,
0001
0001
1000
1000
,
0100
0100
0010
0010
,
0220
0330
2002
3003
,
0220
0330
2002
3003
,
0010
0010
0010
0010
,
1000
1000
1000
1000
,
0001
0001
0001
0001
,
1000
0100
1000
1000
,
0001
0100
0010
1000
,
0001
0001
0100
0100
,
0010
0010
1000
1000
,
0001
0100
0001
0001
,
1000
0100
0010
0100
,
1000
1000
0010
0010
,
0001
0001
0010
0010
,
2000
3100
0002
0103
,
2000
3100
0002
0103
,
1000
1000
0001
0001
,
1000
1000
0001
0001
,
2000
3010
0002
0013
,
2000
3010
0002
0013
,
0100
1000
0001
0000
,
1000
0010
0100
0001
,
0010
0100
0010
0000
,
1000
0100
0100
0000
,
0010
0001
0010
0001
,
0010
1000
0010
1000
,
0010
0010
0001
0001
,
1000
1000
0010
0010
,
0100
0001
0100
0001
,
0100
1000
0100
1000
,
0100
0100
0001
0001
,
1000
1000
0100
0100
,
2200
3300
0202
0303
,
0220
0330
2002
3003
,
0010
0010
0010
0010
,
0100
0100
0100
0100
,
0001
0001
0001
0001
,
0010
0100
0010
0010
,
0100
1000
0010
0100
,
0001
0001
0010
0010
,
0100
0100
1000
1000
,
0001
0100
0010
0010
,
1000
0100
0010
0100
,
1000
1000
0100
0100
,
0001
0001
0100
0100
,
2000
3010
0002
0103
,
2000
3010
0002
0103
,
1000
1000
0001
0001
,
1000
1000
0001
0001
,
2000
3100
0002
0013
,
2000
3100
0002
0013
,
0100
0000
0000
0000
;

//---------------dance-single - ----------------
#NOTEDATA:;
#CHARTNAME:;
#STEPSTYPE:dance-single;
#DESCRIPTION:;
#CHARTSTYLE:;
#DIFFICULTY:Beginner;
#METER:2;
#RADARVALUES:0.207288,0.333525,0.031317,0.000000,0.000000,139.000000,136.000000,3.000000,0.000000,0.000000,0.000000,0.000000,0.000000,0.000000,0.207288,0.333525,0.031317,0.000000,0.000000,139.000000,136.000000,3.000000,0.000000,0.000000,0.000000,0.000000,0.000000,0.000000;
#CREDIT:;
#DISPLAYBPM:0.000000;
#NOTES:
0000
0000
0000
0000
,
0000
0000
0000
0000
,
0000
0000
0000
0000
,
0000
0000
0000
0000
,
0000
0000
0000
0000
,
1000
0000
1000
0000
,
0001
0000
0001
0000
,
0100
0000
0100
0000
,
0100
0000
0100
0000
,
0000
0001
0000
0001
,
0000
1000
0000
1000
,
0000
0001
0000
0001
,
0000
1000
0000
1000
,
0000
0010
0000
0010
,
0010
0000
0000
0010
,
0010
0000
0000
0100
,
0100
0000
0000
0001
,
0001
0001
0000
0000
,
1000
0000
1000
0000
,
0010
0010
0010
0000
,
0100
0100
0100
0000
,
0110
0000
1001
0000
,
0110
0000
0000
0000
,
1000
0000
0001
0000
,
1000
0000
1000
0000
,
0100
0000
0100
0000
,
0001
0000
0001
0000
,
0100
0000
0100
0000
,
0010
0000
0010
0000
,
0100
0000
0100
0000
,
1000
0000
1000
0000
,
0001
0000
0001
0000
,
0000
0100
0000
0100
,
0000
0010
0000
0010
,
0000
1000
0000
1000
,
0000
0001
0000
0001
,
0000
1000
0000
1000
,
0000
0100
0000
0100
,
0000
0001
0000
0001
,
0000
0010
0000
0010
,
0000
0100
0000
0100
,
0000
1000
0000
1000
,
1000
0000
0001
0000
,
1000
0000
0001
0000
,
0100
0100
0000
0100
,
0000
0010
0000
0010
,
0010
0000
1000
0000
,
0001
0000
0010
0000
,
0000
0100
0000
0100
,
0000
1000
0000
1000
,
1000
0000
0001
0000
,
1000
0000
0100
0000
,
0010
0000
0010
0000
,
0001
0000
0001
0000
,
1000
0000
0001
0000
,
0100
0000
0100
0000
,
0010
0000
0010
0000
,
1000
0000
0100
0000
,
0010
0000
0001
0000
,
1000
0000
1000
0000
,
0100
0000
0100
0000
,
0010
0000
0010
0000
,
0001
0000
0001
0000
,
0100
0100
0000
0100
,
0000
0010
0000
0010
,
0000
1000
0000
0001
,
0000
1000
0000
0001
,
0000
1000
0000
1000
,
0000
0100
0000
0100
,
0000
0010
0000
0100
,
0000
0010
0000
0100
,
0100
0000
0000
0000
;
