#TITLE:Civilization in the Sky;
#SUBTITLE:(Cloud Ruins Future);
#ARTIST:Rainbowdragoneyes;
#TITLETRANSLIT:;
#SUBTITLETRANSLIT:;
#ARTISTTRANSLIT:;
#GENRE:The Messenger;
#CREDIT:[Ness];
#BANNER:The Messenger - Civilization in the Sky (Cloud Ruins Future).png;
#BACKGROUND:The Messenger - Civilization in the Sky (Cloud Ruins Future)-bg.png;
#LYRICSPATH:;
#CDTITLE:;
#MUSIC:The Messenger - Civilization in the Sky (Cloud Ruins Future).mp3;
#OFFSET:-0.029000;
#SAMPLESTART:23.040937;
#SAMPLELENGTH:15.359999;
#LASTBEATHINT:320.000000;
#SELECTABLE:YES;
#BPMS:0.000000=124.999992
,31.000000=249.999985
,256.000000=62.499996
,272.000000=124.999992
,280.000000=249.999985
;
#STOPS:31.000000=0.240000
;
#BGCHANGES:;
#KEYSOUNDS:;
#ATTACKS:;

//---------------dance-single - ----------------
#NOTES:
     dance-single:
     :
     Challenge:
     11:
     0.816633,1.992558,0.308475,0.154238,0.520552,593.000000,561.000000,32.000000,16.000000,72.000000,0.000000,0.816633,1.992558,0.308475,0.154238,0.520552,593.000000,561.000000,32.000000,16.000000,72.000000,0.000000:
0000
0000
0000
0000
,
0000
0000
0000
0000
,
0000
0000
0000
0000
,
0000
0000
0000
0000
,
0001
1000
0001
1000
0100
1000
0001
1000
0001
0100
0001
1000
0001
1000
0001
1000
,
0100
1000
0001
1000
0001
0100
0001
1000
0001
1000
0100
1000
0001
0100
0001
1000
,
0100
0010
0100
1000
0100
0010
0100
0010
0100
1000
0100
0010
0100
0010
0001
0010
,
0100
0010
0100
0010
0001
0010
0100
1000
0001
0000
0000
1000
2000
0000
0000
0000
,
3001
0100
0001
1000
1000
0100
1000
0100
,
0010
0001
0010
0001
0001
1000
0001
1000
,
0010
0100
0010
0100
0100
0001
1000
0001
,
0010
0100
1000
0010
0100
0001
0010
0100
,
1000
0001
1000
0001
0001
0100
0001
0100
,
0010
1000
0010
1000
1000
0100
1000
0100
,
0010
0001
1000
0001
0001
0100
0010
1000
,
0100
0000
1000
0000
0001
0000
0100
0010
0100
0000
0001
0000
1000
0000
0100
0000
,
0010
0001
0010
1000
0020
0000
0100
0000
,
0030
0000
2002
0000
3003
0000
0100
1000
,
0010
0000
1001
0000
0001
0000
1000
0010
,
0100
0000
0001
0000
1000
0100
0010
0001
,
MMMM
0001
0010
0100
2000
0000
0010
0000
,
3000
0000
0220
0000
0330
0000
1000
0010
,
0100
0001
1000
0010
,
0100
0001
0100
0001
1000
0100
1000
0100
,
MMMM
0100
0010
0001
1000
0000
0001
0000
,
0010
0000
1001
0000
0010
0000
1000
0001
,
0100
0000
1001
0000
0010
0000
0001
1000
,
0100
0000
1001
0000
1000
0010
0100
0001
,
1000
0001
1000
0020
0000
0030
MMMM
0000
,
0001
0100
0001
0010
MMMM
0100
1000
0001
,
0100
0010
1000
0010
0000
1000
0001
1000
,
0000
0000
0000
MMMM
0000
0000
0100
0010
0100
0000
1000
0000
0001
0000
1000
0000
,
0100
0010
0001
0100
0010
0000
1001
0000
,
MMMM
0000
1001
0000
MMMM
0000
1000
0001
,
0100
0000
1001
0000
0010
0000
1000
0010
,
0100
0000
MMMM
0000
1000
0001
1000
0100
,
MMMM
0010
0001
1000
0010
0000
1010
0000
,
MMMM
0000
1001
0000
MMMM
0000
0010
0001
,
0100
1001
0100
1001
,
1000
0100
0001
0100
0010
0001
1000
0001
,
0000
0001
0010
0100
1000
0000
1001
0000
,
MMMM
0000
1100
0000
MMMM
0000
0001
0100
,
0010
0000
1001
0000
0100
0000
0001
1000
,
0100
0000
1001
0000
1000
0010
0100
0001
,
0010
0100
0010
0002
0000
0003
MMMM
0000
,
0100
1000
0100
0010
MMMM
0001
1000
0010
,
0100
0001
1000
0100
0000
0010
0001
0200
,
0000
0000
0300
0000
0000
0000
0010
0100
0010
0000
1000
0000
0001
0000
1000
0000
,
0100
1000
0001
0100
0100
0010
1000
0100
,
0010
0001
0100
0001
0001
0010
0100
1000
,
0010
1000
0001
1000
1000
0100
0010
0001
,
0100
0010
1000
1000
0001
0100
0100
0001
,
0010
0100
1000
0001
0100
1000
0100
0001
,
1000
0100
1000
0001
0010
1000
0010
0001
,
0100
0001
0010
0200
0000
1300
0002
0000
,
0103
0020
0000
1030
0100
0000
1001
0000
,
0010
0001
0010
1000
0010
0000
MMMM
0000
,
0100
1000
0100
0001
0100
0000
MMMM
0000
,
0010
1000
0010
0001
0010
0000
MMMM
0000
,
0001
1000
0010
0000
0100
0001
1000
0000
,
0001
0100
1000
0100
0001
1000
0001
1000
,
1000
0100
0001
0100
1000
0001
1000
0001
,
0001
0010
0100
1000
0000
1000
0010
0000
,
0010
0100
0000
0100
0001
0000
1000
0000
,
0100
0010
0100
0010
0100
0010
0100
0010
0001
1000
0001
1000
0001
1000
0001
1000
0200
0000
0000
0000
0000
0000
0000
0000
0310
0000
0000
0000
0110
0000
0000
0000
,
1000
0001
0100
0010
1000
0001
1000
0001
0100
0010
1000
0001
0100
0010
0100
0010
0200
0000
0000
0000
0000
0000
0000
0000
0301
0000
0000
0000
1001
0000
0000
0000
,
0010
1000
0010
0100
0010
1000
0010
1000
0001
0100
0010
0100
0001
0100
0001
0100
0002
0000
0000
0000
0000
0000
0000
0000
0013
0000
0000
0010
0000
0000
0010
0000
,
0001
1000
0100
0010
0001
0010
0100
1000
0001
0100
0010
1000
0010
0100
0001
1000
0100
0010
0100
0010
0100
0010
0100
0010
0001
1000
0001
1000
0001
1000
0001
1000
,
0001
0000
0001
0010
0000
0010
1000
0000
1000
0100
1000
0100
0000
0001
0100
0001
,
1000
0010
0100
0001
0010
0100
1000
0001
0100
0001
1000
0100
1000
0010
0000
0000
,
0100
1001
0100
1001
,
0010
1001
0010
1001
,
1000
1010
0001
0011
,
1000
0100
0010
0001
0010
0100
1000
0001
,
1000
0001
0101
0000
0001
1000
1100
0000
,
1000
0001
0011
0000
0001
1000
1010
0000
,
1000
0010
0110
0000
0001
0100
0110
0000
,
0001
1000
0010
0100
0001
1000
0010
0100
,
0001
0000
0000
0000
;

//---------------dance-single - ----------------
#NOTES:
     dance-single:
     :
     Hard:
     10:
     0.532946,0.751909,0.173517,0.269916,0.081939,387.000000,369.000000,18.000000,28.000000,0.000000,0.000000,0.532946,0.751909,0.173517,0.269916,0.081939,387.000000,369.000000,18.000000,28.000000,0.000000,0.000000:
0000
0000
0000
0000
,
0000
0000
0000
0000
,
0000
0000
0000
0000
,
0000
0000
0000
0000
,
1000
0000
0000
1000
0010
0000
0000
0010
0100
0000
0000
0100
0001
1000
0001
1000
,
0100
0000
0000
0100
0010
0000
0000
0010
0001
0000
0100
0000
0010
0000
1000
0000
,
0100
0000
0000
0100
0010
0000
0001
0000
1000
0000
0001
0000
0100
0000
0000
0000
,
0001
0010
0100
1000
0100
0000
0000
0000
,
1000
0001
0100
0000
0001
0000
1001
0000
,
1000
0001
0010
0000
0100
0000
1001
0000
,
0010
0001
0100
0000
0001
0000
1001
0000
,
1000
0010
0100
0001
0100
0010
1000
0000
,
0010
0100
0001
0000
1000
0000
1100
0000
,
0100
0010
0001
0000
0010
0000
1001
0000
,
0001
0100
0010
0000
1000
0000
0001
0000
,
0010
0100
1000
0001
0100
0010
1000
0000
,
0001
1000
0100
1000
0020
0000
0100
0000
,
0030
0000
0220
0000
0330
0000
0001
1000
,
0010
0000
1001
0000
0010
0000
0100
0001
,
1000
0000
0100
0000
0001
0100
0010
0100
,
0000
0001
1000
0100
0010
0000
0002
0000
,
0003
0000
2000
0000
3000
0000
0100
1000
,
0010
1001
0100
1001
,
1000
0001
1000
0001
0100
0010
0100
0010
,
0000
1000
0001
1000
0200
0000
0010
0000
,
0300
0000
2002
0000
3003
0000
0001
0100
,
0002
0000
0003
0000
0010
0000
0100
1000
,
0200
0000
0310
0001
,
1000
0000
0010
0200
0000
0000
0310
0000
,
1000
0000
0001
0200
0000
0000
0310
1000
,
0010
0000
0100
0001
0000
0010
0100
1000
,
0000
0000
0000
0000
,
0100
1000
0001
1000
0020
0000
0100
0000
,
0030
0000
2002
0000
3003
0000
1000
0001
,
0100
0000
0001
0000
1000
0000
0010
0100
,
0001
0000
0000
0000
1000
0010
0001
0010
,
0000
0100
0001
0100
0010
0000
2000
0000
,
3000
0000
0002
0000
0003
0000
0100
0001
,
0010
0100
1000
0010
,
0100
0001
0100
0001
1000
0010
1000
0010
,
0000
0100
0001
1000
0200
0000
0010
0000
,
0300
0000
0220
0000
0330
0000
0001
1000
,
0100
0000
0001
0000
0010
0000
0100
1000
,
0002
0000
0103
0010
,
1000
0000
0001
0200
0000
0000
0310
0000
,
1000
0000
0100
0020
0000
0000
0031
0000
,
1000
0000
0010
0100
0000
0001
1000
0100
,
0000
0000
0000
0000
,
1000
0100
1000
0000
0001
0000
0100
0000
,
1000
0010
1000
0100
,
0001
0100
0001
0000
1000
0000
0100
0000
,
0001
0010
0001
0100
,
1000
0010
1000
0000
0010
0000
0001
0000
,
0010
1000
0100
0001
,
0001
0000
0001
0010
0000
0010
1000
0000
,
1000
0001
0000
0001
0100
0000
1001
0000
,
0001
0100
0010
0000
0001
0000
1000
0000
,
0001
1000
0100
0000
0010
0000
1000
0000
,
0100
0001
1000
0000
0001
0000
0010
0000
,
0100
1000
0010
0000
,
1000
0001
0100
0000
0010
0000
0100
0000
,
0001
1000
0010
0000
0100
0000
0010
0000
,
1000
0000
0000
0101
0000
0000
1001
0000
,
0000
1100
0000
0000
1001
0000
0000
0000
,
0200
0000
1000
0000
0310
0000
0001
0100
0002
0000
0000
0000
1003
0000
1001
0000
,
1000
0001
0100
0000
0010
0000
1000
0100
0020
0000
0000
0000
0031
0000
0100
0000
,
0001
1000
0010
0000
0100
0000
0001
0010
0002
0000
0000
0000
1003
0000
0100
0000
,
1000
0000
0010
0000
0100
0000
0010
1000
0200
0000
0000
0000
0310
0000
0001
0000
,
1000
0000
0000
0001
0000
0000
0100
0000
0001
0000
0001
1000
0000
0000
0100
0000
,
0010
0000
1000
0000
0010
0000
0001
0000
0010
0000
0100
0000
0010
1000
0000
0000
,
0001
0010
0001
0100
,
0010
0100
0001
1000
,
0100
1000
0001
0010
,
0100
1000
0010
0100
,
0010
1000
0100
1000
,
0001
0010
0100
0010
,
0001
0100
0010
1000
,
0001
1000
0001
1000
0100
1000
0001
0100
,
0001
0000
0000
0000
;

//---------------dance-single - ----------------
#NOTES:
     dance-single:
     :
     Medium:
     7:
     0.352543,0.488741,0.000000,0.279556,0.000000,256.000000,256.000000,0.000000,29.000000,0.000000,0.000000,0.352543,0.488741,0.000000,0.279556,0.000000,256.000000,256.000000,0.000000,29.000000,0.000000,0.000000:
0000
0000
0000
0000
,
0000
0000
0000
0000
,
0000
0000
0000
0000
,
0000
0000
0000
0000
,
0100
0000
0001
2000
0000
3000
0100
0010
,
0001
0000
1000
0000
0010
0100
0010
0100
,
0001
0000
1000
0010
0000
0100
0000
0000
,
0001
1000
0010
0100
0001
0000
0000
0000
,
0010
0100
0010
0001
,
1000
0001
1000
0001
,
0100
0001
1000
0001
,
1000
0100
0010
0000
,
0001
1000
0010
0100
,
0010
1000
0010
1000
,
0001
0100
0010
1000
,
0100
0010
0001
0000
,
1000
0100
1000
0020
,
0030
0200
0300
0001
,
1000
0001
0100
0010
,
1000
0000
0001
0010
,
0001
0100
0010
2000
,
3000
0200
0300
0010
,
0001
1000
0100
0010
,
0001
0001
1000
1000
,
0010
0100
0010
2000
,
3000
0002
0003
0100
,
0010
1000
0100
0010
,
0001
0000
1000
0001
,
0100
0000
0000
0020
0000
0000
1030
0000
,
0001
0000
0000
0020
0000
0000
0130
0000
,
1000
0000
0000
0002
0000
0000
0103
0000
,
0010
0000
0000
0000
,
1000
0100
1000
0002
,
0003
2000
3000
0010
,
0100
0010
1000
0100
,
0010
0000
0001
1000
,
0001
0100
0010
0200
,
0300
0002
0003
0010
,
0100
1000
0010
0100
,
0001
0010
0001
1000
,
0100
0010
0001
0200
,
0300
0020
0030
1000
,
0100
1000
0001
0100
,
0010
0000
1000
0001
,
1000
0000
0000
0200
0000
0000
0310
0000
,
0001
0000
0000
2000
0000
0000
3010
0000
,
0100
0000
0000
0002
0000
0000
0013
0000
,
0100
0000
0000
0000
,
1000
0100
1000
0001
,
1000
0100
1000
0001
,
0100
0001
1000
0001
,
0100
0000
0000
0000
,
0010
1000
0010
1000
,
0100
0010
0100
0010
,
0001
1000
0010
0100
,
0001
0010
0100
0000
,
0010
0001
0010
0100
,
1000
0001
0100
0010
,
1000
0001
0010
0100
,
0010
0001
1000
0000
,
0002
0000
0000
0003
,
2000
0000
0000
3000
,
0010
0000
0000
0100
0000
0000
0001
0000
,
0000
0010
0000
0000
0100
0000
1000
0000
,
0002
1000
1003
0100
2000
0000
3100
0000
,
2000
0001
3001
0100
0002
0000
0103
0000
,
0001
0010
0200
0000
2300
0000
3001
0000
,
1000
0010
0200
0000
0302
0000
1003
0000
,
0001
0100
1000
0100
,
0010
0000
0000
0000
,
0001
0100
0001
0000
,
1000
0010
0100
0000
,
0001
1000
0100
0010
,
0001
1000
0100
0000
,
0010
0100
1000
0000
,
0001
0100
0010
0000
,
1000
0001
0010
0100
,
1000
0001
0100
0010
,
1000
0000
0000
0000
;

//---------------dance-single - ----------------
#NOTES:
     dance-single:
     :
     Easy:
     5:
     0.234111,0.375954,0.086759,0.096399,0.000000,170.000000,161.000000,9.000000,10.000000,0.000000,0.000000,0.234111,0.375954,0.086759,0.096399,0.000000,170.000000,161.000000,9.000000,10.000000,0.000000,0.000000:
0000
0000
0000
0000
,
0000
0000
0000
0000
,
0000
0000
0000
0000
,
0000
0000
0000
0000
,
0001
0010
1000
0100
,
0010
0001
1000
0001
,
0100
0010
1000
0001
,
0100
0010
0100
0000
,
1000
0000
0100
0000
,
1000
0000
0010
0000
,
0001
0000
0100
0000
,
0001
0000
0010
0000
,
1000
0000
0100
0000
,
0001
0000
0100
0000
,
0010
0000
1000
0000
,
0010
0000
0001
0000
,
1000
0000
0010
0000
,
1000
0000
0100
0000
,
1000
0000
0001
1000
,
0100
0000
1001
0000
,
0100
0000
0001
0000
,
0010
0000
0001
0000
,
0100
0000
0001
1000
,
0010
0000
1001
0000
,
1000
0000
0100
0000
,
0010
0000
0100
0000
,
1000
0000
0001
0010
,
0100
0000
1000
0000
,
1001
0000
0000
0000
,
0110
0000
0000
0000
,
0001
0000
0010
0000
,
1000
0000
0000
0000
,
0001
0000
0100
0000
,
1000
0000
0100
0000
,
0010
0000
0001
1000
,
0100
0000
1001
0000
,
0010
0000
0001
0000
,
1000
0000
0100
0000
,
1000
0000
0010
0000
,
0100
0001
1000
0000
,
0100
0000
0010
0000
,
0001
0000
1000
0000
,
0100
0000
0010
0001
,
0100
0000
0001
0000
,
1001
0000
0000
0000
,
0110
0000
0000
0000
,
0001
0000
1000
0000
,
0100
0000
0000
0000
,
1000
0000
1000
0000
,
0001
0000
0001
0000
,
1000
0000
0100
0000
,
0010
0000
0001
0000
,
0100
0000
0100
0000
,
0010
0000
0010
0000
,
1000
0000
0001
0000
,
0100
0000
0010
0000
,
1000
0000
1000
0000
,
0001
0000
0001
0000
,
0010
0000
0100
0000
,
1000
0000
0001
0000
,
0200
0000
0000
0300
,
0020
0000
0000
0030
,
1000
0000
0001
0000
,
0100
0000
0010
0000
,
2000
0000
3000
0000
0001
0000
0100
0100
,
0020
0000
0030
0000
1000
0000
0001
0001
,
0002
2003
3100
0000
,
2000
3002
0103
0000
,
2001
0000
3020
0000
,
0130
0000
0000
0000
,
0001
0000
0001
0000
,
1000
0000
1000
0000
,
0010
0000
0010
0000
,
0100
0001
1000
0000
,
0100
0000
0100
0000
,
0010
0000
0010
0000
,
0001
0000
0001
0000
,
0010
0100
1000
0000
,
1001
0000
0000
0000
;

//---------------dance-single - ----------------
#NOTES:
     dance-single:
     :
     Beginner:
     2:
     0.125318,0.259794,0.000000,0.000000,0.000000,91.000000,91.000000,0.000000,0.000000,0.000000,0.000000,0.125318,0.259794,0.000000,0.000000,0.000000,91.000000,91.000000,0.000000,0.000000,0.000000,0.000000:
// measure 0
0000
0000
0000
0000
,  // measure 1
0000
0000
0000
0000
,  // measure 2
0000
0000
0000
0000
,  // measure 3
0000
0000
0000
0000
,  // measure 4
1000
0000
1000
0000
,  // measure 5
0100
0100
0100
0000
,  // measure 6
0010
0010
0010
0000
,  // measure 7
0001
0001
0001
0000
,  // measure 8
1000
0000
0000
0000
,  // measure 9
0001
0000
0000
0000
,  // measure 10
0100
0000
0100
0000
,  // measure 11
0100
0000
0000
0000
,  // measure 12
0010
0000
0000
0000
,  // measure 13
1000
0000
0000
0000
,  // measure 14
0001
0000
0000
0000
,  // measure 15
0010
0000
0010
0000
,  // measure 16
0000
0000
0100
0000
,  // measure 17
0000
0000
1000
0000
,  // measure 18
1000
0000
0000
0000
,  // measure 19
0001
0000
0000
0000
,  // measure 20
0100
0000
0000
0000
,  // measure 21
0010
0000
0010
0000
,  // measure 22
0010
0000
0000
0000
,  // measure 23
1000
0000
1000
0000
,  // measure 24
0000
0000
0001
0000
,  // measure 25
0000
0000
0010
0000
,  // measure 26
0010
0000
0000
0000
,  // measure 27
0100
0000
0000
0000
,  // measure 28
0100
0000
0000
0000
,  // measure 29
0010
0000
0000
0000
,  // measure 30
0001
0000
0000
0000
,  // measure 31
1000
0000
1000
0000
,  // measure 32
0000
0000
0001
0000
,  // measure 33
0000
0000
0100
0000
,  // measure 34
0100
0000
0000
0000
,  // measure 35
0010
0000
0000
0000
,  // measure 36
1000
0000
0000
0000
,  // measure 37
0001
0000
0001
0000
,  // measure 38
0001
0000
0000
0000
,  // measure 39
0100
0000
0100
0000
,  // measure 40
0000
0000
0001
0000
,  // measure 41
0000
0000
1000
0000
,  // measure 42
1000
0000
0000
0000
,  // measure 43
0100
0000
0000
0000
,  // measure 44
0010
0000
0000
0000
,  // measure 45
0001
0000
0000
0000
,  // measure 46
1000
0000
0000
0000
,  // measure 47
0010
0000
0000
0000
,  // measure 48
0010
0000
0000
0000
,  // measure 49
0100
0000
0000
0000
,  // measure 50
0100
0000
0000
0000
,  // measure 51
0001
0000
0000
0000
,  // measure 52
0001
0000
0000
0000
,  // measure 53
1000
0000
0000
0000
,  // measure 54
1000
0000
0000
0000
,  // measure 55
0010
0000
0000
0000
,  // measure 56
0010
0000
0000
0000
,  // measure 57
0100
0000
0000
0000
,  // measure 58
0100
0000
0000
0000
,  // measure 59
0001
0000
0000
0000
,  // measure 60
0100
0000
0000
0000
,  // measure 61
1000
0000
0000
0000
,  // measure 62
0100
0000
0000
0000
,  // measure 63
0010
0000
0010
0000
,  // measure 64
0100
0000
0100
0000
,  // measure 65
1000
0000
1000
0000
,  // measure 66
0001
0000
0001
0000
,  // measure 67
0010
0000
0000
0000
,  // measure 68
0000
0000
0000
0000
,  // measure 69
0100
0000
0000
0000
,  // measure 70
0100
0000
0000
0000
,  // measure 71
1000
0000
0000
0000
,  // measure 72
0001
0000
0000
0000
,  // measure 73
1000
0000
0000
0000
,  // measure 74
0010
0000
0000
0000
,  // measure 75
0100
0000
0000
0000
,  // measure 76
0001
0000
0000
0000
,  // measure 77
0010
0000
0000
0000
;
