#TITLE:Beneath the Tides;
#SUBTITLE:(Sunken Shrine Past);
#ARTIST:Rainbowdragoneyes;
#TITLETRANSLIT:;
#SUBTITLETRANSLIT:;
#ARTISTTRANSLIT:;
#GENRE:The Messenger;
#CREDIT:[Ness];
#BANNER:The Messenger - Beneath the Tides (Sunken Shrine Past).png;
#BACKGROUND:The Messenger - Beneath the Tides (Sunken Shrine Past)-bg.png;
#LYRICSPATH:;
#CDTITLE:;
#MUSIC:The Messenger - Beneath the Tides (Sunken Shrine Past).mp3;
#OFFSET:-0.015000;
#SAMPLESTART:22.160782;
#SAMPLELENGTH:14.769230;
#LASTBEATHINT:232.000000;
#SELECTABLE:YES;
#BPMS:0.000000=130.000000
,208.000000=65.000000
,224.000000=130.000000
;
#STOPS:
;
#BGCHANGES:;
#KEYSOUNDS:;
#ATTACKS:;

//---------------dance-single - ----------------
#NOTES:
     dance-single:
     :
     Challenge:
     10:
     0.653811,0.994857,0.118435,0.279169,0.545648,541.000000,527.000000,14.000000,33.000000,0.000000,0.000000,0.653811,0.994857,0.118435,0.279169,0.545648,541.000000,527.000000,14.000000,33.000000,0.000000,0.000000:
0000
0000
0000
0000
,
0000
0000
0000
0000
,
0000
0000
0000
0000
,
0000
0000
0000
1000
0010
0001
0100
0010
,
2000
0001
0001
0001
3002
0100
0100
0203
,
0010
0010
0320
1000
1000
1000
1000
1000
,
2030
0100
0100
0100
3200
0010
0010
0320
,
0001
0001
0032
1000
1000
2003
0010
3010
,
1010
0100
0001
1000
0020
0100
0130
0002
,
0010
0013
0200
1000
1300
0002
0100
0103
,
0101
0100
0010
1000
0200
1000
1300
0002
,
0010
0013
0200
0010
0310
0220
0000
0330
,
2100
0000
0000
0000
3001
0000
0100
0000
0010
0000
1000
0010
1000
0000
0100
0010
,
0100
0000
0010
0000
0010
0001
1000
0001
0010
0000
0100
1000
0100
0000
0010
0001
,
1000
0000
0001
0100
0001
0000
1000
0010
1000
0000
0100
0000
0010
0000
0001
1000
,
0001
0000
0100
0000
0100
0001
1000
0001
0100
0000
0010
1000
0010
0000
0100
0001
,
0200
0000
0000
0000
0300
0000
0010
0000
0010
0000
1000
0010
1000
0000
0100
1000
,
0100
0000
0010
0000
0001
0010
0100
1000
0100
0000
1000
0001
1000
0000
0001
0100
,
0002
0000
0000
0000
1003
0000
0010
0000
0100
0000
0001
0100
0001
0000
1000
0100
,
1000
0000
0001
0000
1000
0100
0010
0001
0100
0000
0010
1000
0010
0000
0100
0001
,
0200
0000
0000
0000
0310
1000
0001
1000
0010
0000
0100
0001
0200
0000
0000
0000
,
0301
1000
0100
0000
1000
0000
0001
0010
0100
0000
2000
0000
0100
0000
3010
1000
,
0010
0000
0000
0000
0100
0001
1000
0000
0010
0100
0001
0100
0010
0000
1000
0001
,
0010
0000
0100
0000
0100
1000
0001
1000
0100
0010
0001
0010
0100
0000
1000
0000
,
2100
0000
0000
0000
3001
0100
0001
1000
0100
0000
1000
0001
2000
0000
0000
0000
,
3010
0100
0001
0000
0010
0000
0010
0001
0100
0000
0200
0000
1000
0000
0310
0100
,
0010
0000
0000
0000
1000
0001
1000
0000
0001
0100
0010
1000
0001
0000
1000
0010
,
0100
0000
0001
0000
0100
0001
1000
0001
0100
0010
1000
0010
0100
0000
0001
1000
,
0100
0000
0100
1000
0100
0000
0100
0000
0100
0000
0100
0000
1000
0000
1000
0001
,
1000
0000
1000
0000
1000
0000
1000
0000
0010
0000
0010
0100
0010
0000
0100
0000
,
0001
0000
0001
0010
0001
0000
0001
0000
0001
0000
0001
0000
0010
0000
0010
0100
,
0010
0000
0010
0000
0010
0000
0010
0000
0100
0000
0100
1000
0100
0000
0100
0000
,
1000
0000
1000
0001
1000
0000
1000
0000
1000
0000
1000
0000
0010
0000
0010
1000
,
0010
0000
0010
0000
0010
0000
0010
0000
0100
0000
0100
0001
0100
0000
0100
0000
,
0001
0000
0001
0010
0001
0000
0001
0000
0001
0000
0001
0000
0010
0000
0010
0100
,
0010
0000
0010
0000
0010
0000
0010
0000
0100
0000
0100
1000
0100
0000
0100
0000
,
1000
0100
1100
1000
0001
0010
0011
0001
,
1000
0010
1010
1000
0001
0100
0101
0100
,
0010
1000
1001
1000
0100
1000
1001
0001
,
0010
0001
1001
0001
0100
0001
1001
1000
,
0010
0100
0001
0010
1000
0100
0010
0200
,
0000
1000
1000
1300
0000
0001
0010
1000
,
0000
0001
0100
0010
1000
0100
0001
0020
,
0000
0000
0001
0000
0001
0000
0031
1000
0010
0100
0001
0100
0010
0000
0000
0000
,
1000
0000
0001
0000
0010
0000
1000
0000
0100
0000
0010
0000
0100
1000
0001
0200
,
0000
0001
0001
0301
0000
1000
0010
0100
,
0000
0001
0010
1000
0010
0001
0100
0001
,
0000
1000
0100
0010
0100
0000
1000
0001
,
1000
0000
0001
0010
0001
0000
1000
0010
1000
0000
0001
0100
0010
1000
0100
0010
,
0001
0000
0100
0001
0100
0000
0001
0100
0001
0000
1000
0010
0100
0001
1000
0100
,
0010
0000
0100
0010
0100
0000
0010
0100
0010
0000
0001
0010
0100
1000
0010
0100
,
0001
0000
1000
0001
1000
0000
0001
1000
0001
0000
1000
0010
0100
0001
0010
0100
,
1000
0010
0100
0001
1000
0100
0010
0001
1000
0001
0100
0010
2000
0100
0100
3100
,
0100
1000
0000
0001
0100
0000
0100
0000
0010
1000
0000
0001
0010
0000
0010
0000
0100
0000
1000
0000
0100
0000
0010
0000
0001
0000
1000
0000
0100
0000
0010
0000
,
0100
1000
0100
1000
0100
1000
0100
0000
0010
0001
0010
0001
0010
0001
0010
0000
0100
0000
1000
0000
0001
0000
0010
0000
1000
0000
0010
0000
0001
0000
0000
0000
,
1000
0010
0100
0001
1000
0010
0100
0000
0001
0000
1000
0000
0100
0000
0010
0000
0002
0000
0000
0000
0000
0000
0000
0000
2000
0000
0000
0000
0000
0000
3003
0000
,
1001
0000
0000
0000
;

//---------------dance-single - ----------------
#NOTES:
     dance-single:
     :
     Hard:
     7:
     0.386728,0.663238,0.025379,0.389145,0.215721,320.000000,317.000000,3.000000,46.000000,0.000000,0.000000,0.386728,0.663238,0.025379,0.389145,0.215721,320.000000,317.000000,3.000000,46.000000,0.000000,0.000000:
0000
0000
0000
0000
,
0000
0000
0000
0000
,
0000
0000
0000
0000
,
0000
0000
0000
1000
0010
1000
0001
0100
,
0002
0000
0000
2003
0000
0000
3200
0000
,
0000
0320
0000
0000
0032
0000
2003
0000
,
3020
0000
0000
0230
0000
0000
0302
0000
,
0000
0023
0000
0130
1000
0001
0100
0100
,
0001
0000
2000
0000
0000
3200
0000
0000
,
0320
0000
0000
0032
0000
0000
2003
0000
,
3002
0000
0203
0000
0000
0320
0000
0000
,
2030
0000
0000
3001
0000
2002
0000
3003
,
0020
0000
1030
0200
0000
1300
0020
0000
,
0000
0000
0000
0000
0030
0100
0001
1000
,
0200
0000
1300
0002
0000
1003
0200
0000
,
0000
0000
0000
0000
0310
0100
0010
0001
,
2000
0000
3010
0002
0000
0013
0200
0000
,
0000
0000
0000
0000
0300
0001
1000
0100
,
1000
0010
0100
0002
0000
1003
0200
0000
,
0000
0000
0300
1001
,
0020
0001
0031
0002
0100
0100
0203
0000
,
0000
0000
0300
0000
0000
0010
1000
0001
,
2000
0100
0100
3200
0010
0010
0320
0000
,
0000
0000
0030
0000
0000
0001
1000
0001
,
0020
0100
0100
0230
1000
1000
2300
0000
,
0000
0000
3000
0000
0000
0001
0010
0100
,
2000
0001
0001
3002
0100
0100
0203
0000
,
0000
0000
0300
0000
0000
0010
1000
0100
,
1000
0000
0000
1000
0100
0000
0000
0100
1000
0000
0000
1000
0001
0000
0000
0001
,
0010
0000
0000
0010
0001
0000
0000
0001
0100
0000
0000
0100
0010
0000
0010
0000
,
1000
0000
0000
1000
0001
0000
0000
0001
1000
0000
0000
1000
0010
0000
0000
0010
,
0100
0000
0000
0100
0010
0000
0000
0010
1000
0000
0000
1000
0100
0000
0100
0000
,
0010
0000
0000
0010
0001
0000
0000
0001
0100
0000
0000
0100
1000
0000
0000
1000
,
0100
0000
0000
0100
0001
0000
0000
0001
0010
0000
0010
0000
0100
0000
0100
0000
,
1000
0000
0000
1000
0010
0000
0000
0010
0100
0000
0000
0100
0001
0000
0000
0001
,
1000
0000
0000
1000
0100
0000
0010
0000
0001
0000
1000
0000
0010
0000
0000
0000
,
1000
0100
0001
0000
0001
0100
1000
0000
,
0001
0100
0001
1000
0010
0100
0001
0000
,
0001
0010
1000
0000
1000
0010
0001
0000
,
1000
0100
0010
0001
0010
0100
1000
0000
,
0000
0001
1000
0010
0100
0001
1000
0100
,
0000
0010
0001
0010
0000
0100
1000
0100
,
0000
1000
0001
0100
0010
1000
0001
0010
,
0000
0000
0000
0100
1000
0001
0100
0000
,
0001
0100
0010
1000
0100
1000
0001
0010
,
0000
0001
1000
0001
0000
0100
0001
0100
,
0000
0010
1000
0001
0100
0010
1000
0001
,
0000
0000
0010
0100
1000
0000
0100
0010
,
0001
0000
0000
0001
0100
0000
0000
0100
0010
0000
0000
0010
1000
0000
0100
0000
,
1000
0000
0000
1000
0010
0000
0000
0010
0100
0000
0000
0100
0001
0000
1000
0000
,
0001
0000
0000
0001
0010
0000
0000
0010
0100
0000
0000
0100
1000
0000
0001
0000
,
1000
0000
0000
1000
0010
0000
0000
0010
0001
0000
0000
0001
0010
0000
0000
0000
,
0100
1000
0001
0000
1000
0010
0100
0001
,
0010
0001
0010
0000
0100
1000
0001
0000
1000
0100
1000
0000
0010
0100
0001
0000
,
1000
0100
0010
0001
1000
0100
0010
0001
1000
0100
0010
0001
1000
0000
0000
0000
,
0001
0100
0010
1000
0001
0100
0010
1000
0002
0000
0000
0000
2000
0000
0000
3003
,
1001
0000
0000
0000
;

//---------------dance-single - ----------------
#NOTES:
     dance-single:
     :
     Medium:
     5:
     0.219951,0.260558,0.008460,0.236871,0.000000,182.000000,181.000000,1.000000,28.000000,0.000000,0.000000,0.219951,0.260558,0.008460,0.236871,0.000000,182.000000,181.000000,1.000000,28.000000,0.000000,0.000000:
// measure 0
0000
0000
0000
0000
,  // measure 1
0000
0000
0000
0000
,  // measure 2
0000
0000
0000
0000
,  // measure 3
0000
0000
1000
0001
,  // measure 4
0100
0000
0000
0100
0000
0000
0010
0000
,  // measure 5
0000
0010
0000
0000
1000
0000
1000
0000
,  // measure 6
0100
0000
0000
0100
0000
0000
0010
0000
,  // measure 7
0000
0010
0000
0000
0001
0000
1000
0000
,  // measure 8
0001
0000
0010
0000
0000
0010
0000
0000
,  // measure 9
0100
0000
0000
0100
0000
0000
1000
0000
,  // measure 10
0100
0000
1000
0000
0000
0001
0000
0000
,  // measure 11
0100
0000
0000
0100
0000
0000
0000
0000
,  // measure 12
0020
0000
0030
0002
0000
0003
0200
0000
,  // measure 13
0300
0000
0000
0001
,  // measure 14
2000
0000
3000
0200
0000
0300
0020
0000
,  // measure 15
0030
0000
0000
0100
,  // measure 16
2000
0000
3000
0002
0000
0003
0200
0000
,  // measure 17
0300
0000
0000
0010
,  // measure 18
2000
0000
3000
0200
0000
0300
0020
0000
,  // measure 19
0030
0000
0000
0001
,  // measure 20
2000
0000
3000
0002
0000
0003
0200
0000
,  // measure 21
0300
0000
0000
0010
,  // measure 22
2000
0000
3000
0200
0000
0300
0020
0000
,  // measure 23
0030
0000
0000
0001
,  // measure 24
0020
0000
0030
0200
0000
0300
0020
0000
,  // measure 25
0030
0000
0000
0001
,  // measure 26
2000
0000
3000
0002
0000
0003
0200
0000
,  // measure 27
0300
0000
0010
1000
,  // measure 28
0001
0001
0001
1000
,  // measure 29
1000
0000
1000
0000
0010
0000
0010
0100
,  // measure 30
0001
0001
0001
0010
,  // measure 31
0010
0000
0010
0000
0100
0000
0100
1000
,  // measure 32
0010
0010
0010
1000
,  // measure 33
1000
0000
1000
0000
0001
0000
0001
0100
,  // measure 34
0010
0010
0010
1000
,  // measure 35
1000
0000
1000
0100
0010
0000
0001
0000
,  // measure 36
0100
0001
1000
0100
,  // measure 37
1000
0010
0001
0010
,  // measure 38
1000
1000
0001
0001
,  // measure 39
0010
0100
0010
0100
,  // measure 40
1000
0000
0100
0000
1000
0001
1000
0000
,  // measure 41
0001
0100
0001
0010
,  // measure 42
0001
1000
0001
1000
,  // measure 43
0010
0000
0100
0000
0010
1000
0010
0000
,  // measure 44
1000
0000
0001
0000
0010
0000
0100
1000
,  // measure 45
0100
0010
0001
0100
,  // measure 46
0001
0010
0100
0010
,  // measure 47
0100
1000
0001
1000
,  // measure 48
0001
0010
0001
0100
,  // measure 49
1000
0100
0001
0100
,  // measure 50
0010
1000
0010
0001
,  // measure 51
1000
0100
0001
0100
,  // measure 52
0020
1030
0200
0301
,  // measure 53
1000
0001
0100
0000
0001
1000
0010
0000
,  // measure 54
0200
0301
2000
3010
,  // measure 55
0100
0001
0010
0000
0100
0000
0010
0000
,  // measure 56
1001
0000
0000
0000
;

//---------------dance-single - ----------------
#NOTES:
     dance-single:
     :
     Easy:
     3:
     0.148648,0.165809,0.008460,0.101516,0.000000,123.000000,122.000000,1.000000,12.000000,0.000000,0.000000,0.148648,0.165809,0.008460,0.101516,0.000000,123.000000,122.000000,1.000000,12.000000,0.000000,0.000000:
// measure 0
0000
0000
0000
0000
,  // measure 1
0000
0000
0000
0000
,  // measure 2
0000
0000
0000
0000
,  // measure 3
0000
0000
1000
1000
,  // measure 4
0100
0000
0001
0000
,  // measure 5
0010
0000
0100
0100
,  // measure 6
0010
0000
0100
0000
,  // measure 7
1000
0000
0001
0001
,  // measure 8
1000
0100
0000
0100
,  // measure 9
0000
0010
0000
0010
,  // measure 10
0001
0001
0000
1000
,  // measure 11
0000
0001
0100
0000
,  // measure 12
1001
0000
1000
0020
,  // measure 13
0000
0030
0000
0100
,  // measure 14
0001
0000
0010
0200
,  // measure 15
0000
0300
0000
0010
,  // measure 16
0001
0000
1000
0200
,  // measure 17
0000
0300
0000
1000
,  // measure 18
0010
0000
0100
0002
,  // measure 19
0000
0003
0000
1000
,  // measure 20
0200
0000
0300
0020
,  // measure 21
0000
0030
0001
0000
,  // measure 22
2000
0000
3000
0002
,  // measure 23
0000
0003
0100
0000
,  // measure 24
0020
0000
0030
2000
,  // measure 25
0000
3000
0100
0100
,  // measure 26
0020
0000
0030
0002
,  // measure 27
0000
0003
0100
0001
,  // measure 28
1000
1000
0000
0010
,  // measure 29
0010
0000
0100
0100
,  // measure 30
0001
0001
0000
0010
,  // measure 31
0010
0000
0100
0100
,  // measure 32
1000
1000
0000
0001
,  // measure 33
0001
0000
0100
0100
,  // measure 34
0010
0010
0000
1000
,  // measure 35
1000
0000
0100
0000
,  // measure 36
0001
0100
0001
0000
,  // measure 37
1000
0000
0001
0000
,  // measure 38
1000
0100
1000
0000
,  // measure 39
0001
0000
1000
0000
,  // measure 40
0001
0010
0001
0000
,  // measure 41
0010
0000
0100
0000
,  // measure 42
1000
0100
1000
0000
,  // measure 43
0010
0000
0100
0000
,  // measure 44
0010
1000
0010
0000
,  // measure 45
0100
0000
0001
0000
,  // measure 46
1000
0001
1000
0000
,  // measure 47
0001
0000
0010
0000
,  // measure 48
0100
0000
0100
0000
,  // measure 49
1000
0000
1000
0000
,  // measure 50
0001
0000
0001
0000
,  // measure 51
0100
0000
0100
0000
,  // measure 52
0010
0000
1000
0000
,  // measure 53
0100
0000
0010
0000
,  // measure 54
0001
0000
0100
0000
,  // measure 55
0010
0000
1000
0000
,  // measure 56
0100
0000
0000
0000
;

//---------------dance-single - ----------------
#NOTES:
     dance-single:
     :
     Beginner:
     1:
     0.095473,0.118435,0.000000,0.000000,0.000000,79.000000,79.000000,0.000000,0.000000,0.000000,0.000000,0.095473,0.118435,0.000000,0.000000,0.000000,79.000000,79.000000,0.000000,0.000000,0.000000,0.000000:
// measure 0
0000
0000
0000
0000
,  // measure 1
0000
0000
0000
0000
,  // measure 2
0000
0000
0000
0000
,  // measure 3
0000
0000
0000
0000
,  // measure 4
0010
0000
0000
1000
,  // measure 5
0000
0000
0001
0000
,  // measure 6
0001
0000
0000
0010
,  // measure 7
0000
0000
0100
0000
,  // measure 8
1000
1000
0000
0000
,  // measure 9
0100
0000
0000
0010
,  // measure 10
0000
0001
0000
0000
,  // measure 11
0100
0000
0000
0000
,  // measure 12
0001
0000
0000
0001
,  // measure 13
0000
0000
0000
0000
,  // measure 14
1000
0000
0000
1000
,  // measure 15
0000
0000
0000
0000
,  // measure 16
0100
0000
0000
0100
,  // measure 17
0000
0000
0000
0000
,  // measure 18
0010
0000
0000
0010
,  // measure 19
0000
0000
0000
0000
,  // measure 20
0100
0000
0000
0100
,  // measure 21
0000
0000
0000
0000
,  // measure 22
0001
0000
0000
0001
,  // measure 23
0000
0000
0000
0000
,  // measure 24
0010
0000
0000
0010
,  // measure 25
0000
0000
0000
0000
,  // measure 26
0100
0000
0000
0100
,  // measure 27
0000
0000
0000
0000
,  // measure 28
1000
0000
0000
0010
,  // measure 29
0000
0000
0100
0000
,  // measure 30
0100
0000
0000
0001
,  // measure 31
0000
0000
0001
0000
,  // measure 32
0010
0000
0000
0010
,  // measure 33
0000
0000
0100
0000
,  // measure 34
0100
0000
0000
1000
,  // measure 35
0000
0000
0010
0000
,  // measure 36
0100
0000
0100
0000
,  // measure 37
0001
0000
0001
0000
,  // measure 38
0010
0000
0010
0000
,  // measure 39
0100
0000
0100
0000
,  // measure 40
1000
0000
0001
0000
,  // measure 41
0100
0000
0000
0000
,  // measure 42
0001
0000
0010
0000
,  // measure 43
0100
0000
1000
0000
,  // measure 44
1000
0000
0100
0000
,  // measure 45
0010
0000
0000
0000
,  // measure 46
0001
0000
1000
0000
,  // measure 47
0010
0000
0100
0000
,  // measure 48
0001
0000
0001
0000
,  // measure 49
1000
0000
1000
0000
,  // measure 50
0100
0000
0100
0000
,  // measure 51
0010
0000
0010
0000
,  // measure 52
0001
0000
0001
0000
,  // measure 53
1000
0000
1000
0000
,  // measure 54
0010
0000
0010
0000
,  // measure 55
0100
0000
0100
0000
,  // measure 56
0001
0000
0000
0000
;
