#VERSION:0.83;
#TITLE:Beneath the Surface;
#SUBTITLE:(Sunken Shrine Future);
#ARTIST:Rainbowdragoneyes;
#TITLETRANSLIT:;
#SUBTITLETRANSLIT:;
#ARTISTTRANSLIT:;
#GENRE:The Messenger;
#ORIGIN:;
#CREDIT:[Ness];
#BANNER:The Messenger - Beneath the Surface (Sunken Shrine Future).png;
#BACKGROUND:The Messenger - Beneath the Surface (Sunken Shrine Future)-bg.png;
#PREVIEWVID:;
#JACKET:The Messenger - Beneath the Surface (Sunken Shrine Future)-jacket.png;
#CDIMAGE:;
#DISCIMAGE:;
#LYRICSPATH:;
#CDTITLE:;
#MUSIC:The Messenger - Beneath the Surface (Sunken Shrine Future).mp3;
#OFFSET:-0.015000;
#SAMPLESTART:22.140781;
#SAMPLELENGTH:14.769230;
#SELECTABLE:YES;
#BPMS:0.000=130.000,
208.000=65.000,
224.000=130.000;
#STOPS:;
#DELAYS:;
#WARPS:;
#TIMESIGNATURES:0.000=4=4;
#TICKCOUNTS:0.000=2;
#COMBOS:0.000=1;
#SPEEDS:0.000=1.000=0.000=0;
#SCROLLS:0.000=1.000;
#FAKES:;
#LABELS:0.000=Song Start;
#LASTSECONDHINT:114.508469;
#BGCHANGES:;
#KEYSOUNDS:;
#ATTACKS:
;

//---------------dance-single - ----------------
#NOTEDATA:;
#CHARTNAME:;
#STEPSTYPE:dance-single;
#DESCRIPTION:;
#CHARTSTYLE:;
#DIFFICULTY:Challenge;
#METER:11;
#RADARVALUES:0.705778,0.994857,0.186113,0.203032,0.719071,584.000000,562.000000,22.000000,24.000000,46.000000,0.000000,0.000000,0.000000,0.000000,0.705778,0.994857,0.186113,0.203032,0.719071,584.000000,562.000000,22.000000,24.000000,46.000000,0.000000,0.000000,0.000000,0.000000;
#CREDIT:;
#NOTES:
0000
0000
0000
0000
,
0000
0000
0000
0000
,
0000
0000
0000
0000
,
0000
0000
0000
0000
0000
0000
0000
0000
0000
1000
0000
0000
0010
0000
0000
0001
M000
0000
0100
0000
0000
0010
0000
0000
,
2000
0000
0M00
0001
0000
0000
0001
0000
0000
0001
00M0
0000
3002
0000
0000
0100
0000
0000
M100
0000
0000
0203
0000
0000
,
0010
0000
0000
0010
000M
0000
0320
0000
0000
1000
0000
0000
1000
0000
0M00
1000
0000
0000
1000
0000
0000
1000
000M
0000
,
2030
0000
0000
0100
0000
0000
0100
0000
00M0
0100
0000
0000
3200
0000
0000
0010
000M
0000
0010
0000
0000
0320
0000
0000
,
M001
0000
0000
0001
0000
0000
0032
0000
0000
1000
0M00
0000
1000
0000
0000
2003
0000
0000
0010
0000
0000
3010
000M
0000
,
1010
0000
0000
0100
0000
0000
0001
0000
00M0
1000
0000
0000
0020
0000
0000
0100
0000
0000
M130
0000
0000
0002
0000
0000
,
0010
0000
0M00
0013
0000
0000
0200
0000
0000
1000
000M
0000
1300
0000
0000
0002
0000
0000
01M0
0000
0000
0103
0000
0000
,
0101
0000
0000
0100
M000
0000
0010
0000
0000
1000
0000
0000
0200
0000
000M
1000
0000
0000
1300
0000
0000
0002
0000
0000
,
0M10
0000
0000
0013
0000
0000
0200
0000
0000
0010
M000
0000
0310
0000
0000
0220
0000
0000
000M
0000
0000
0330
0000
0000
,
1100
0000
1000
0100
1000
0000
0001
0010
0001
0000
0100
0010
0100
0000
0001
1000
,
0001
0000
0001
0000
0010
0000
0100
0000
1000
0100
1000
0000
1000
0000
0100
0010
,
0100
0000
1000
0001
1000
0000
0010
0000
0010
0100
0010
1000
0100
0000
0010
0000
,
0001
1000
0001
0100
0001
0000
0010
0000
0100
1000
0100
0010
0001
1000
0100
0000
,
0010
0000
0010
0001
0100
0000
0100
0001
0010
0000
0100
1000
0010
0000
1000
0000
,
1000
0000
0001
0000
0100
0000
0000
0000
0100
0000
0000
0000
0010
0000
0000
0000
0010
0000
1000
0000
0100
0000
1000
0000
0010
0000
0000
0000
0100
0001
0100
0001
,
0010
0000
0100
1000
0100
0000
0010
0000
0010
0001
0100
0000
0001
0000
0001
0000
,
1000
0010
0100
0001
1000
0000
0100
0000
1000
0100
0001
0000
1000
0000
0100
0010
,
0001
0000
0000
0000
1000
0000
0010
0000
1000
0000
0000
0000
0001
0100
0001
0100
0001
0000
0000
0000
0010
0001
0010
0001
0010
0000
0000
0000
0100
0000
0000
0000
,
0100
0000
1000
0100
1000
0000
0001
0000
0001
0010
0001
0000
0100
0000
0010
0100
,
0001
0000
1000
0010
1000
0000
0001
0000
1000
0100
0010
0001
0100
0000
0001
0000
,
0001
0000
1000
0000
0001
0000
0100
0000
0010
0000
0000
0000
1000
0000
0000
0000
1000
0000
0100
0000
0010
0000
0001
0000
0100
0000
0010
0000
1000
0001
1000
0001
,
1000
0000
0010
1000
0001
0000
0010
0000
0010
0100
1000
0000
1000
0000
0001
0100
,
0010
0000
0000
0000
0100
0000
0000
0000
0100
0001
0100
0001
0100
0000
0000
0000
0010
0000
0000
0000
1000
0000
0000
0000
0100
0000
0000
0000
1000
0000
0001
0000
,
1000
0000
0001
0010
0001
0000
0100
0010
0100
0000
1000
0000
1000
0000
0100
0000
,
0001
0000
0100
0000
1000
0000
0001
0000
0001
0100
0001
0000
1000
0000
0001
1000
,
0100
0000
0100
1000
0100
0000
0100
0001
0100
0000
0100
0000
1000
0000
1000
0010
,
1000
0000
1000
0100
1000
0000
1000
0000
0010
0000
0010
0100
0010
0000
0100
0000
,
0001
0000
0001
0010
0001
0000
0001
1000
0001
0000
0001
0000
0010
0000
0010
0100
,
0010
0000
0010
1000
0010
0000
0010
0000
0100
0000
0100
1000
0100
0000
0100
0001
,
1000
0000
1000
0001
1000
0010
1000
0100
1000
0001
1000
0100
0010
0001
0010
0100
,
0010
0001
0010
1000
0010
0100
0010
0001
0100
0010
0100
1000
0100
0010
0100
0001
,
0010
0001
0010
0100
0010
0001
0010
0100
0010
1000
0010
0001
0100
0001
0100
0010
,
0100
1000
0100
0010
0100
0001
0100
0010
1000
0100
1000
0001
1000
0010
1000
0100
,
1000
0100
110M
1000
0001
0010
0M11
0001
,
1000
0010
101M
1000
0001
0100
01M1
0100
,
0010
1000
1M01
1000
0100
1000
10M1
0001
,
0010
0001
1M01
0001
0100
0001
10M1
1000
,
0010
0100
M001
0010
1000
0100
001M
0200
,
0000
1000
10M0
1300
0000
0001
0M10
1000
,
0000
0001
M100
0010
1000
0100
00M1
0020
,
0000
0000
0001
0000
0M01
0000
0031
1000
0010
0100
0001
0100
M010
0000
0000
0000
,
1000
0000
0001
0000
0M10
0000
1000
0000
0100
0000
0010
0000
010M
1000
0001
0200
,
0000
1000
001M
0301
0000
1000
0M10
0100
,
0000
0001
0M10
1000
0010
0001
M100
0101
,
0000
1000
010M
0010
0100
0000
10M0
0001
,
1000
0000
0100
0000
0011
0000
0001
1000
0010
0000
0100
0000
1010
0000
0100
0001
,
1000
0000
0100
0000
0011
0000
1000
0010
0100
0000
0010
0000
1100
0000
0010
1000
,
0001
0000
0010
0000
1001
0000
0010
0001
0100
0000
1000
0000
1001
0000
0100
1000
,
0001
0000
0100
0000
1001
0000
0010
1000
0100
0000
0010
0000
1001
0000
1000
0001
,
1000
0010
0100
0001
1000
0100
0010
0001
1000
0001
0100
0010
2000
0100
0100
3100
,
0100
1000
0000
0001
0100
0000
0100
0000
0010
1000
0000
0001
0010
0000
0010
0000
0100
0000
1000
0000
0100
0000
0010
0000
0001
0000
1000
0000
0100
0000
0010
0000
,
0100
1000
0100
1000
0100
1000
0100
0000
0010
0001
0010
0001
0010
0001
0010
0000
0100
0000
1000
0000
0001
0000
0010
0000
1000
0000
0010
0000
0001
0000
0000
0000
,
1000
0010
0100
0001
1000
0010
0100
0000
0001
0000
1000
0000
0100
0000
0010
0000
0002
0000
0000
0000
0000
0000
0000
0000
2000
0000
0000
0000
0000
0000
3003
0000
,
1001
0000
0000
0000
;

//---------------dance-single - ----------------
#NOTEDATA:;
#CHARTNAME:;
#STEPSTYPE:dance-single;
#DESCRIPTION:;
#CHARTSTYLE:;
#DIFFICULTY:Hard;
#METER:8;
#RADARVALUES:0.424192,0.639551,0.025379,0.389145,0.317237,351.000000,348.000000,3.000000,46.000000,27.000000,0.000000,0.000000,0.000000,0.000000,0.424192,0.639551,0.025379,0.389145,0.317237,351.000000,348.000000,3.000000,46.000000,27.000000,0.000000,0.000000,0.000000,0.000000;
#CREDIT:;
#NOTES:
0000
0000
0000
0000
,
0000
0000
0000
0000
,
0000
0000
0000
0000
,
0000
0000
0000
0000
0000
0000
0000
0000
0000
1000
0000
0000
0010
0000
0000
1000
0000
0000
0001
0000
0000
0100
M000
0000
,
0002
0000
0000
0000
0000
0000
00M0
0000
0000
2003
0000
0000
0000
0000
0000
0000
000M
0000
3200
0000
0000
0000
00M0
0000
,
0000
0000
0000
0320
M000
0000
0000
0000
0000
0000
0M00
0000
0032
0000
0000
0000
0000
0000
2003
0000
0M00
0000
0000
0000
,
3020
0000
0000
0000
000M
0000
0000
0000
0000
0230
M000
0000
0000
0000
0000
0000
0000
0000
0302
0000
00M0
0000
0000
0000
,
0000
0000
0000
0023
0M00
0000
0000
0000
0000
0130
000M
0000
1000
0000
0000
0001
0000
0000
0100
0000
00M0
0100
0000
0000
,
0001
0000
0000
0000
0M00
0000
2000
0000
0000
0000
000M
0000
0000
0000
0000
3200
0000
0000
0000
0000
0000
0000
M000
0000
,
0320
0000
0000
0000
0000
0000
0000
0000
0M00
0032
0000
0000
0000
0000
0000
0000
0000
0000
20M3
0000
0000
0000
0000
0000
,
3002
0000
0M00
0000
0000
0000
0203
0000
0000
0000
0000
0000
M000
0000
0000
0320
0000
0000
0000
0000
0000
0000
000M
0000
,
2030
0000
0000
0000
0000
0000
0000
0000
0M00
3001
0000
0000
0000
0000
0000
2002
0000
0000
0000
0000
0000
3003
0000
0000
,
0020
0000
1030
0200
0000
1300
0020
0000
,
0100
0000
1000
0000
0130
0100
0001
1000
,
0200
0000
1300
0002
0000
1003
0200
0000
,
0001
0000
1000
0000
0310
0100
0010
0001
,
2000
0000
3010
0002
0000
0013
0200
0000
,
1000
0000
0001
0000
0310
0001
1000
0100
,
1000
0010
0100
0002
0000
1003
0200
0000
,
1000
0001
0310
1001
,
0020
000M
0031
0002
0M00
0100
0203
0000
,
0001
0000
0301
0000
1000
0010
1000
0001
,
2000
0M00
0100
3200
00M0
0010
0320
0000
,
0100
0000
0130
0000
0001
0001
1000
0001
,
0010
1000
0001
0100
1000
0100
0010
0001
,
1000
0010
0001
1000
0100
0001
0010
0100
,
2000
0001
0001
3002
0M00
0100
0203
0000
,
0000
0000
0300
0000
0001
0010
1000
0100
,
1000
0000
0000
1000
0100
0000
0000
0100
1000
0000
0000
1000
0001
0000
0000
0001
,
0010
0000
0000
0010
0001
0000
0000
0001
0100
0000
0000
0100
0010
0000
0010
0000
,
1000
0000
0000
1000
0001
0000
0000
0001
1000
0000
0000
1000
0010
0000
0000
0010
,
0100
0000
0000
0100
0010
0000
0000
0010
1000
0000
0000
1000
0100
0000
0100
0000
,
0010
0000
0000
0010
0001
0000
0000
0001
0100
0000
0000
0100
1000
0000
0000
1000
,
0100
0000
0000
0100
0001
0000
0000
0001
0010
0000
0010
0000
0100
0000
0100
0000
,
1000
0000
0000
1000
0010
0000
0000
0010
0100
0000
0000
0100
0001
0000
0000
0001
,
1000
0000
0000
1000
0100
0000
0010
0000
0001
0000
1000
0000
0010
0000
0000
0000
,
1000
0100
0001
0100
0001
0100
1000
0010
,
0001
0100
0001
1000
0010
0100
0001
1000
,
0001
0010
1000
0100
1000
0010
0001
0100
,
1000
0100
0010
0001
0010
0100
1000
0001
,
0100
0001
1000
0010
0100
0001
1000
0200
,
0000
0310
0001
0010
0000
0100
1000
0100
,
0000
1000
0001
0100
0010
1000
0001
0020
,
0000
0000
0130
0000
0000
0000
1000
0001
0100
0000
0001
0000
0010
0000
0000
0000
,
0001
0100
0010
1000
0100
1000
0001
0020
,
0000
0031
1000
0001
0000
0100
0001
0100
,
0000
0010
1000
0001
0100
0010
1000
0001
,
0000
0000
0010
0100
1000
0000
0100
0010
,
0001
0000
0000
0001
0100
0000
0000
0100
0010
0000
0000
0010
1000
0000
0100
0000
,
1000
0000
0000
1000
0010
0000
0000
0010
0100
0000
0000
0100
0001
0000
1000
0000
,
0001
0000
0000
0001
0010
0000
0000
0010
0100
0000
0000
0100
1000
0000
0001
0000
,
1000
0000
0000
1000
0010
0000
0000
0010
0001
0000
0000
0001
0010
0000
0000
0000
,
0100
1000
0001
0000
0100
0001
1000
0000
0010
0100
0010
1000
0100
0000
0000
0000
,
0010
0001
0010
0000
0100
1000
0001
0000
1000
0100
1000
0001
0100
0000
0000
0000
,
1000
0100
0010
0001
1000
0100
0010
0001
1000
0010
0001
0100
1000
0000
0000
0000
,
0001
0100
0010
1000
0001
0100
0010
1000
0002
0000
0000
0000
2000
0000
0000
3003
,
1001
0000
0000
0000
;

//---------------dance-single - ----------------
#NOTEDATA:;
#CHARTNAME:;
#STEPSTYPE:dance-single;
#DESCRIPTION:;
#CHARTSTYLE:;
#DIFFICULTY:Medium;
#METER:6;
#RADARVALUES:0.298505,0.331619,0.228411,0.439903,0.000000,247.000000,220.000000,27.000000,52.000000,0.000000,0.000000,0.000000,0.000000,0.000000,0.298505,0.331619,0.228411,0.439903,0.000000,247.000000,220.000000,27.000000,52.000000,0.000000,0.000000,0.000000,0.000000,0.000000;
#CREDIT:;
#NOTES:
0000
0000
0000
0000
,
0000
0000
0000
0000
,
0000
0000
0000
0000
,
0000
0000
1000
0001
,
0200
0000
0300
2000
0000
3000
0020
0000
,
0030
0002
0000
0003
1000
0000
0001
0000
,
0200
0000
0300
0002
0000
0003
0020
0000
,
0030
2000
0000
3000
0001
0000
1000
0000
,
0001
0000
0020
0000
0030
0002
0000
0003
,
2000
0000
3000
0200
0000
0300
0001
0000
,
0100
0000
2000
0000
3000
0002
0000
0003
,
0200
0000
0300
0200
0000
0300
0000
0000
,
1020
0000
0030
0102
0000
0003
0210
0000
,
0300
0000
1000
0000
0001
0100
0010
0000
,
2100
0000
3000
0201
0000
0300
1020
0000
,
0030
0000
0001
0000
1000
0100
0010
0000
,
2100
0000
3000
0012
0000
0003
0210
0000
,
0300
0000
1000
0000
0001
0100
0001
0000
,
2010
0000
3000
0210
0000
0300
0021
0000
,
0030
0000
1000
0000
0001
1000
0100
0000
,
2001
0000
3000
0012
0000
0003
1200
0000
,
0300
0000
1000
0000
0001
0100
0010
0000
,
2010
0000
3000
0201
0000
0300
1002
0000
,
0003
0000
1000
0000
0001
0100
1000
0000
,
0021
0000
0030
1200
0000
0300
1002
0000
,
0003
0000
1000
0000
0010
0100
0001
0000
,
2010
0000
3000
0102
0000
0003
0210
0000
,
0300
0000
0010
0000
1000
0100
0010
0001
,
0200
0001
0301
2000
,
0010
0000
3010
0000
0100
0000
0100
0001
,
0020
0001
0031
2000
,
0010
0000
3010
0000
0100
0000
0100
0001
,
0020
0100
0130
2000
,
0001
0000
3001
0000
0100
0000
0100
0010
,
2000
0100
3100
0002
,
0010
0000
0013
0100
1000
0000
0001
0000
,
0100
0001
1000
0000
0100
0010
0001
0000
,
1000
0010
0001
0010
,
1000
0100
1000
0000
0001
0010
0001
0000
,
0010
0100
0001
0100
,
1000
0000
0100
0000
1000
0001
1000
0100
,
0001
0100
0001
0010
,
0001
0000
1000
0000
0001
0100
1000
0000
,
0010
0000
0100
0000
0001
0100
0010
0000
,
1000
0000
0001
0000
0010
0100
1000
0100
,
0010
0001
0100
1000
,
0001
0010
0100
1000
,
0010
0000
0100
0001
1000
0000
0001
1000
,
0010
0010
0001
0101
,
1000
0100
0001
0100
,
0010
1000
0010
1001
,
1000
0100
0001
0100
,
0020
1000
1030
0000
0200
0001
0301
0000
,
1000
0001
0100
0010
0001
1000
0010
0000
,
0200
0001
0301
0000
2000
0010
3010
0000
,
0100
0001
0010
1000
0100
0000
0010
0000
,
1001
0000
0000
0000
;

//---------------dance-single - ----------------
#NOTEDATA:;
#CHARTNAME:;
#STEPSTYPE:dance-single;
#DESCRIPTION:;
#CHARTSTYLE:;
#DIFFICULTY:Easy;
#METER:3;
#RADARVALUES:0.153482,0.165809,0.008460,0.253790,0.000000,127.000000,126.000000,1.000000,30.000000,0.000000,0.000000,0.000000,0.000000,0.000000,0.153482,0.165809,0.008460,0.253790,0.000000,127.000000,126.000000,1.000000,30.000000,0.000000,0.000000,0.000000,0.000000,0.000000;
#CREDIT:;
#NOTES:
// measure 0
0000
0000
0000
0000
,  // measure 1
0000
0000
0000
0000
,  // measure 2
0000
0000
0000
0000
,  // measure 3
0000
0000
1000
1000
,  // measure 4
0200
0300
0002
0003
,  // measure 5
0020
0030
0100
0100
,  // measure 6
0020
0030
0200
0300
,  // measure 7
2000
3000
0001
0001
,  // measure 8
1000
0200
0300
0200
,  // measure 9
0300
0020
0030
0010
,  // measure 10
0001
0002
0003
2000
,  // measure 11
3000
0001
0200
0300
,  // measure 12
1001
0000
0000
0100
0000
0000
0020
0000
,  // measure 13
0000
0030
0000
0100
,  // measure 14
0001
0000
0000
0010
0000
0000
0200
0000
,  // measure 15
0000
0300
0000
0010
,  // measure 16
0001
0000
0000
1000
0000
0000
0200
0000
,  // measure 17
0000
0300
0000
1000
,  // measure 18
0010
0000
0000
0100
0000
0000
0002
0000
,  // measure 19
0000
0003
0000
1000
,  // measure 20
0200
0000
0300
2000
0000
3000
0020
0000
,  // measure 21
0000
0030
0001
0000
,  // measure 22
2000
0000
3000
0200
0000
0300
0002
0000
,  // measure 23
0000
0003
0100
0000
,  // measure 24
0020
0000
0030
0200
0000
0300
2000
0000
,  // measure 25
0000
3000
0100
0100
,  // measure 26
0020
0000
0030
0002
0000
0003
0200
0000
,  // measure 27
0000
0300
0001
1000
,  // measure 28
0100
0100
0000
0010
,  // measure 29
0010
0000
0001
0001
,  // measure 30
1000
1000
0000
0010
,  // measure 31
0010
0000
0100
0100
,  // measure 32
0001
0001
0000
1000
,  // measure 33
1000
0000
0100
0100
,  // measure 34
0010
0010
0000
0001
,  // measure 35
0001
0000
0100
0000
,  // measure 36
1000
0100
0001
0000
,  // measure 37
1000
0000
0001
0000
,  // measure 38
1000
0100
0010
0000
,  // measure 39
0001
0000
1000
0000
,  // measure 40
0001
0010
0100
0000
,  // measure 41
0010
0000
0100
0000
,  // measure 42
1000
0001
0100
0000
,  // measure 43
0010
0000
0100
0000
,  // measure 44
0010
1000
0100
0000
,  // measure 45
0010
0000
0001
0000
,  // measure 46
1000
0100
0001
0000
,  // measure 47
0010
0000
0001
0000
,  // measure 48
0100
0000
1000
0000
,  // measure 49
0001
0000
0100
0000
,  // measure 50
0001
0000
1000
0000
,  // measure 51
0100
0000
0100
0000
,  // measure 52
0020
0030
0001
0000
,  // measure 53
1000
0000
0010
0000
,  // measure 54
0200
0300
0001
0000
,  // measure 55
0010
0000
1000
0000
,  // measure 56
0100
0000
0000
0000
;

//---------------dance-single - ----------------
#NOTEDATA:;
#CHARTNAME:;
#STEPSTYPE:dance-single;
#DESCRIPTION:;
#CHARTSTYLE:;
#DIFFICULTY:Beginner;
#METER:1;
#RADARVALUES:0.095473,0.118435,0.000000,0.000000,0.000000,79.000000,79.000000,0.000000,0.000000,0.000000,0.000000,0.000000,0.000000,0.000000,0.095473,0.118435,0.000000,0.000000,0.000000,79.000000,79.000000,0.000000,0.000000,0.000000,0.000000,0.000000,0.000000,0.000000;
#CREDIT:;
#NOTES:
0000
0000
0000
0000
,
0000
0000
0000
0000
,
0000
0000
0000
0000
,
0000
0000
0000
0000
,
0010
0000
0000
1000
,
0000
0000
0001
0000
,
0001
0000
0000
0010
,
0000
0000
0100
0000
,
1000
1000
0000
0000
,
0100
0000
0000
0010
,
0000
0001
0000
0000
,
0100
0000
0000
0000
,
0001
0000
0000
0001
,
0000
0000
0000
0000
,
1000
0000
0000
1000
,
0000
0000
0000
0000
,
0100
0000
0000
0100
,
0000
0000
0000
0000
,
0010
0000
0000
0010
,
0000
0000
0000
0000
,
0100
0000
0000
0100
,
0000
0000
0000
0000
,
0001
0000
0000
0001
,
0000
0000
0000
0000
,
0010
0000
0000
0010
,
0000
0000
0000
0000
,
0100
0000
0000
0100
,
0000
0000
0000
0000
,
1000
0000
0000
0010
,
0000
0000
0100
0000
,
0100
0000
0000
0001
,
0000
0000
0001
0000
,
0010
0000
0000
0010
,
0000
0000
0100
0000
,
0100
0000
0000
1000
,
0000
0000
0010
0000
,
0100
0000
0100
0000
,
0001
0000
0001
0000
,
0010
0000
0010
0000
,
0100
0000
0100
0000
,
1000
0000
0001
0000
,
0100
0000
0000
0000
,
0001
0000
0010
0000
,
0100
0000
1000
0000
,
1000
0000
0100
0000
,
0010
0000
0000
0000
,
0001
0000
1000
0000
,
0010
0000
0100
0000
,
0001
0000
0001
0000
,
1000
0000
1000
0000
,
0100
0000
0100
0000
,
0010
0000
0010
0000
,
0001
0000
0001
0000
,
1000
0000
1000
0000
,
0010
0000
0010
0000
,
0100
0000
0100
0000
,
0001
0000
0000
0000
;
