#VERSION:0.83;
#TITLE:Bamboo Boogaloo II;
#SUBTITLE:(Bamboo Creek Future);
#ARTIST:Rainbowdragoneyes;
#TITLETRANSLIT:;
#SUBTITLETRANSLIT:;
#ARTISTTRANSLIT:;
#GENRE:The Messenger;
#ORIGIN:;
#CREDIT:[Ness];
#BANNER:The Messenger - Bamboo Boogaloo II (Bamboo Creek Future).png;
#BACKGROUND:The Messenger - Bamboo Boogaloo II (Bamboo Creek Future)-bg.png;
#PREVIEWVID:;
#JACKET:The Messenger - Bamboo Boogaloo II (Bamboo Creek Future)-jacket.png;
#CDIMAGE:;
#DISCIMAGE:;
#LYRICSPATH:;
#CDTITLE:;
#MUSIC:The Messenger - Bamboo Boogaloo II (Bamboo Creek Future).mp3;
#OFFSET:-0.015000;
#SAMPLESTART:21.360271;
#SAMPLELENGTH:21.333332;
#SELECTABLE:YES;
#BPMS:0.000=180.000;
#STOPS:;
#DELAYS:;
#WARPS:;
#TIMESIGNATURES:0.000=4=4;
#TICKCOUNTS:0.000=2;
#COMBOS:0.000=1;
#SPEEDS:0.000=1.000=0.000=0;
#SCROLLS:0.000=1.000;
#FAKES:;
#LABELS:0.000=Song Start;
#LASTSECONDHINT:109.380272;
#BGCHANGES:;
#KEYSOUNDS:;
#ATTACKS:
;

//---------------dance-single - ----------------
#NOTEDATA:;
#CHARTNAME:;
#STEPSTYPE:dance-single;
#DESCRIPTION:;
#CHARTSTYLE:;
#DIFFICULTY:Challenge;
#METER:10;
#RADARVALUES:0.721662,0.892515,0.339155,0.232054,0.200816,566.000000,528.000000,38.000000,26.000000,4.000000,0.000000,0.000000,0.000000,0.000000,0.721662,0.892515,0.339155,0.232054,0.200816,566.000000,528.000000,38.000000,26.000000,4.000000,0.000000,0.000000,0.000000,0.000000;
#CREDIT:;
#NOTES:
0000
0000
0000
0000
,
0000
0000
0000
0000
,
0000
0000
0000
0000
,
0000
0000
0000
0000
,
0000
0000
0000
0000
,
0000
0000
0000
0000
,
0000
0000
0000
0000
,
0000
0000
0000
0000
,
0011
0000
1001
0000
2000
0100
3100
0000
,
0010
0001
1000
0010
0200
0001
0301
0000
,
1000
0010
1000
0001
0100
0010
0100
1000
,
0100
0001
0010
0100
2000
0100
3100
0000
,
1010
0000
0110
0000
0002
1000
1003
0000
,
0010
0100
0001
1000
0100
0010
0100
0001
,
0010
0001
1000
0001
0100
0010
0100
1000
,
1000
0000
0001
0000
0100
0000
0010
0000
2000
0000
0100
0000
3100
0010
0001
0100
,
0010
0000
1001
0000
0002
0100
0103
0000
,
0010
1000
0001
0010
0200
1000
1300
0000
,
0010
1000
0001
1000
0100
0010
0001
0100
,
0010
0000
0100
0000
0001
0000
1000
0000
0002
0000
0100
0000
0103
0001
0100
0001
,
0010
0000
1010
0000
0020
0100
0130
0000
,
0010
1000
0100
1000
0001
0010
1000
0010
,
0001
0100
0001
0010
1000
0010
0001
0100
,
0010
0000
1000
0000
0001
0000
0010
0000
0100
1000
0100
1000
0100
0000
0000
0000
,
0010
0000
0001
1000
0100
0000
1000
0000
0001
0000
0100
0010
1000
0000
0001
0000
,
0010
0000
0100
0010
0001
0000
1000
0000
0200
0000
0010
0000
0310
0000
0001
0000
,
1000
0000
0001
1000
0010
0000
0100
0000
0010
0000
1000
0100
0010
0000
0001
0000
,
1000
0000
0001
0100
0010
0000
1000
0000
0002
0000
0100
0000
0103
0000
0000
0000
,
0010
0000
1000
0100
1000
0000
0001
0000
0010
0000
0100
1000
0010
0000
0100
0000
,
0001
0000
1000
0010
0100
0000
0001
0000
0010
0000
0100
0010
0001
0000
1000
0000
,
0100
0000
0010
0100
1000
0000
0001
0000
1000
0000
0010
0100
0001
0000
1000
0000
,
0100
0000
0010
0001
1000
0000
0001
0000
0200
0000
0010
0000
0310
0000
0000
0000
,
0100
1001
0100
1001
,
0100
0001
0010
0100
0001
1000
0100
0001
,
0010
0011
1000
1100
,
0001
1000
0100
1000
0001
0000
1001
0000
,
1000
0110
0001
0110
,
0010
1000
0100
0010
0001
1000
0100
0000
,
0220
0330
1001
0110
,
1000
0001
0100
0010
1000
0000
0000
0000
,
0000
0001
0100
0010
1000
0010
0100
0001
,
0000
1000
0010
0100
0000
0001
0101
0010
,
0000
0000
0001
0000
1000
0000
0010
0100
0001
0000
1000
0000
0100
0000
1001
0000
,
0000
0000
1010
0000
0000
0000
1001
0000
0000
0000
1100
0000
0000
0000
0010
0100
,
1000
0010
0001
0010
1000
0010
0001
0010
,
0002
2003
3001
0101
,
0010
1000
0001
0000
0001
1000
0100
0000
,
0201
1300
0021
1030
,
1000
0100
0010
0001
1000
0001
0200
0000
,
0001
0000
0010
0000
0310
0001
1000
0100
,
0001
0001
0100
0000
0110
0000
0100
0000
,
1100
0000
1000
0010
0100
0001
0010
0100
,
1000
0000
1000
0100
0001
0100
2000
0000
,
0000
0000
3001
0000
0100
1000
0001
1000
,
0010
0010
0100
0000
0101
0000
1010
0000
,
1100
0000
0000
0000
0101
0000
0000
0000
0010
0000
0010
0000
0100
0000
0100
1000
,
0001
1000
0010
1000
0100
0010
0002
0000
,
0103
0000
0001
0000
1000
0000
0000
0000
0100
1000
0000
0000
0001
0100
0000
0000
,
0201
0000
0310
0000
0001
1000
0010
0000
,
1000
0100
0010
0001
0100
0010
0100
0001
,
1000
0100
0001
0100
0010
0001
0101
0000
,
0001
0000
1100
0000
1001
0001
1000
0010
,
0100
0220
0000
0330
0001
2002
0000
3003
,
0100
1000
0010
1000
0100
0001
0100
1000
,
0100
0000
0010
0000
0100
1000
0100
0000
0010
0000
0001
0000
1000
0000
0010
0000
,
0100
0000
0001
0000
0010
0000
0100
0000
1000
0001
1000
0100
0010
0001
0100
0010
,
1000
0001
0010
0100
0100
1000
0001
0100
,
0010
0000
0100
0000
1000
0000
0100
0000
0001
0100
0001
1000
0010
0000
0100
0000
,
1001
0000
0001
0000
1000
0100
1000
0100
1000
0000
0001
0000
0001
0000
0010
0000
,
0100
0000
1000
0000
0001
0000
0100
0000
0001
1000
0001
1000
0010
0100
0010
0100
,
0010
1000
0100
0001
0100
1000
0010
0100
,
0001
0010
0100
1000
0100
0010
0001
1000
0010
0100
0001
0100
0010
1000
0010
0100
,
0001
0100
0001
0001
0100
1000
0100
0001
,
1000
1000
0010
0100
0001
1000
0100
0100
,
0010
0001
1000
1000
0100
0100
0010
0010
,
0001
0001
1000
0100
0010
0001
1000
0100
,
1000
0001
0100
0100
0010
1000
0001
1000
,
0010
0010
0100
0001
0010
0100
1000
0001
,
0100
0010
1000
1000
0100
0100
0001
0001
,
0100
1000
0100
0010
0000
0000
MMMM
0000
,
1001
0000
0000
0000
;

//---------------dance-single - ----------------
#NOTEDATA:;
#CHARTNAME:;
#STEPSTYPE:dance-single;
#DESCRIPTION:;
#CHARTSTYLE:;
#DIFFICULTY:Hard;
#METER:9;
#RADARVALUES:0.613285,0.642610,0.223129,0.205278,0.008925,481.000000,456.000000,25.000000,23.000000,4.000000,0.000000,0.000000,0.000000,0.000000,0.613285,0.642610,0.223129,0.205278,0.008925,481.000000,456.000000,25.000000,23.000000,4.000000,0.000000,0.000000,0.000000,0.000000;
#CREDIT:;
#DISPLAYBPM:0.000000;
#NOTES:
0000
0000
0000
0000
,
0000
0000
0000
0000
,
0000
0000
0000
0000
,
0000
0000
0000
0000
,
0000
0000
0000
0000
,
0000
0000
0000
0000
,
0000
0000
0000
0000
,
0000
0000
0000
0000
,
0010
0000
0010
0000
1000
0001
0100
0000
,
0010
0100
0010
0100
0001
1000
0100
0000
,
0001
0010
1000
0010
0100
1000
0100
1000
,
0001
0010
0100
1000
0010
0100
0001
0000
,
1000
0000
1000
0000
0001
0100
0001
0000
,
1000
0010
0100
0001
0010
0100
1000
0001
,
0010
0001
1000
0001
1000
0100
0010
0001
,
1000
0001
0100
0010
1000
0001
1000
0000
,
1001
0000
0010
0000
0001
0100
0001
0000
,
1000
0100
0010
0100
1000
0001
0100
0000
,
0010
1000
0100
1000
0001
0100
0010
0100
,
0001
1000
0010
0100
0001
1000
0001
0000
,
0010
0000
0010
0000
0100
1000
0001
0000
,
0010
0001
1000
0001
1000
0010
0100
0001
,
0010
0100
1000
0100
0010
0001
0100
0010
,
1000
0001
1000
0010
0100
0001
0100
0000
,
1001
0000
0010
0000
1000
0100
1000
0000
,
0010
0100
0010
0100
0001
1000
0100
0000
,
0010
0001
0100
0001
1000
0100
0010
0001
,
0100
0001
1000
0001
0010
0100
1000
0000
,
0010
0000
0010
0000
1000
0001
1000
0000
,
0010
0100
0001
1000
0100
0010
0100
0010
,
0001
0010
0001
0010
0100
1000
0100
1000
,
0001
0100
0010
1000
0100
0010
0100
0000
,
0020
0031
0200
1300
,
0001
1000
0010
0000
0100
0001
1000
0000
,
0020
0130
0002
1003
,
0001
1000
0100
1000
0001
0000
1001
0000
,
2000
3010
0002
0103
,
0010
1000
0100
0000
0001
1000
0100
0000
,
2002
3003
0110
0110
,
0001
1000
0010
0100
0001
0000
0000
0000
,
0000
1000
0100
0001
0100
0010
1000
0100
,
0000
1000
0001
2000
0000
0001
3001
0010
,
0000
0100
0001
0010
0100
1000
0100
0010
,
0000
0000
1100
0000
0000
0000
0101
0000
0000
0000
0110
0000
0000
0000
0010
0100
,
0010
0100
0001
1000
0010
0001
1000
0100
,
0002
0000
0023
0000
0130
1000
0001
0010
,
0100
0100
0100
0000
0010
0010
0010
0000
,
0220
0330
2002
3003
,
1000
0100
0010
0001
1000
0100
1100
0000
,
0001
0000
0100
0000
0010
0100
0010
0000
,
1000
0001
0100
0000
0110
0000
0100
0000
,
1001
0000
1000
0010
1000
0001
0010
0100
,
0110
0000
0001
0100
0010
0100
0002
0000
,
0000
0000
1003
0000
0100
0010
0100
0010
,
0001
1000
0001
0000
0200
0000
0320
0000
,
1030
0000
1001
0000
0010
0100
0010
0100
,
0001
1000
0010
1000
0100
0010
0002
0000
,
0103
0010
1010
0101
,
1001
0000
0010
0000
0001
0100
0001
0000
,
1000
0100
1000
0001
0100
0000
0110
0000
,
1000
0100
1000
0100
0010
0000
1001
0000
,
0001
0000
1100
0000
1000
0001
1000
0010
,
2000
0002
0000
3003
0200
0020
0000
0330
,
0100
0000
0001
0000
0010
0000
0100
1000
0100
0000
0100
0000
0100
0000
0100
0000
,
1001
0000
1000
0100
1000
0001
0100
0100
,
0001
0010
0100
1000
0010
0010
0100
0100
,
0001
1000
0001
0010
0100
1000
0001
0010
,
0100
1000
0001
1000
0001
0001
0100
0010
,
1000
0100
0010
0010
0001
1000
0100
0000
,
0010
0001
1000
0001
0010
0010
0100
0100
,
1000
0010
0100
0001
0100
0010
1000
0001
,
0100
0100
0010
0010
1000
1000
0001
0001
,
1001
0000
0001
0100
0001
1000
0100
0000
,
1000
0010
0100
0001
0010
0000
0100
1000
,
0001
0000
1000
0010
0100
0001
1000
0010
,
0100
0001
1000
0001
1000
0001
0100
0000
,
0010
0000
1000
0100
1000
0001
0100
0000
,
0010
1000
0001
1000
0010
0000
0100
0000
,
0001
0010
0100
1000
0100
0010
0001
0000
,
1000
0001
1000
0001
0000
0000
MMMM
0000
,
1001
0000
0000
0000
;

//---------------dance-single - ----------------
#NOTEDATA:;
#CHARTNAME:;
#STEPSTYPE:dance-single;
#DESCRIPTION:;
#CHARTSTYLE:;
#DIFFICULTY:Medium;
#METER:6;
#RADARVALUES:0.464108,0.571209,0.240979,0.151727,0.000000,364.000000,337.000000,27.000000,17.000000,4.000000,0.000000,0.000000,0.000000,0.000000,0.464108,0.571209,0.240979,0.151727,0.000000,364.000000,337.000000,27.000000,17.000000,4.000000,0.000000,0.000000,0.000000,0.000000;
#CREDIT:;
#DISPLAYBPM:0.000000;
#NOTES:
0000
0000
0000
0000
,
0000
0000
0000
0000
,
0000
0000
0000
0000
,
0000
0000
0000
0000
,
0000
0000
0000
0000
,
0000
0000
0000
0000
,
0000
0000
0000
0000
,
0000
0000
0000
0000
,
1000
0000
1000
0000
0001
0100
0001
0000
,
1000
0010
1000
0000
0100
0000
0110
0000
,
0010
0001
0010
0000
0100
0000
1000
0000
,
0001
0100
1000
0000
0010
0000
0110
0000
,
1000
0000
0001
0000
1000
0010
1000
0000
,
0001
0100
0001
0000
0010
0000
0110
0000
,
0010
0001
0010
0000
0100
0000
1000
0000
,
0001
1000
0100
0000
0010
0000
0110
0000
,
1000
0000
0100
0000
0001
1000
0001
0000
,
0010
0001
0010
0000
0100
0000
1001
0000
,
0001
0100
0001
0000
1000
0000
0010
0000
,
0100
0001
0010
0000
1000
0000
1100
0000
,
0001
0000
0010
0000
0100
0010
0100
0000
,
0010
0001
0010
0000
0001
0000
1001
0000
,
0001
0100
0001
0000
1000
0000
0010
0000
,
0100
0001
1000
0000
0010
0000
1001
0000
,
0100
0000
1000
0000
0001
1000
0001
0000
,
0010
0001
1000
0010
0100
0000
0110
0000
,
0010
1000
0010
0000
0100
0000
0001
0000
,
0010
0001
1000
0001
0010
0000
0110
0000
,
1000
0000
1000
0000
0001
0100
0001
0000
,
1000
0010
1000
0001
0100
0000
0110
0000
,
0100
1000
0100
0010
0001
0000
1001
0000
,
0001
1000
0001
0100
0010
0000
0110
0000
,
1002
2003
3002
2003
,
3010
0100
0001
0010
,
0002
2003
3002
0023
,
0130
1000
0001
0000
,
2000
3200
0320
0032
,
1003
0001
0100
0010
,
1000
0100
0001
0100
,
0010
0010
0110
0110
,
0000
1000
0000
0100
0000
1000
0000
0001
,
0000
0010
0100
1000
0000
0000
0000
0000
,
0001
0000
0100
0000
0010
1000
0100
0001
,
0000
0001
0000
1000
0000
1000
0000
0000
,
0001
0000
0100
0000
0001
0100
0001
0000
,
1000
0000
0010
0000
1000
0100
1000
0000
,
0102
0013
2100
3010
,
1001
0100
0110
0100
,
0001
1000
0001
1000
0010
0100
0020
0000
,
0000
0030
1001
0000
,
1000
0100
0001
0001
,
1000
0000
0010
1000
0100
1000
0100
0000
,
2200
0000
3300
1001
,
0000
0000
0001
0010
,
0001
0100
0010
1000
,
0100
0100
0010
0000
,
0001
0000
1000
0000
0001
0100
0001
0000
,
1000
0010
1000
0100
,
0010
0000
0100
0000
1000
0100
1000
0000
,
0001
0010
0001
1000
,
0010
0000
0100
0000
0010
1000
0010
0000
,
1000
0100
0001
0100
,
1000
1000
0000
0000
0001
0001
0000
0000
,
0100
0010
0000
0000
0110
0000
0110
0000
,
0001
0000
0001
1000
0010
0000
1000
0000
,
0010
0000
0001
0000
0001
0100
0001
0000
,
1000
0100
0001
0100
,
1000
0000
0010
0000
0100
0001
0010
0000
,
0001
0000
1000
0100
0010
0000
1000
0000
,
0010
0000
0001
0000
0100
0010
1000
0001
,
0010
0100
1000
0100
,
0010
0001
1000
0001
1000
0001
0100
0000
,
1001
0000
0001
0100
0001
0000
0010
0000
,
0100
1000
0100
0000
1000
0000
0001
1000
,
0001
0000
1000
0010
1000
0000
0010
0100
,
0010
0100
0001
1000
,
0100
0000
0010
0001
0010
0000
0100
0000
,
1000
0100
1000
0000
0001
0000
0100
0000
,
0010
0000
1000
0010
1000
0000
0001
0010
,
0001
1000
0001
1000
0000
0000
MMMM
0000
,
1001
0000
0000
0000
;

//---------------dance-single - ----------------
#NOTEDATA:;
#CHARTNAME:;
#STEPSTYPE:dance-single;
#DESCRIPTION:;
#CHARTSTYLE:;
#DIFFICULTY:Easy;
#METER:4;
#RADARVALUES:0.323855,0.321305,0.116027,0.071401,0.000000,254.000000,241.000000,13.000000,8.000000,0.000000,0.000000,0.000000,0.000000,0.000000,0.323855,0.321305,0.116027,0.071401,0.000000,254.000000,241.000000,13.000000,8.000000,0.000000,0.000000,0.000000,0.000000,0.000000;
#CREDIT:;
#DISPLAYBPM:0.000000;
#NOTES:
0000
0000
0000
0000
,
0000
0000
0000
0000
,
0000
0000
0000
0000
,
0000
0000
0000
0000
,
0000
0000
0000
0000
,
0000
0000
0000
0000
,
0000
0000
0000
0000
,
0000
0000
0000
0000
,
0100
0100
0010
0010
,
1000
0001
0100
0100
,
0001
1000
0010
0100
,
0001
1000
0100
0100
,
0001
0010
0001
0001
,
1000
0100
1000
0100
,
0010
0100
1000
0100
,
0010
0001
0100
0100
,
0001
0001
1000
1000
,
0010
0100
0001
0001
,
1000
0010
1000
0100
,
0010
0100
0010
0010
,
0001
0001
1000
1000
,
0001
0100
1000
0100
,
0010
0100
0010
0100
,
0001
1000
0100
0100
,
1000
1000
0001
0001
,
0100
1000
0100
0001
,
1000
0010
1000
0100
,
0010
0001
0100
0100
,
0001
0001
1000
1000
,
0001
0100
1000
0100
,
0010
1000
0100
0010
,
0001
1000
0100
0100
,
0001
0001
1000
1000
,
0100
1000
0100
1000
,
0010
0100
0010
0100
,
1000
0010
1000
0000
,
0001
0100
0010
0010
,
0001
1000
0100
0000
,
0110
0000
1001
0000
,
0100
0010
0001
0000
,
0000
0010
0010
1000
,
0100
1000
0010
0000
,
0000
0100
0001
0100
,
0010
0010
0100
0100
,
0000
0010
1000
0001
,
0100
0001
0100
1000
,
0200
0300
0020
0030
,
0002
0003
2000
3000
,
0100
0000
0000
2002
,
0000
3003
1000
0000
,
0010
0000
0010
1000
,
0001
0100
0001
0000
,
0100
0000
0001
1000
,
0000
0001
0010
0100
,
1000
0000
0001
0000
,
0100
0000
0010
0000
,
0100
0100
0000
0010
,
0000
1000
0000
0001
,
0100
0010
1000
0100
,
0010
0001
0100
0000
,
0010
0010
1000
0001
,
0000
1000
0000
0010
,
0200
0300
0020
0030
,
1000
0001
1001
0000
,
1000
0100
1000
0000
,
1001
0000
0110
0000
,
0100
0001
0010
0000
,
0110
0000
1001
0000
,
0001
1000
0100
0000
,
1001
0000
0110
0000
,
0010
0001
0100
0000
,
0110
0000
1001
0000
,
1000
0001
0100
0100
,
0010
1000
0010
0010
,
0100
0001
0010
0100
,
1000
0001
1000
0010
,
0100
0100
0001
0001
,
0010
0010
1000
1000
,
0001
0001
1000
1000
,
0100
0001
0100
0000
,
1001
0000
0000
0000
;

//---------------dance-single - ----------------
#NOTEDATA:;
#CHARTNAME:;
#STEPSTYPE:dance-single;
#DESCRIPTION:;
#CHARTSTYLE:;
#DIFFICULTY:Beginner;
#METER:2;
#RADARVALUES:0.156828,0.178503,0.000000,0.000000,0.000000,123.000000,123.000000,0.000000,0.000000,0.000000,0.000000,0.000000,0.000000,0.000000,0.156828,0.178503,0.000000,0.000000,0.000000,123.000000,123.000000,0.000000,0.000000,0.000000,0.000000,0.000000,0.000000,0.000000;
#CREDIT:;
#DISPLAYBPM:0.000000;
#NOTES:
// measure 0
0000
0000
0000
0000
,  // measure 1
0000
0000
0000
0000
,  // measure 2
0000
0000
0000
0000
,  // measure 3
0000
0000
0000
0000
,  // measure 4
0000
0000
0000
0000
,  // measure 5
0000
0000
0000
0000
,  // measure 6
0000
0000
0000
0000
,  // measure 7
0000
0000
0000
0000
,  // measure 8
0001
0000
1000
0000
,  // measure 9
0010
0000
0010
0000
,  // measure 10
0100
0000
0001
0000
,  // measure 11
0010
0000
0100
0000
,  // measure 12
1000
0000
1000
0000
,  // measure 13
0100
0000
0010
0000
,  // measure 14
0100
0000
0010
0000
,  // measure 15
0001
0000
1000
0000
,  // measure 16
0001
0000
0010
0000
,  // measure 17
1000
0000
1000
0000
,  // measure 18
0010
0000
0010
0000
,  // measure 19
0100
0000
0100
0000
,  // measure 20
0001
0000
0010
0000
,  // measure 21
0100
0000
1000
0000
,  // measure 22
0001
0000
1000
0000
,  // measure 23
0001
0000
1000
0000
,  // measure 24
0010
0000
0010
0000
,  // measure 25
0100
0000
0100
0000
,  // measure 26
0001
0000
0100
0000
,  // measure 27
0010
0000
1000
0000
,  // measure 28
0100
0000
0010
0000
,  // measure 29
0001
0000
1000
0000
,  // measure 30
0100
0000
1000
0000
,  // measure 31
0001
0000
0010
0000
,  // measure 32
0001
0000
0000
0000
,  // measure 33
1000
0000
0000
0000
,  // measure 34
0010
0000
0010
0000
,  // measure 35
0010
0000
0010
0000
,  // measure 36
0100
0000
0000
0000
,  // measure 37
0001
0000
0000
0000
,  // measure 38
1000
0000
1000
0000
,  // measure 39
1000
0000
1000
0000
,  // measure 40
0100
0000
0000
0000
,  // measure 41
0010
0000
0000
0000
,  // measure 42
0001
0000
0000
0000
,  // measure 43
1000
0000
0000
0000
,  // measure 44
0010
0000
0010
0000
,  // measure 45
0100
0000
0100
0000
,  // measure 46
0001
0000
0000
0000
,  // measure 47
0010
0000
0000
0000
,  // measure 48
0100
0000
0000
0100
,  // measure 49
0000
0000
1000
0000
,  // measure 50
0001
0000
0000
0000
,  // measure 51
0000
0000
0000
0000
,  // measure 52
1000
0000
0000
0010
,  // measure 53
0000
0000
0100
0000
,  // measure 54
0001
0000
0000
0001
,  // measure 55
0000
0000
0010
0000
,  // measure 56
0010
0000
0000
0000
,  // measure 57
0100
0000
0000
0000
,  // measure 58
1000
0000
0001
0000
,  // measure 59
1000
0000
0001
0000
,  // measure 60
0010
0000
0000
0000
,  // measure 61
0010
0000
0000
0000
,  // measure 62
0100
0000
0100
0000
,  // measure 63
0100
0000
0000
0000
,  // measure 64
1000
0000
1000
0000
,  // measure 65
0001
0000
0001
0000
,  // measure 66
0100
0000
0010
0000
,  // measure 67
0100
0000
0100
0000
,  // measure 68
0001
0000
1000
0000
,  // measure 69
0001
0000
1000
0000
,  // measure 70
0010
0000
0010
0000
,  // measure 71
0100
0000
0000
0000
,  // measure 72
0001
0000
0001
0000
,  // measure 73
0010
0000
0010
0000
,  // measure 74
1000
0000
1000
0000
,  // measure 75
0100
0000
0100
0000
,  // measure 76
0001
0000
0001
0000
,  // measure 77
0010
0000
0010
0000
,  // measure 78
1000
0000
1000
0000
,  // measure 79
0100
0000
0100
0000
,  // measure 80
0100
0000
0000
0000
;
