#TITLE:Bamboo Boogaloo;
#SUBTITLE:(Bamboo Creek Past);
#ARTIST:Rainbowdragoneyes;
#TITLETRANSLIT:;
#SUBTITLETRANSLIT:;
#ARTISTTRANSLIT:;
#GENRE:The Messenger;
#CREDIT:[Ness];
#BANNER:The Messenger - Bamboo Boogaloo (Bamboo Creek Past).png;
#BACKGROUND:The Messenger - Bamboo Boogaloo (Bamboo Creek Past)-bg.png;
#LYRICSPATH:;
#CDTITLE:;
#MUSIC:The Messenger - Bamboo Boogaloo (Bamboo Creek Past).mp3;
#OFFSET:-0.015000;
#SAMPLESTART:21.360271;
#SAMPLELENGTH:21.333332;
#LASTBEATHINT:328.000000;
#SELECTABLE:YES;
#BPMS:0.000000=180.000000
;
#STOPS:
;
#BGCHANGES:;
#KEYSOUNDS:;
#ATTACKS:;

//---------------dance-single - ----------------
#NOTES:
     dance-single:
     :
     Challenge:
     9:
     0.636235,0.642610,0.517658,0.267754,0.008925,499.000000,441.000000,58.000000,30.000000,0.000000,0.000000,0.636235,0.642610,0.517658,0.267754,0.008925,499.000000,441.000000,58.000000,30.000000,0.000000,0.000000:
0000
0000
0000
0000
,
0000
0000
0000
0000
,
0000
0000
0000
0000
,
0000
0000
0000
0000
,
0000
0000
0000
0000
,
0000
0000
0000
0000
,
0000
0000
0000
0000
,
0000
0000
0000
0000
,
0011
0000
1001
0000
2000
0100
3100
0000
,
0010
0001
1000
0010
0200
0001
0301
0000
,
1000
0010
1000
0001
0100
0000
0110
0000
,
1000
0001
1000
0010
0200
0001
0301
0000
,
0010
0000
0010
0000
0002
1000
1003
0000
,
0010
0100
0001
1000
0100
0010
0100
0000
,
0010
0001
1000
0001
0100
0010
0100
0010
,
1000
0001
0100
0010
2000
0100
3100
0000
,
0101
0000
1001
0000
0002
0100
0103
0000
,
0010
1000
0001
0010
0200
1000
1300
0000
,
0010
1000
0001
1000
0100
0010
0001
0100
,
0010
0100
0001
1000
0002
0100
0103
0000
,
0010
0000
0010
0000
0200
1000
1300
0000
,
0001
0100
0010
1000
0001
0100
0001
0100
,
0010
1000
0001
0010
0001
1000
0100
0010
,
0001
1000
0001
0010
0200
1000
1300
0000
,
1010
0000
1001
0000
0002
0100
0103
0000
,
0010
1000
0001
0010
0200
1000
1300
0000
,
0001
0010
0001
1000
0100
1000
0100
0010
,
0001
1000
0001
0010
0200
1000
1300
0000
,
0010
0000
0010
0000
2000
0001
3001
0000
,
0010
0100
1000
0001
0100
0010
0100
0010
,
1000
0010
1000
0001
0100
0001
1000
0010
,
1000
0001
0100
0010
2000
0100
3100
0000
,
0010
1001
0100
1001
,
0100
0001
0010
0000
0001
1000
0100
0000
,
0010
0011
1000
1100
,
0001
1000
0100
1000
0001
0000
1001
0000
,
1000
0110
0001
0110
,
0010
1000
0100
0000
0001
1000
0100
0000
,
0220
0330
1001
0110
,
1000
0001
0100
0010
1000
0000
0000
0000
,
0000
0001
0100
0010
1000
0010
0100
0001
,
0000
1000
0010
0100
0000
0000
0101
0000
,
0000
0001
1000
0010
0100
0001
1000
1001
,
0000
1010
0000
1001
0000
2200
0000
3300
,
0000
0010
0001
0010
1000
0010
0001
0010
,
0002
2003
3001
0101
,
0010
1000
0001
0000
0001
1000
0100
0000
,
1200
1300
0021
0031
,
1000
0100
0010
0001
1000
0000
1001
0000
,
0001
0000
0010
0000
0010
0001
1000
0000
,
0001
0001
0100
0000
0110
0000
0100
0000
,
1100
0000
1000
0010
0100
0001
0010
0100
,
1000
0000
1000
0100
0001
0100
2000
0000
,
0000
0000
3001
0000
0100
1000
0001
1000
,
0010
0010
0100
0000
0101
0000
1010
0000
,
1100
0000
0101
0000
0010
0010
0100
0100
,
1001
0000
0010
1000
0100
0010
0002
0000
,
0103
0000
0001
0000
1000
0000
0000
0000
0100
1000
0000
0000
0001
0100
0000
0000
,
0201
0000
0310
0000
0001
1000
0010
0000
,
1000
0100
0010
0001
0100
0010
0100
0001
,
1000
0100
1000
0100
0010
0001
0101
0000
,
0001
0000
1100
0000
1000
0001
1000
0010
,
0100
0000
0110
0000
0001
0001
1000
0000
,
0100
1000
0010
1000
0100
0001
0100
1000
,
0100
0110
0100
0000
1001
0000
0010
1100
,
0000
0101
0000
0010
1100
0000
0000
0000
,
0010
1001
0010
0000
0101
0000
0010
0100
,
2100
3010
0012
1003
,
1001
0001
1000
0000
1001
0000
1000
1010
,
0000
0011
0001
0000
1001
0000
0100
0010
,
1010
1000
0100
0000
1100
0000
1000
0001
,
0021
0130
1020
0130
,
1001
0100
0001
0001
0100
1000
0100
0001
,
1000
1000
0010
0100
0001
1000
0100
0100
,
0010
0001
1000
1000
0100
0100
0010
0010
,
0001
0001
1000
0100
0010
0001
1000
0100
,
1000
0001
0100
0100
0010
1000
0001
1000
,
0010
0010
0100
0001
0010
0100
1000
0001
,
0100
0010
1000
1000
0100
0100
0001
0001
,
0100
1000
0100
0010
0000
0101
0000
0000
,
1001
0000
0000
0000
;

//---------------dance-single - ----------------
#NOTES:
     dance-single:
     :
     Hard:
     8:
     0.567384,0.606910,0.357006,0.249904,0.000000,445.000000,405.000000,40.000000,28.000000,0.000000,0.000000,0.567384,0.606910,0.357006,0.249904,0.000000,445.000000,405.000000,40.000000,28.000000,0.000000,0.000000:
// measure 0
0000
0000
0000
0000
,  // measure 1
0000
0000
0000
0000
,  // measure 2
0000
0000
0000
0000
,  // measure 3
0000
0000
0000
0000
,  // measure 4
0000
0000
0000
0000
,  // measure 5
0000
0000
0000
0000
,  // measure 6
0000
0000
0000
0000
,  // measure 7
0000
0000
0000
0000
,  // measure 8
0010
0000
0010
0000
1000
0001
1000
0000
,  // measure 9
0010
0100
0010
0100
0001
1000
0001
0000
,  // measure 10
0001
0010
0001
0010
0100
0000
0110
0000
,  // measure 11
1000
0010
1000
0010
0100
0001
0100
0000
,  // measure 12
0010
0000
0010
0000
1000
0001
1000
0000
,  // measure 13
0010
0100
0001
1000
0100
0010
0100
0000
,  // measure 14
0010
0001
0010
0001
1000
0100
1000
0100
,  // measure 15
1000
0001
0100
0010
1000
0001
1000
0000
,  // measure 16
1001
0000
0010
0000
0001
0100
0001
0000
,  // measure 17
1000
0100
1000
0100
1000
0001
1000
0000
,  // measure 18
0010
1000
0010
1000
0001
0100
0001
0100
,  // measure 19
0010
1000
0001
0100
0010
1000
0010
0000
,  // measure 20
0100
0000
0100
0000
0001
1000
0100
0000
,  // measure 21
0010
0001
0010
0001
1000
0100
1000
0100
,  // measure 22
0010
0001
1000
0100
0010
0001
0010
0001
,  // measure 23
1000
0001
1000
0010
0100
0001
0100
0000
,  // measure 24
1001
0000
0010
0000
1000
0100
1000
0000
,  // measure 25
0010
0100
0010
0100
0001
1000
0001
0000
,  // measure 26
0010
0001
0010
0001
1000
0100
1000
0100
,  // measure 27
0010
0001
1000
0001
0010
0100
0010
0000
,  // measure 28
0100
0000
0100
0000
1000
0001
1000
0000
,  // measure 29
0010
0100
0001
1000
0100
0010
0100
0010
,  // measure 30
0001
0010
0001
0010
0100
1000
0100
1000
,  // measure 31
0001
0100
0010
1000
0100
0010
0100
0000
,  // measure 32
0020
0031
0200
1300
,  // measure 33
0001
1000
0010
0000
0100
0001
1000
0000
,  // measure 34
0020
0130
0002
1003
,  // measure 35
0001
1000
0100
1000
0001
0000
1001
0000
,  // measure 36
2000
3010
0002
0103
,  // measure 37
0010
1000
0100
0000
0001
1000
0100
0000
,  // measure 38
2002
3003
0110
0110
,  // measure 39
0001
1000
0010
0100
0010
0000
0000
0000
,  // measure 40
0000
0001
0100
0001
0100
0010
1000
0100
,  // measure 41
0000
1000
0001
2000
0000
0000
3010
0000
,  // measure 42
0000
0100
0001
0010
0100
1000
0100
1000
,  // measure 43
0000
0001
0000
1000
0000
0220
0000
0330
,  // measure 44
0000
0001
0010
0001
1000
0001
1000
0001
,  // measure 45
0200
0320
0130
0110
,  // measure 46
0010
1000
0100
0000
0010
0001
0100
0000
,  // measure 47
0220
0330
2002
3003
,  // measure 48
1000
0100
0010
0001
1000
0000
1100
0000
,  // measure 49
0001
0000
0100
0000
0010
0100
0010
0000
,  // measure 50
1000
0001
0100
0000
0110
0000
0100
0000
,  // measure 51
1001
0000
1000
0010
1000
0001
0010
0000
,  // measure 52
0110
0000
0001
0100
0010
0100
0002
0000
,  // measure 53
0000
0000
1003
0000
0100
0010
0100
0010
,  // measure 54
0001
1000
0001
0000
0200
0000
0320
0000
,  // measure 55
1030
0000
1001
0000
0010
0100
0010
0100
,  // measure 56
0110
0000
0010
1000
0100
0010
0002
0000
,  // measure 57
0103
0010
1010
0101
,  // measure 58
1001
0000
0010
0000
0001
0100
0001
0000
,  // measure 59
1000
0100
1000
0001
0100
0000
0110
0000
,  // measure 60
1000
0100
1000
0100
0010
0000
1001
0000
,  // measure 61
0001
0000
1100
0000
1000
0001
1000
0010
,  // measure 62
2000
0000
3000
0002
0000
0003
1001
0000
,  // measure 63
0100
0000
0010
2000
0000
3001
0010
0000
,  // measure 64
0000
0011
0000
0000
1001
0000
1000
0010
,  // measure 65
0000
1010
0000
0000
0101
0000
0000
0000
,  // measure 66
0000
1010
0000
0000
0101
0000
0010
0100
,  // measure 67
2000
3010
0200
0301
,  // measure 68
0000
1001
0000
0000
0011
0000
1000
1100
,  // measure 69
0000
1001
0000
0000
0101
0000
0000
0000
,  // measure 70
0000
1010
0000
0000
1001
0000
1000
0001
,  // measure 71
0020
0130
2000
3001
,  // measure 72
1001
0000
0001
0100
0001
1000
0100
0000
,  // measure 73
1000
0010
0100
0001
0010
0000
0100
1000
,  // measure 74
0001
0000
1000
0010
0100
0001
1000
0010
,  // measure 75
0100
0001
1000
0001
1000
0001
0100
0000
,  // measure 76
0010
0000
1000
0100
1000
0001
0100
0000
,  // measure 77
0010
1000
0001
1000
0010
0000
0100
0000
,  // measure 78
0001
0010
0100
1000
0100
0010
0001
0000
,  // measure 79
1000
0001
1000
0001
0000
0101
0000
0000
,  // measure 80
1001
0000
0000
0000
;

//---------------dance-single - ----------------
#NOTES:
     dance-single:
     :
     Medium:
     6:
     0.420757,0.499808,0.071401,0.053551,0.000000,330.000000,322.000000,8.000000,6.000000,0.000000,0.000000,0.420757,0.499808,0.071401,0.053551,0.000000,330.000000,322.000000,8.000000,6.000000,0.000000,0.000000:
0000
0000
0000
0000
,
0000
0000
0000
0000
,
0000
0000
0000
0000
,
0000
0000
0000
0000
,
0000
0000
0000
0000
,
0000
0000
0000
0000
,
0000
0000
0000
0000
,
0000
0000
0000
0000
,
1000
0000
1000
0000
0001
0100
0001
0000
,
1000
0010
1000
0000
0100
0000
0100
0000
,
0010
0001
0010
0000
0100
0000
1000
0000
,
0001
0000
1000
0000
0010
0100
0010
0000
,
1000
0000
0001
0000
1000
0010
1000
0000
,
0001
0100
0001
0000
0010
0000
0100
0000
,
0010
0001
0010
0000
0100
0000
1000
0000
,
0001
0000
0100
0000
0010
0100
0010
0000
,
1000
0000
0100
0000
0001
1000
0001
0000
,
0010
0001
0010
0000
0100
0000
1000
0000
,
0001
0100
0001
0000
1000
0000
0010
0000
,
0100
0000
0010
0000
1000
0100
1000
0000
,
0001
0000
0010
0000
0100
0010
0100
0000
,
0010
0001
0010
0000
0001
0000
1000
0000
,
0001
0100
0001
0000
1000
0000
0010
0000
,
0100
0000
0001
0000
0010
0100
0010
0000
,
0100
0000
1000
0000
0001
1000
0001
0000
,
0010
0001
1000
0000
0010
0000
0100
0000
,
0010
1000
0010
0000
0100
0000
0001
0000
,
0010
0001
1000
0000
0010
0100
0010
0000
,
1000
0000
1000
0000
0001
0100
0001
0000
,
1000
0010
1000
0000
0100
0000
0010
0000
,
0100
1000
0100
0000
0010
0001
0100
0000
,
0001
1000
0001
0000
0010
0100
0010
0000
,
0110
1000
0001
1000
,
0010
0100
0001
0010
,
0001
1000
0001
0010
,
0100
1000
0001
0000
,
1000
0100
0001
0010
,
0001
1000
0010
0100
,
0020
0030
2000
3000
,
0001
0010
0110
0000
,
1000
0000
0100
0000
1000
0100
1000
0000
,
0001
0000
0010
0000
0001
0100
0001
0000
,
0010
0000
0100
0000
0010
0100
0010
0000
,
0001
0001
1000
1000
,
0001
0000
0100
0000
0001
0100
0001
0000
,
1000
0000
0010
0000
1000
0100
1000
0000
,
0001
0010
0100
1000
,
0010
0100
0010
1000
,
0001
1000
0010
0000
0100
0000
0220
0000
,
0000
0330
1001
0000
,
1000
0100
0001
0001
,
1000
0010
1000
0100
,
2200
0000
3300
1001
,
0000
0000
0001
0010
,
0001
0100
0010
1000
,
0100
0100
0010
0000
,
0001
0000
1000
0000
0001
0100
0001
0000
,
1000
0010
1000
0100
,
0010
0000
0100
0000
1000
0100
1000
0000
,
0001
0010
0001
1000
,
0010
0000
0100
0000
0010
1000
0010
0000
,
1000
0100
0001
0100
,
1000
1000
0001
0001
,
0100
0010
0100
0000
,
0001
0001
0010
1000
,
0010
0001
0001
0001
,
1000
0100
0001
0100
,
1000
0010
0100
0001
,
0010
0001
0100
1000
,
0010
0001
0100
1000
,
0001
0100
1000
0100
,
0001
1000
0010
0001
,
1001
0000
0001
0100
0001
0000
0010
0000
,
0100
1000
0100
0000
1000
0000
0001
1000
,
0001
0000
1000
0010
1000
0000
0010
0100
,
0010
0100
0001
1000
,
0100
0000
0010
0001
0010
0000
0100
0000
,
1000
0100
1000
0000
0001
0000
0100
0000
,
0010
0000
1000
0010
1000
0000
0001
0010
,
0001
1000
0001
1000
0000
0100
0000
0000
,
1001
0000
0000
0000
;

//---------------dance-single - ----------------
#NOTES:
     dance-single:
     :
     Easy:
     4:
     0.303455,0.321305,0.107102,0.053551,0.000000,238.000000,226.000000,12.000000,6.000000,0.000000,0.000000,0.303455,0.321305,0.107102,0.053551,0.000000,238.000000,226.000000,12.000000,6.000000,0.000000,0.000000:
0000
0000
0000
0000
,
0000
0000
0000
0000
,
0000
0000
0000
0000
,
0000
0000
0000
0000
,
0000
0000
0000
0000
,
0000
0000
0000
0000
,
0000
0000
0000
0000
,
0000
0000
0000
0000
,
1000
1000
0001
0001
,
1000
0100
1000
1000
,
0001
1000
0001
1000
,
0001
1000
0001
0001
,
0100
0001
0100
0100
,
0010
1000
0010
1000
,
0001
1000
0001
1000
,
0001
1000
0100
0100
,
0010
0010
0001
0001
,
1000
0100
1000
0100
,
0010
0001
0010
0001
,
1000
0001
0100
0100
,
0001
0001
1000
1000
,
0010
1000
0010
1000
,
0001
1000
0001
1000
,
0001
1000
0100
0100
,
0010
0010
0100
0100
,
1000
0100
1000
0100
,
0010
0001
0010
0001
,
1000
0001
0100
0100
,
0010
0010
0100
0100
,
0010
1000
0010
1000
,
0001
0010
0001
0010
,
0100
1000
0001
0001
,
0100
0100
0010
0000
,
1000
0010
1000
0000
,
0001
1000
0001
0000
,
0010
0001
0010
0000
,
0100
1000
0001
0000
,
0100
0010
1000
0000
,
1001
0000
0110
0000
,
1000
0001
0100
0000
,
0000
0001
0001
0010
,
1000
0010
0001
0000
,
0000
1000
0100
1000
,
0001
0001
1000
1000
,
0000
0001
0010
0100
,
1000
0100
1000
0100
,
2000
3000
0002
0003
,
0200
0300
0020
0030
,
1000
0000
0000
2002
,
0000
3003
0010
0000
,
0001
0000
0000
0010
,
0000
0100
0000
0000
,
1000
0000
0000
0001
,
0000
0100
0000
0000
,
0010
0000
0000
0100
,
0000
0001
0000
0000
,
1000
1000
0000
0001
,
0000
0010
0000
0100
,
1000
0001
0000
1000
,
0000
0010
0000
0100
,
0001
0010
0000
0100
,
0000
0010
0000
0001
,
1000
1000
0001
0001
,
1000
0001
0100
0000
,
0010
1000
0010
0000
,
1010
0000
0011
0000
,
0010
0001
0010
0000
,
0011
0000
1100
0000
,
0100
1000
0100
0000
,
1100
0000
0101
0000
,
0100
0001
0100
0000
,
0110
0000
1001
0000
,
0010
0010
1000
0000
,
0001
0010
0001
0001
,
0010
0000
0100
0000
,
1000
0100
0010
0001
,
1000
1000
0001
0001
,
1000
0001
1000
0001
,
0100
0010
1000
0001
,
0100
0100
0100
0000
,
1001
0000
0000
0000
;

//---------------dance-single - ----------------
#NOTES:
     dance-single:
     :
     Beginner:
     2:
     0.156828,0.178503,0.000000,0.000000,0.000000,123.000000,123.000000,0.000000,0.000000,0.000000,0.000000,0.156828,0.178503,0.000000,0.000000,0.000000,123.000000,123.000000,0.000000,0.000000,0.000000,0.000000:
0000
0000
0000
0000
,
0000
0000
0000
0000
,
0000
0000
0000
0000
,
0000
0000
0000
0000
,
0000
0000
0000
0000
,
0000
0000
0000
0000
,
0000
0000
0000
0000
,
0000
0000
0000
0000
,
1000
0000
0001
0000
,
0100
0000
0100
0000
,
0010
0000
1000
0000
,
0100
0000
0010
0000
,
0001
0000
0001
0000
,
0010
0000
0100
0000
,
0010
0000
0100
0000
,
1000
0000
0001
0000
,
1000
0000
0100
0000
,
0001
0000
0001
0000
,
0100
0000
0100
0000
,
0010
0000
0010
0000
,
1000
0000
0100
0000
,
0010
0000
0001
0000
,
1000
0000
0001
0000
,
1000
0000
0001
0000
,
0100
0000
0100
0000
,
0010
0000
0010
0000
,
1000
0000
0010
0000
,
0100
0000
0001
0000
,
0010
0000
0100
0000
,
1000
0000
0001
0000
,
0010
0000
0001
0000
,
1000
0000
0100
0000
,
1000
0000
0000
0000
,
0001
0000
0000
0000
,
0100
0000
0100
0000
,
0100
0000
0100
0000
,
0010
0000
0000
0000
,
1000
0000
0000
0000
,
0001
0000
0001
0000
,
0001
0000
0001
0000
,
0010
0000
0000
0000
,
0100
0000
0000
0000
,
1000
0000
0000
0000
,
0001
0000
0000
0000
,
0100
0000
0100
0000
,
0010
0000
0010
0000
,
1000
0000
0000
0000
,
0100
0000
0000
0000
,
0010
0000
0000
0010
,
0000
0000
0001
0000
,
1000
0000
0000
0000
,
0000
0000
0000
0000
,
0001
0000
0000
0100
,
0000
0000
0010
0000
,
1000
0000
0000
1000
,
0000
0000
0100
0000
,
0100
0000
0000
0000
,
0010
0000
0000
0000
,
0001
0000
1000
0000
,
0001
0000
1000
0000
,
0100
0000
0000
0000
,
0100
0000
0000
0000
,
0010
0000
0010
0000
,
0010
0000
0000
0000
,
0001
0000
0001
0000
,
1000
0000
1000
0000
,
0010
0000
0100
0000
,
0010
0000
0010
0000
,
1000
0000
0001
0000
,
1000
0000
0001
0000
,
0100
0000
0100
0000
,
0010
0000
0000
0000
,
1000
0000
1000
0000
,
0100
0000
0100
0000
,
0001
0000
0001
0000
,
0010
0000
0010
0000
,
1000
0000
1000
0000
,
0100
0000
0100
0000
,
0001
0000
0001
0000
,
0010
0000
0010
0000
,
0100
0000
0000
0000
;
