#TITLE:Abomination Beyond Words;
#SUBTITLE:(Corrupted Boss);
#ARTIST:Rainbowdragoneyes;
#TITLETRANSLIT:;
#SUBTITLETRANSLIT:;
#ARTISTTRANSLIT:;
#GENRE:The Messenger;
#CREDIT:[Ness];
#BANNER:The Messenger - Abomination Beyond Words (Corrupted Boss).png;
#BACKGROUND:The Messenger - Abomination Beyond Words (Corrupted Boss)-bg.png;
#LYRICSPATH:;
#CDTITLE:;
#MUSIC:The Messenger - Abomination Beyond Words (Corrupted Boss).mp3;
#OFFSET:-0.024000;
#SAMPLESTART:15.973745;
#SAMPLELENGTH:10.651875;
#LASTBEATHINT:403.979156;
#SELECTABLE:YES;
#BPMS:0.000000=90.125000
,4.000000=180.250000
,12.000000=360.500000
,268.000000=180.250000
,300.000000=90.125000
,308.000000=180.250000
,323.000000=360.500000
;
#STOPS:323.000000=0.166000
;
#BGCHANGES:;
#KEYSOUNDS:;
#ATTACKS:;

//---------------dance-single - ----------------
#NOTES:
     dance-single:
     :
     Challenge:
     13:
     1.169436,1.251363,0.293197,0.211102,0.046911,698.000000,673.000000,25.000000,18.000000,0.000000,0.000000,1.169436,1.251363,0.293197,0.211102,0.046911,698.000000,673.000000,25.000000,18.000000,0.000000,0.000000:
// measure 0
0000
0000
0000
0000
,  // measure 1
0000
0000
0000
0000
,  // measure 2
0000
0000
0000
0000
,  // measure 3
1000
0010
1000
0100
0010
0100
1000
0001
,  // measure 4
1000
0100
0010
0100
1000
0001
0010
0100
,  // measure 5
1000
0010
0100
0001
1000
0001
0100
0010
,  // measure 6
0100
0001
0010
0001
0100
0010
1000
0001
,  // measure 7
0100
0010
1000
0001
1000
0100
1000
0001
,  // measure 8
0100
0010
0100
0001
0010
0001
1000
0001
,  // measure 9
0100
0010
1000
0100
1000
0010
1000
0100
,  // measure 10
0010
0001
1000
0001
0100
0010
1000
0001
,  // measure 11
0100
0010
0100
0001
0010
0001
0100
0010
,  // measure 12
1000
0100
1000
0001
0010
0100
0010
0001
,  // measure 13
1000
0100
0010
0100
1000
0001
0010
0100
,  // measure 14
1000
0010
1000
0001
1000
0100
0010
0001
,  // measure 15
0100
0010
1000
0001
1000
0100
1000
0001
,  // measure 16
0010
0100
1000
0001
0100
0001
1000
0010
,  // measure 17
0100
0001
0100
0000
0100
1000
0100
0000
,  // measure 18
0100
0001
0100
0000
0100
0000
0110
0000
,  // measure 19
1000
0010
1000
0001
1000
0100
1000
0001
,  // measure 20
0010
0001
1000
0001
0100
0001
1000
0000
,  // measure 21
0001
0100
0001
0010
0001
1000
0001
0100
,  // measure 22
0001
0010
0001
0100
0010
0100
0001
0000
,  // measure 23
0010
0001
0010
0100
0010
1000
0010
0100
,  // measure 24
1000
0100
0010
0100
0001
0100
1000
0000
,  // measure 25
0100
0001
0100
0010
0100
1000
0001
0010
,  // measure 26
0100
0010
0001
0010
1000
0010
0001
0000
,  // measure 27
1000
0001
0100
0001
1000
0010
1000
0001
,  // measure 28
1000
0100
0010
0001
1000
0100
1000
0000
,  // measure 29
0001
0010
0001
1000
0100
0010
0001
1000
,  // measure 30
0100
1000
0100
0010
0001
0010
0001
0000
,  // measure 31
1000
0001
0100
0000
0010
0000
1010
0000
,  // measure 32
0000
0000
0011
0000
0000
0000
0001
1000
,  // measure 33
0010
0100
0001
1000
0010
0000
0100
0000
,  // measure 34
0001
1001
1000
1001
,  // measure 35
0010
1000
0001
1000
0100
1000
0001
1000
,  // measure 36
0010
0100
0001
0100
0010
1000
0100
0000
,  // measure 37
0010
0001
1000
0001
0100
0001
1000
0001
,  // measure 38
0010
0100
1000
0100
0010
0001
0100
0000
,  // measure 39
0010
1000
0001
1000
0010
0100
0010
1000
,  // measure 40
0001
1000
0100
1000
0001
0100
0010
0000
,  // measure 41
0100
0001
0010
0001
1000
0001
0100
0010
,  // measure 42
1000
0100
1000
0001
1000
0100
0010
0000
,  // measure 43
0001
0010
0001
0010
1000
0010
1000
0010
,  // measure 44
0001
0010
0001
0010
1000
0010
1000
0010
,  // measure 45
0001
0010
0001
0010
1000
0010
1000
0010
,  // measure 46
0001
0010
0001
0010
1000
0010
1000
0010
,  // measure 47
0002
0203
0320
2030
,  // measure 48
3002
2003
3200
0320
,  // measure 49
0032
0000
1003
0100
0020
0000
0032
0000
,  // measure 50
2003
3002
0203
0320
,  // measure 51
1030
0010
1000
0001
1000
0100
1000
0001
,  // measure 52
0010
0001
0100
0001
1000
0001
0100
0010
,  // measure 53
1000
0001
1000
0010
0100
0010
1000
0001
,  // measure 54
1000
0100
0010
0100
1000
0001
0100
0001
,  // measure 55
1000
0010
1000
0001
0010
0001
1000
0100
,  // measure 56
0010
0100
1000
0001
0010
0100
0010
0001
,  // measure 57
1000
0100
0010
0001
1000
0001
0100
0010
,  // measure 58
1000
0001
1000
0010
1000
0001
0100
0000
,  // measure 59
0010
1000
0100
1000
0010
1000
0100
1000
,  // measure 60
0001
0010
0001
0100
0001
0010
0001
0100
,  // measure 61
0010
1000
0001
1000
0010
1000
0001
1000
,  // measure 62
0010
0100
0001
0100
0010
0100
0001
0000
,  // measure 63
1000
0010
1000
0000
0010
0000
0100
0000
0001
0000
0100
0000
0001
0000
1000
0000
,  // measure 64
0010
0100
0001
1000
0100
1000
0001
0010
,  // measure 65
0001
0010
0001
0000
0010
0001
0010
0000
0001
0000
1000
0000
0100
0000
1000
0000
,  // measure 66
0001
0010
0100
1000
0001
0010
0100
0000
,  // measure 67
2100
0001
0100
0001
,  // measure 68
3100
0010
0100
0000
0010
1001
0010
0000
,  // measure 69
0001
0000
1001
0000
0100
0001
1000
0000
,  // measure 70
0100
1001
0100
0001
0100
1001
0100
0000
,  // measure 71
1010
0000
1001
0010
0000
0001
1001
0000
,  // measure 72
0100
1001
0100
1000
0100
1001
0100
0000
,  // measure 73
1000
0100
1000
0000
0100
0000
0001
0100
0001
0000
0100
0000
0010
0000
0010
0000
,  // measure 74
0001
0010
0001
1000
0100
0000
1000
0000
0001
0000
0100
0000
0101
0000
0000
0000
,  // measure 75
2002
0000
0000
3003
,  // measure 76
0000
0000
0000
0000
,  // measure 77
1001
0000
0010
1000
1001
0000
0100
0001
,  // measure 78
1001
0000
0010
0001
1001
0000
0110
0000
,  // measure 79
1001
1000
0100
1000
0001
0100
0001
0010
,  // measure 80
1000
0000
0010
0000
0001
0000
1000
0100
0010
0000
0001
0000
0100
0000
0000
0000
,  // measure 81
0001
0010
0001
0100
0010
0100
0001
1000
,  // measure 82
0001
0100
0010
0100
0001
1000
0010
0100
,  // measure 83
0001
0010
0100
1000
0001
1000
0100
0010
,  // measure 84
0100
1000
0010
1000
0100
0010
0001
1000
,  // measure 85
0100
0010
0001
1000
0001
0100
0001
1000
,  // measure 86
0100
0010
0100
1000
0010
1000
0001
1000
,  // measure 87
0100
0010
0001
0100
0001
0010
0001
0100
,  // measure 88
0010
1000
0001
1000
0100
0010
0001
1000
,  // measure 89
0100
0010
0100
1000
0010
1000
0100
0010
,  // measure 90
0001
0100
0001
1000
0010
0100
0010
1000
,  // measure 91
0001
0100
0010
0100
0001
1000
0010
0100
,  // measure 92
0001
0010
0001
1000
0001
0100
0010
1000
,  // measure 93
0100
0010
0001
1000
0001
0100
0001
1000
,  // measure 94
0010
0100
0001
1000
0100
1000
0001
0010
,  // measure 95
0100
1000
0010
0000
0010
0001
0010
0000
,  // measure 96
0010
1000
0100
0000
0001
0000
1100
0000
,  // measure 97
1001
0000
0000
0000
;

//---------------dance-single - ----------------
#NOTES:
     dance-single:
     :
     Hard:
     10:
     0.790793,1.194483,0.187646,0.222829,0.023456,472.000000,456.000000,16.000000,19.000000,0.000000,0.000000,0.790793,1.194483,0.187646,0.222829,0.023456,472.000000,456.000000,16.000000,19.000000,0.000000,0.000000:
0000
0000
0000
0000
,
0000
0000
0000
0000
,
0000
0000
0000
0000
,
1000
0010
1000
0010
,
1000
0000
0001
0000
0010
0001
1000
0000
,
0001
0100
0001
1000
,
0100
0000
1000
0000
0001
1000
0100
0000
,
0010
0001
0100
0001
,
0010
0000
0001
0000
0100
0010
1000
0000
,
0010
0100
0001
1000
,
0001
0000
0100
0000
0010
1000
0100
0000
,
1000
0100
0010
0001
,
1000
0000
0100
0000
1000
0100
1000
0000
,
0001
0010
0100
1000
,
0100
0000
0010
0000
0001
0010
0001
0000
,
1000
0001
0100
0010
,
1000
0000
0010
0000
0100
0010
0100
0000
,
0001
1000
0001
0000
0010
0001
0010
0000
,
0100
1000
0100
0000
1000
0000
1100
0000
,
1001
1000
0100
1000
,
0001
0000
0010
0000
0001
0100
0001
0000
,
0100
0010
1000
0100
,
0010
0100
1000
0001
,
0010
0100
1000
0010
,
0100
0000
0001
0000
1000
0010
1000
0000
,
0010
0100
0001
1000
,
0100
1000
0001
0010
,
0100
1000
0010
1000
,
0100
0000
0010
0000
0001
1000
0100
0000
,
0010
0001
0100
0010
,
0100
0001
1000
0010
,
1000
0001
1000
0000
0100
0000
1001
0000
,
0000
0000
0110
0000
0000
0000
0001
1000
,
0100
0010
0001
1000
,
0001
0100
0010
1000
,
0100
1000
0100
0000
1000
0000
0001
0000
,
0010
0001
0100
0010
,
0100
0001
0100
0000
0010
0000
1000
0000
,
0001
1000
0010
0100
,
0001
0010
0001
0000
1000
0000
0010
0000
,
1000
0100
0010
0100
,
1000
0100
1000
0000
0001
0000
0010
0000
,
0100
1000
0001
0010
,
0001
0100
0001
0000
1000
0000
0010
0000
,
0100
0010
1000
0001
,
0010
0001
0100
0001
,
1000
0100
1000
0001
,
2000
3200
2300
3002
,
0203
0302
0023
2030
,
3020
0032
2003
3002
,
0203
0320
0230
0320
,
1030
0010
1000
0010
1000
0000
0001
0000
,
0010
0001
0010
0001
0010
0000
0100
0000
,
1000
0100
1000
0100
1000
0000
0001
0000
,
0100
0001
0100
0001
0100
0000
0010
0000
,
1000
0001
1000
0001
1000
0000
0010
0000
,
0100
0010
0100
0010
0100
0000
0001
0000
,
0010
0001
0010
0001
0010
0000
0100
0000
,
1000
0100
1000
0100
1000
0000
0001
0000
,
0010
0001
1000
0001
0010
0000
0001
0000
,
0100
0001
1000
0001
0100
0000
0001
0000
,
1000
0010
1000
0001
1000
0000
0010
0000
,
1000
0100
0010
0001
1000
0000
0001
0000
,
0100
0010
0100
0010
0100
0010
0100
0010
,
1000
0001
1000
0001
1000
0001
1000
0001
,
1000
0010
1001
0010
,
1001
0010
1001
0100
,
0102
1000
0103
1001
,
0100
0001
1000
0000
0100
0010
1001
0000
,
0010
1001
0100
1001
,
0001
1000
0010
0100
0001
1000
0100
0000
,
0010
0000
0001
1000
0000
0000
1001
0000
,
0001
0100
0001
1000
0100
0010
0100
0000
,
0010
0001
0010
0000
0001
0000
1000
0001
1000
0000
0100
0000
1000
0000
0001
0000
,
0100
0001
0100
0001
0100
0000
0010
0000
1000
0000
0001
0000
0100
0000
0000
0000
,
2002
0000
0000
3003
,
0000
0000
0000
0000
,
1001
0000
0000
0001
1000
0000
0000
1000
,
0001
0000
0000
0010
0100
0000
1000
0000
,
0001
0100
0001
1000
0010
1000
0100
1000
,
0001
0010
0100
1000
0001
0100
0100
0000
,
0010
1000
0100
1000
,
0001
0000
0010
0000
0001
0100
0001
0000
,
1000
0010
1000
0100
,
0010
0000
0100
0000
1000
0001
1000
0000
,
0010
1000
0100
1000
,
0001
0000
0100
0000
0010
0100
0010
0000
,
1000
0001
0010
0001
,
1000
0000
0100
0000
0010
0001
0100
0000
,
0010
1000
0001
1000
,
0010
0000
0100
0000
0001
1000
0100
0000
,
0010
0100
1000
0010
,
1000
0000
0001
0000
0100
0010
1000
0000
,
0001
0010
0001
0100
,
0010
0000
0100
0000
0001
1000
0001
0000
,
0010
0001
0010
0000
0100
1000
0100
0000
,
0010
0001
1000
0000
0010
0000
1001
0000
,
1000
0000
0000
0000
;

//---------------dance-single - ----------------
#NOTES:
     dance-single:
     :
     Medium:
     7:
     0.531105,0.739442,0.187646,0.023456,0.000000,317.000000,301.000000,16.000000,2.000000,0.000000,0.000000,0.531105,0.739442,0.187646,0.023456,0.000000,317.000000,301.000000,16.000000,2.000000,0.000000,0.000000:
0000
0000
0000
0000
,
0000
0000
0000
0000
,
0000
0000
0000
0000
,
1000
0000
0001
0000
,
0010
0001
1000
0000
,
0100
0000
0010
0000
,
0100
1000
0001
0000
,
0100
0010
1000
0010
,
0100
0001
0100
0000
,
0001
0010
0001
1000
,
0100
0010
0100
0000
,
1000
0100
1000
0000
,
0001
0000
0010
0000
,
0001
0100
0001
0000
,
1000
0000
0001
0000
,
0100
0010
1000
0000
,
0001
0000
0010
0000
,
0110
0000
0110
0000
,
1001
0000
0110
0000
,
1001
0000
0100
0000
,
0001
0100
1000
0000
,
1000
0100
0001
0000
,
1000
0001
0100
0000
,
0010
1000
0001
0000
,
1000
0000
0100
0000
,
0001
0100
1000
0000
,
1000
0100
0001
0000
,
1000
0001
0100
0000
,
0010
0000
0100
0000
,
0001
1000
0010
0000
,
1000
0001
0100
0000
,
0010
1000
0100
1000
,
0000
1000
0000
0001
,
0100
0000
0010
0000
,
0100
0001
1000
0000
,
0001
0010
0001
0010
,
0001
0010
0001
0010
,
0001
1000
0100
1000
,
0100
1000
0100
1000
,
0100
0010
0100
0010
,
0100
0010
0100
0010
,
0100
1000
0001
1000
,
0001
1000
0001
1000
,
0001
0100
0001
0000
,
1000
0010
1000
0000
,
0001
0010
0001
0000
,
1000
0100
1000
0000
,
0001
1000
0010
0100
,
0010
1000
0001
1000
,
0001
0100
0001
0100
,
1000
0100
0001
0000
,
1000
0100
1000
0000
,
0001
0000
1001
0000
,
0010
1000
0010
0000
,
0100
0000
1001
0000
,
0010
0001
0010
0000
,
0100
0000
1001
0000
,
1000
0001
0100
0000
,
0001
0000
0101
0000
,
1000
0010
1000
0000
,
0100
0000
0110
0000
,
0010
0001
0100
0000
,
0001
0000
1001
0000
,
0001
0100
0001
1000
,
0010
0100
0001
0000
,
1000
0100
1000
0001
,
0010
0100
1000
0000
,
1001
0100
0001
0100
,
0001
0100
1000
0100
,
0001
0010
0001
0100
,
1000
0000
0100
0000
0001
0100
1000
0000
,
0001
1000
0001
0010
,
0100
1000
0100
0000
0010
0001
0100
0000
,
0001
1000
0010
0100
,
0010
1000
0100
1000
0001
1000
0100
0000
,
2002
0000
0000
3003
,
0000
0000
0000
0000
,
0001
0000
0000
0001
1000
0000
0000
1000
,
0010
0000
0000
0010
0100
0000
0100
0000
,
0001
0100
1000
0000
0100
1000
0001
0000
,
0010
0001
1000
0000
0010
1000
0001
0000
,
1000
0000
1100
0000
,
0001
0010
0100
0010
,
0001
0000
0101
0000
,
1000
0010
0100
0010
,
1000
0100
0010
0000
,
0001
0100
0010
1000
,
0100
1000
0001
0000
,
1000
0010
1000
0001
,
0010
0001
0100
0000
,
0010
0100
0001
1000
,
0001
0100
0001
0000
,
1000
0100
1000
0001
,
0010
0100
1000
0000
,
0010
1000
0010
0100
,
0001
0000
1000
0000
,
0010
0000
1001
0000
,
0100
0000
0000
0000
;

//---------------dance-single - ----------------
#NOTES:
     dance-single:
     :
     Easy:
     5:
     0.338433,0.511921,0.000000,0.000000,0.000000,202.000000,202.000000,0.000000,0.000000,0.000000,0.000000,0.338433,0.511921,0.000000,0.000000,0.000000,202.000000,202.000000,0.000000,0.000000,0.000000,0.000000:
0000
0000
0000
0000
,
0000
0000
0000
0000
,
0000
0000
0000
0000
,
1000
0000
1000
0000
,
0001
0000
1000
0000
,
0100
0000
0100
0000
,
0010
0000
0100
0000
,
1000
0000
0010
0000
,
1000
0000
0001
0000
,
0010
0000
0001
0000
,
0100
0000
0001
0000
,
1000
0000
0010
0000
,
0100
0000
0001
0000
,
0010
0000
0100
0000
,
0010
0000
0001
0000
,
1000
0000
0100
0000
,
0010
0000
0001
0000
,
0100
0000
0100
0000
,
0100
0000
0100
0000
,
0010
0000
1000
0000
,
0010
0000
1000
0000
,
0001
0000
0010
0000
,
1000
0000
0010
0000
,
0001
0000
1000
0000
,
0001
0000
1000
0000
,
0001
0000
0100
0000
,
1000
0000
0100
0000
,
0001
0000
0100
0000
,
0001
0000
0001
0000
,
1000
0000
0100
0000
,
1000
0000
1000
0000
,
0001
0000
0010
0000
,
0100
0000
0100
0000
,
0010
0000
0100
0000
,
0010
0000
0000
0000
,
0001
0000
1000
0000
,
0010
0000
0100
0000
,
0001
0000
0010
0000
,
0100
0000
1000
0000
,
0100
0000
0010
0000
,
0100
0000
0010
0000
,
0001
0000
1000
0000
,
0010
0000
0100
0000
,
0001
0000
0100
0000
,
0001
0000
0100
0000
,
1000
0000
0100
0000
,
1000
0000
0100
0000
,
0001
0000
0010
0000
,
0100
0000
1000
0000
,
0100
0000
0010
0000
,
0100
0000
1000
0000
,
0001
0000
0001
0000
,
1000
0000
1000
0000
,
0001
0000
0001
0000
,
0100
0000
0010
0000
,
1000
0000
1000
0000
,
0100
0000
0100
0000
,
0010
0000
0010
0000
,
0001
0000
1000
0000
,
0001
0000
0001
0000
,
0100
0000
0100
0000
,
0001
0000
0001
0000
,
0010
0000
0010
0000
,
0100
0000
1000
0000
,
0100
0000
0010
0000
,
0001
0000
1000
0000
,
0100
0000
0010
0000
,
0100
0000
0010
0000
,
0001
0100
1000
0100
,
0001
0001
1000
0000
,
0001
0010
0001
1000
,
0100
0010
0100
0010
,
0100
1000
0001
1000
,
0001
0100
0001
0010
,
0001
1000
0100
0010
,
0100
0000
0000
0000
,
0000
0000
0000
0000
,
1000
0000
1000
0000
,
0001
0000
0001
0000
,
0100
0100
0010
0010
,
1000
0001
0100
0010
,
1000
0000
1000
0000
,
0100
0000
0100
0000
,
0001
0000
0100
0000
,
1000
0000
0100
0000
,
0001
0000
0001
0000
,
0010
0000
0010
0000
,
1000
0000
1000
0000
,
0010
0000
0001
0000
,
0010
0000
0100
0000
,
0010
0000
0100
0000
,
1000
0000
0100
0000
,
1000
0000
0100
0000
,
0001
0000
0100
0000
,
1000
0000
0100
0000
,
0010
0000
0010
0000
,
0010
0000
0001
0000
,
0100
0000
0000
0000
;

//---------------dance-single - ----------------
#NOTES:
     dance-single:
     :
     Beginner:
     2:
     0.174243,0.341281,0.023456,0.000000,0.000000,104.000000,102.000000,2.000000,0.000000,0.000000,0.000000,0.174243,0.341281,0.023456,0.000000,0.000000,104.000000,102.000000,2.000000,0.000000,0.000000,0.000000:
0000
0000
0000
0000
,
0000
0000
0000
0000
,
0000
0000
0000
0000
,
1000
0000
0000
0000
,
1000
0000
0000
0000
,
0100
0000
0000
0000
,
0100
0000
0000
0000
,
0010
0000
0000
0000
,
0001
0000
0000
0000
,
0100
0000
0000
0000
,
0010
0000
0000
0000
,
1000
0000
0000
0000
,
0001
0000
0000
0000
,
1000
0000
0000
0000
,
0100
0000
0000
0000
,
0010
0000
0000
0000
,
0001
0000
0000
0000
,
0100
0000
0000
0000
,
0100
0000
0000
0000
,
0001
0000
0000
0000
,
0001
0000
0000
0000
,
1000
0000
0000
0000
,
1000
0000
0000
0000
,
0001
0000
0000
0000
,
0001
0000
0000
0000
,
1000
0000
0000
0000
,
1000
0000
0000
0000
,
0010
0000
0000
0000
,
0100
0000
0000
0010
,
0000
0000
0000
0000
,
0100
0000
0000
0000
,
0001
0000
0000
0000
,
0010
0000
0000
0000
,
1000
0000
0000
0000
,
0010
0000
0000
0000
,
0100
0000
0000
0000
,
0100
0000
0000
0001
,
0000
0000
0000
0000
,
0001
0000
0000
0000
,
1000
0000
0000
0000
,
1000
0000
0000
0000
,
0100
0000
0000
0000
,
0100
0000
0000
0000
,
0010
0000
0000
0000
,
0010
0000
0000
0000
,
0001
0000
0000
0000
,
0001
0000
0000
0000
,
0010
0000
0000
0000
,
0100
0000
0000
0000
,
1000
0000
0000
0000
,
1000
0000
0000
0000
,
1001
0000
0000
0000
,
0000
0000
0000
0000
,
0010
0000
0000
0000
,
0000
0000
0000
0000
,
0001
0000
0000
0000
,
0000
0000
0000
0000
,
1000
0000
0000
0000
,
0000
0000
0000
0000
,
0100
0000
0000
0000
,
0010
0000
0000
0000
,
0100
0000
0000
0000
,
0010
0000
0000
0000
,
0001
0000
0000
0000
,
0001
0000
0000
0000
,
1000
0000
0000
0000
,
0100
0000
0000
0000
,
1000
0000
0000
0000
,
1000
0000
0001
0000
,
0100
0000
0100
0000
,
0010
0000
0010
0010
,
0010
0000
1000
0000
,
0100
0000
0001
0000
,
0100
0000
0100
0000
,
0010
0000
0001
0000
,
1001
0000
0000
0000
,
0000
0000
0000
0000
,
0001
0000
1000
0000
,
0100
0000
0100
0000
,
0010
0000
0001
0000
,
0100
0000
0100
0000
,
0001
0000
0000
0000
,
0010
0000
0000
0000
,
0100
0000
0000
0000
,
0010
0000
0000
0000
,
0100
0000
0000
0000
,
1000
0000
0000
0000
,
0010
0000
0000
0000
,
0100
0000
0000
0000
,
0001
0000
0000
0000
,
1000
0000
0000
0000
,
0001
0000
0000
0000
,
0010
0000
0000
0000
,
0100
0000
0000
0000
,
1000
0000
0000
0000
,
0100
0000
0000
0000
,
0100
0000
0000
0000
,
0010
0000
0000
0000
;
