#TITLE:A Melody to Break the Curse;
#SUBTITLE:(Music Box Future);
#ARTIST:Rainbowdragoneyes;
#TITLETRANSLIT:;
#SUBTITLETRANSLIT:;
#ARTISTTRANSLIT:;
#GENRE:The Messenger;
#CREDIT:[Ness];
#BANNER:The Messenger - A Melody to Break the Curse (Music Box Future).png;
#BACKGROUND:The Messenger - A Melody to Break the Curse (Music Box Future)-bg.png;
#LYRICSPATH:;
#CDTITLE:;
#MUSIC:The Messenger - A Melody to Break the Curse (Music Box Future).mp3;
#OFFSET:-0.015000;
#SAMPLESTART:19.190842;
#SAMPLELENGTH:12.799999;
#LASTBEATHINT:288.009766;
#SELECTABLE:YES;
#BPMS:0.000000=150.000000
;
#STOPS:
;
#BGCHANGES:;
#KEYSOUNDS:;
#ATTACKS:;

//---------------dance-single - ----------------
#NOTES:
     dance-single:
     :
     Challenge:
     12:
     0.923689,0.974939,0.329200,0.059087,1.131098,766.000000,727.000000,39.000000,7.000000,4.000000,5.000000,0.923689,0.974939,0.329200,0.059087,1.131098,766.000000,727.000000,39.000000,7.000000,4.000000,5.000000:
0000
0000
0000
0000
,
0000
0000
0000
0000
,
0000
0000
0000
0000
,
0000
0000
0000
0000
,
0010
1000
0000
0000
1000
0001
0000
0000
0001
0010
0000
0000
0010
0100
0000
0000
0100
1000
0000
0000
1000
0001
0000
0000
0001
1000
0000
0000
1000
0100
0000
0000
,
1000
0001
0000
0000
0100
0001
0000
0000
1000
0001
0000
0000
0100
0001
0000
0000
1000
0001
0000
0000
0000
0000
0000
0000
0000
0000
0000
0000
0000
0000
0000
0000
,
0010
0001
0000
0000
0100
0001
0000
0000
1000
0010
0000
0000
1000
0100
0000
0000
0010
0100
0000
0000
1000
0100
0000
0000
0010
0001
0000
0000
0100
0001
0000
0000
,
1000
0010
0000
0000
1000
0100
0000
0000
0010
0100
0000
0000
0010
0001
0000
0000
0100
0001
0000
0000
0000
0000
0000
0000
0000
0000
0000
0000
0000
0000
0000
0000
,
0001
1000
0000
0000
0010
1000
0000
0000
0100
0010
0000
0000
0001
0100
0000
0000
0010
0100
0000
0000
0001
0100
0000
0000
0010
1000
0000
0000
0100
1000
0000
0000
,
0001
1000
0000
0000
0010
0100
0000
0000
0001
0100
0000
0000
0001
1000
0000
0000
0001
0100
0000
0000
0000
0000
0000
0000
0000
0000
0000
0000
0000
0000
0000
0000
,
0001
0010
0000
0000
0100
0010
0000
0000
0100
1000
0000
0000
0010
1000
0000
0000
0100
1000
0000
0000
0001
1000
0000
0000
0010
1000
0000
0000
0001
0100
0000
0000
,
0010
0100
0000
0000
0100
0001
0000
0000
0001
1000
0000
0000
1000
0100
0000
0000
1000
0000
0000
0000
0001
0000
0000
0000
0001
0000
0000
0000
0001
0000
0000
0000
,
1001
0001
0010
1100
1000
0010
0101
0001
,
1000
0110
0001
1000
1000
1000
1010
0000
,
1100
0100
0001
0110
0010
1000
0011
0001
,
0100
1001
1000
0100
0100
0100
0101
0000
,
0110
1000
0010
1001
0100
0001
0011
0010
,
0100
1001
0001
1000
0110
1000
0010
0010
,
1010
0001
0100
1100
0001
0010
0101
1000
,
0010
0000
0011
0000
0100
0000
1000
0000
0001
1000
0000
0000
0100
0000
0100
0000
,
0010
0000
0001
0100
0010
0000
1000
0100
0010
0000
0001
1000
0010
0000
0100
0001
,
1000
0000
0100
1000
0010
0000
1000
0001
0010
0000
0100
0010
0001
0000
1000
0100
,
0010
0000
0100
1000
0001
0000
0100
0010
1000
0000
0010
0100
0001
0000
1000
0010
,
0100
0000
0001
0010
0100
0000
1000
0001
0100
0000
0001
1000
0100
0000
0010
0100
,
1000
0000
0100
0010
0001
0000
0010
0100
1000
0000
0001
0010
0100
0000
0010
0001
,
1000
0000
0001
0100
0010
0000
1000
0001
1000
0000
0100
1000
0001
0000
0100
0010
,
1000
0000
0001
1000
0010
0000
0100
0001
0010
0000
0100
0000
0110
0000
0000
0000
,
0000
0000
0001
1000
0100
0000
0010
0001
0100
0000
0010
1000
0001
0000
1000
0000
,
0001
0000
0100
0010
1000
0000
0010
0100
0001
0000
1000
0010
0100
0000
0001
1000
,
0001
0000
0010
0100
1000
0000
0100
0010
0001
0000
1000
0100
1000
0000
0001
0010
,
0100
0000
0010
0001
1000
0000
0001
0100
0001
0000
1000
0010
0100
0000
0010
1000
,
0001
0000
1000
0100
0010
0000
0100
1000
0100
0000
0010
0001
1000
0000
0001
0100
,
0010
0000
MMMM
0000
1001
0000
0020
0000
0000
0000
0130
0000
1001
0000
0001
1000
,
0010
0000
0100
0001
0100
0000
0010
1000
0001
0000
0010
0100
1000
0000
0100
0010
,
0001
0000
0001
0100
0000
0000
1000
0000
1000
0010
0000
0000
1001
0000
0000
0000
,
0000
1000
0001
1000
0100
0010
0001
0100
,
0010
1000
0100
1000
0001
1000
0010
1000
0100
1000
0001
1000
0010
1000
0100
1000
,
0001
0010
0001
0100
0010
0100
0001
0010
0001
0100
0010
0100
0001
0010
0001
0100
,
0010
1000
0001
0100
0001
1000
0010
1000
0001
0100
0001
1000
0010
1000
0001
0100
,
0001
0010
0100
1000
0100
0010
0001
0010
0100
1000
0100
0010
0001
0010
0100
1000
,
0001
0010
0001
1000
0100
0010
0001
0010
0001
1000
0100
0010
0001
0010
0001
1000
,
0010
1000
0100
0010
0001
1000
0010
1000
0100
0010
0001
1000
0010
1000
0100
0010
,
0001
1000
0001
0100
0010
1000
0100
1000
0001
0100
0010
0100
0001
1000
0001
0010
,
0100
0010
0001
1000
0100
0010
0100
1000
0001
0010
0100
1000
0100
0010
0001
1000
,
0001
0100
0001
1000
0010
1000
0001
0100
0001
1000
0010
1000
0001
0100
0001
1000
,
0010
0100
0001
1000
0010
0100
0001
1000
0010
0100
0001
1000
0010
0100
0001
0000
,
0010
0001
0010
0100
1000
0100
0010
0001
0010
0100
1000
0100
0010
0001
0010
0100
,
1000
0001
0010
0100
1000
0001
0010
0100
1000
0001
0010
0100
1000
0001
0100
0010
,
1000
0100
1000
0000
0001
0000
0010
0000
0100
0000
0010
0000
0001
0000
0100
0000
,
2200
0000
0010
0000
0001
0000
0010
3300
,
1000
0001
0100
0010
1000
0001
0100
0010
,
0202
0000
0010
0303
2200
0000
0010
3300
,
0100
0001
0100
0000
0100
0000
0010
0000
1100
0000
1100
0000
0010
0000
0100
0000
,
1001
0010
1000
1001
0010
1001
0100
0010
,
0101
1000
0100
0110
1000
0110
0001
1000
,
1010
0000
0000
1001
0000
0000
0101
0000
0000
0000
1000
0000
0001
0000
0100
0000
,
0001
1000
0000
0000
0010
0100
0000
0000
0000
0000
0000
0000
0001
0100
0000
0000
0010
1000
0000
0000
0000
0000
0000
0000
0100
1000
0000
0000
0001
0100
0000
0000
,
0000
0000
0000
0000
0010
1000
0000
0000
0000
0000
0000
0000
0001
0010
0000
0000
0100
1000
0000
0000
0000
0000
0000
0000
0010
0100
0000
0000
0100
0001
0000
0000
,
1000
0100
0000
0000
0010
0001
0000
0000
0000
0000
0000
0000
0001
1000
0000
0000
0010
0100
0000
0000
0000
0000
0000
0000
0001
0100
0000
0000
0001
0010
0000
0000
,
0000
0000
0000
0000
0100
1000
0000
0000
0000
0000
0000
0000
0010
0100
0000
0000
0001
0100
0000
0000
0000
0000
0000
0000
0010
1000
0000
0000
0100
1000
0000
0000
,
0100
0010
0000
0000
0001
0100
0000
0000
0000
0000
0000
0000
0001
0010
0000
0000
0100
1000
0000
0000
0000
0000
0000
0000
0010
0100
0000
0000
0001
0100
0000
0000
,
0000
0000
0000
0000
0010
1000
0000
0000
0000
0000
0000
0000
0100
1000
0000
0000
0001
0100
0000
0000
0000
0000
0000
0000
0001
0010
0000
0000
0100
1000
0000
0000
,
0010
0100
0000
0000
0100
0010
0000
0000
0000
0000
0000
0000
1000
0010
0000
0000
0010
1000
0000
0000
0000
0000
0000
0000
0100
1000
0000
0000
1000
0100
0000
0000
,
0000
0000
0000
0000
0010
0001
0000
0000
0000
0000
0000
0000
0100
0010
0000
0000
1000
0000
0001
0000
0000
0000
0000
0000
0101
0000
0000
0000
0001
0000
0000
0000
,
1000
0000
0000
0000
0000
0000
0000
0000
0110
0000
0000
0000
1000
0100
0000
0000
1000
0001
0000
0000
0000
0000
0000
0000
0001
0100
0000
0000
0001
1000
0000
0000
,
0000
0000
0000
0000
0010
0100
0000
0000
0000
0000
0000
0000
0100
0001
0000
0000
1000
0100
0000
0000
0000
0000
0000
0000
0010
0001
0000
0000
0001
1000
0000
0000
,
0010
0100
0000
0000
0010
1000
0000
0000
0000
0000
0000
0000
0001
1000
0000
0000
0100
1000
0000
0000
0000
0000
0000
0000
0001
0010
0000
0000
0100
1000
0000
0000
,
0000
0000
0000
0000
0100
0010
0000
0000
0000
0000
0000
0000
0001
0100
0000
0000
0001
1000
0000
0000
0000
0000
0000
0000
0100
0010
0000
0000
0010
0001
0000
0000
,
0100
0001
0000
0000
1000
0100
0000
0000
0000
0000
0000
0000
0000
0000
0000
0000
0000
0000
0000
0000
0000
0000
0000
0000
0010
1000
0000
0000
0010
0001
0000
0000
,
0000
0000
0000
0000
0000
1000
0100
0010
,
0001
0000
0000
0000
;

//---------------dance-single - ----------------
#NOTES:
     dance-single:
     :
     Hard:
     9:
     0.537814,0.527986,0.244790,0.194144,0.122395,446.000000,417.000000,29.000000,23.000000,13.000000,0.000000,0.537814,0.527986,0.244790,0.194144,0.122395,446.000000,417.000000,29.000000,23.000000,13.000000,0.000000:
0000
0000
0000
0000
,
0000
0000
0000
0000
,
0000
0000
0000
0000
,
0000
0000
0000
0000
,
0002
1000
1003
0020
0100
0130
0001
0100
,
1000
0100
0010
1000
0200
0000
0300
0000
,
0002
0010
0013
2000
0100
3100
0010
0001
,
1000
0010
0001
0010
2000
0000
3000
0000
,
0002
0100
0103
0020
1000
1030
0100
1000
,
0001
0010
0100
0010
0002
0000
0003
0000
,
0200
0010
0310
2000
0010
3010
0001
0100
,
1000
0010
0100
0001
0020
0000
0030
0000
,
0100
1000
0001
0200
0000
0310
1000
0000
,
0001
1000
0100
0010
0001
0000
1001
0000
,
0001
0010
1000
0020
0000
0130
0001
0000
,
1000
0100
1001
0000
0010
1000
0100
0100
,
1000
0001
1000
0000
0100
0000
0020
0000
0000
0000
0031
0000
0100
0000
0000
0000
,
0000
0001
1000
0000
0001
0000
1001
0000
,
0010
1000
0001
0010
0010
0100
1000
0000
,
0010
0000
0000
0000
0110
0000
0000
0000
1000
0001
0000
0000
0100
0000
0010
0000
,
1000
0000
0000
1000
0100
0000
0001
0000
0000
0001
0010
0000
0210
0000
0000
0000
,
1300
0000
0000
1000
0001
0000
0000
0001
0100
0000
0000
0100
0010
0000
0000
0010
,
1000
0000
0000
1000
0001
0000
0010
0000
0000
0010
0100
0000
1200
0000
0000
0000
,
1300
0000
0000
0010
0001
0000
0000
0100
1000
0000
0000
0010
0001
0000
0000
0000
,
0110
0000
0000
0010
1000
0000
0001
0000
0000
0001
1000
0000
0100
0000
0000
0100
,
0010
0000
0001
0000
0000
0001
0100
0000
0010
0000
0000
0010
1000
0000
0000
1000
,
0001
0000
0000
1100
0000
0000
1000
0000
0000
0101
0000
0000
1001
0000
0000
0000
,
0000
0000
0000
0001
1000
0000
0000
0010
0100
0000
0000
0001
1000
0000
0000
0000
,
1000
0100
1000
0001
1000
0100
1000
0000
,
0001
0010
0100
1000
0000
0010
0100
0000
,
0001
0100
0001
1000
0001
0010
0001
0000
,
1000
1000
0001
0001
0100
0100
0010
0010
,
1000
MMMM
0010
0001
0000
0010
0100
0000
,
0010
0001
1000
0000
1001
0000
0101
0000
,
1010
0000
0000
0110
0000
0000
0011
0000
0000
1100
0000
0000
2002
0000
0000
0000
,
3003
0000
0010
0000
1000
0100
0001
0000
,
0001
0100
0100
1000
0100
0100
0001
0010
,
0010
1000
0010
0010
0100
0001
0001
0010
,
0100
0100
1000
0010
0010
0100
0001
0001
,
0010
0100
0100
1000
0010
0010
0001
0100
,
0100
0010
1000
0100
0010
0010
0001
1000
,
1000
0001
0100
0100
1000
0010
0010
0100
,
1000
1000
0100
0001
0001
0010
0001
0001
,
0010
0100
0100
1000
0001
1000
0100
0000
,
0010
0001
0100
1000
0100
0001
0010
0100
,
1000
0101
0001
1100
,
1000
0100
1000
0001
0010
1000
0001
0100
,
1000
0011
0010
1100
,
0010
0001
1000
0001
0100
1000
0100
0001
,
0010
1001
0100
1001
,
1000
0010
1000
0100
0001
0100
1000
0001
,
0100
0000
0001
1000
0010
0100
0001
0000
,
0010
0100
0010
0000
0100
0000
1000
0000
0001
0000
0010
0000
1000
0000
0100
0000
,
0001
0000
1100
0001
0000
1100
0001
0000
,
0100
0010
1000
0100
0001
0100
0010
0001
,
0100
0000
0000
0101
0000
0000
1001
0000
0000
0000
1100
0000
0100
0000
0000
0000
,
0010
0010
0000
1000
10M0
0000
0100
M100
,
0000
0001
0M00
0010
0010
000M
0000
0000
,
01M0
0100
0000
1000
1M00
0000
0010
M010
,
0000
0001
00M0
0100
010M
0000
0000
0000
,
0001
0010
0010
1000
0100
0100
0010
1000
,
1000
0010
0001
0001
1000
0000
0000
0000
,
0100
1000
1000
0001
0100
0100
0010
1000
,
1000
0000
0001
0000
0010
0000
0010
0000
0100
1000
0000
0000
0100
0000
0000
0000
,
0010
0000
1001
0001
0100
0010
1000
0100
,
0010
0100
1000
0001
,
1000
0100
1000
0001
0000
1000
0100
0000
,
0000
0010
0001
1000
0001
0100
0010
0000
,
0002
2000
0000
0000
0000
3003
0200
0002
,
0000
0000
0303
0000
;

//---------------dance-single - ----------------
#NOTES:
     dance-single:
     :
     Medium:
     6:
     0.341259,0.348825,0.025323,0.033764,0.025323,283.000000,280.000000,3.000000,4.000000,0.000000,0.000000,0.341259,0.348825,0.025323,0.033764,0.025323,283.000000,280.000000,3.000000,4.000000,0.000000,0.000000:
0000
0000
0000
0000
,
0000
0000
0000
0000
,
0000
0000
0000
0000
,
0000
0000
0000
0000
,
1000
0100
0000
0001
0100
0000
1000
0100
,
0000
0001
0100
0100
0100
0000
0000
0000
,
1000
0001
0000
0100
0001
0000
1000
0010
,
0000
1000
0001
0001
0001
0000
0000
0000
,
0001
0100
0000
1000
0100
0000
0001
0100
,
0000
1000
0100
0100
0100
0000
0000
0000
,
0001
0010
0000
0100
1000
0000
1000
0010
,
0000
0100
0001
0001
0001
0000
0000
0000
,
1001
0010
1000
0100
,
0001
0100
1000
0000
0010
0000
0100
0000
,
1000
0001
0100
0010
,
1000
0000
0001
0000
1000
0100
0001
0000
,
0001
0010
0100
1000
,
0001
0010
1000
0000
0010
0000
0100
0000
,
0001
1000
0100
0010
,
0001
0000
0100
0000
0010
0000
1000
0001
,
0100
0000
0000
0010
0000
0000
0100
0000
0000
0010
0000
0000
1001
0000
0000
0000
,
0000
1000
0001
0100
,
0010
0000
0000
0100
0000
0000
0010
0000
0000
0100
0000
0000
1001
0000
0000
0000
,
0000
1000
0100
0010
,
0002
0000
0003
2000
0000
3000
0200
0000
,
0300
0020
0000
0030
0001
0000
1000
0000
,
0001
0000
0000
0100
0000
0000
1000
0000
0000
0100
0000
0000
0001
0000
0000
0000
,
1000
0100
0010
0001
,
1000
0010
1000
0100
,
0010
0100
1000
0001
,
0100
0010
0100
0001
,
0010
0100
0010
0100
,
1000
0001
0100
0010
,
1000
0001
0010
0100
,
0010
0001
1000
0100
,
0001
0100
1000
0001
,
0100
0010
0100
0001
,
0010
0100
0010
0100
,
1000
0001
0100
0010
,
1000
0001
0010
0100
,
1000
0100
0001
0010
,
0100
1000
0001
1000
,
0100
0010
0001
0100
,
1000
0001
0010
1000
,
0100
0010
0001
1000
,
0100
0010
0100
1000
,
0001
0010
0100
1000
,
0100
0001
0010
0100
,
0010
0001
1000
0100
,
0001
1000
0010
0001
,
0100
1000
0001
1000
,
0100
0010
0001
1000
,
0001
0100
0010
0100
0001
0000
0010
0000
,
0100
1000
0001
1000
,
0010
1000
0100
1000
0010
0000
0100
0000
,
0001
0010
0100
1000
,
0001
1000
0000
0001
0100
0000
0001
1000
,
0000
0001
0000
0100
0100
0000
0000
0000
,
0010
0001
0000
0010
1000
0000
0010
0001
,
0000
0010
0000
1000
1000
0000
0000
0000
,
0100
1000
0000
0100
0001
0000
0100
1000
,
0000
0100
0000
0001
0001
0000
0000
0000
,
0001
0100
0000
1000
0100
0000
0001
0100
,
0000
1000
0000
0100
0100
0000
0000
0000
,
0010
0000
1000
0000
0100
0010
0100
0000
,
1000
0001
1000
0100
,
0010
0001
0100
0000
0001
0000
1000
0000
,
0100
0010
0100
0000
,
1000
0001
0000
0000
0000
0000
0001
1000
;

//---------------dance-single - ----------------
#NOTES:
     dance-single:
     :
     Easy:
     4:
     0.266495,0.261144,0.000000,0.101292,0.000000,221.000000,221.000000,0.000000,12.000000,0.000000,0.000000,0.266495,0.261144,0.000000,0.101292,0.000000,221.000000,221.000000,0.000000,12.000000,0.000000,0.000000:
0000
0000
0000
0000
,
0000
0000
0000
0000
,
0000
0000
0000
0000
,
0000
0000
0000
0000
,
0002
0013
2000
3001
,
0200
0010
0310
0000
,
2000
3100
0020
0130
,
0002
1000
1003
0000
,
0002
1003
0020
0031
,
0200
0010
0310
0000
,
2000
3100
0002
0013
,
0200
1000
1300
0000
,
0001
0001
1000
0100
,
0010
0100
0001
0010
,
1000
1000
0010
1000
,
0001
0010
1000
0001
,
0100
1000
0001
0100
,
0010
0100
1000
0010
,
0001
0010
0100
1000
,
0010
0001
1000
0010
,
0100
0100
0001
0001
,
0010
1000
0001
0100
,
0010
0010
0100
0100
,
0010
1000
0100
0001
,
1000
1000
0010
0010
,
1000
0100
0010
0001
,
0010
0010
0100
0100
,
0010
1000
0010
0001
,
1000
1000
0100
0100
,
0010
0100
0001
0100
,
1000
0001
0001
0100
,
0100
0001
0010
0001
,
1000
0100
0010
0100
,
0010
0001
0100
1000
,
0001
1000
0001
0100
,
0010
1000
0100
0010
,
0001
0010
0100
0010
,
1000
0100
0010
0100
,
0001
1000
0010
0000
,
1000
0001
0100
0000
,
0010
1000
0100
0000
,
0010
0001
0100
0000
,
0010
1000
0001
0000
,
0100
0001
1000
0000
,
0100
0010
0100
0010
,
0001
0000
1000
0000
,
0001
1000
0001
1000
,
0010
0000
0100
0000
,
0001
0010
0100
1000
,
0010
0000
0000
0000
,
0100
0001
1000
0010
,
0100
0000
0001
0000
,
0010
0100
0010
0100
,
0010
0001
1000
0000
,
0100
0010
0100
0010
,
0100
1000
0001
0000
,
1000
0010
0100
0000
,
0001
0000
0001
0000
,
0001
0010
0100
0000
,
1000
0000
1000
0000
,
1000
0100
0001
0000
,
0001
0100
1000
0000
,
0001
1000
0010
0000
,
0100
0001
1000
0000
,
0001
0000
0010
0000
,
0100
1000
0001
0000
,
1000
0000
0010
0000
,
0100
0001
1000
0000
,
0100
0000
0000
0010
;

//---------------dance-single - ----------------
#NOTES:
     dance-single:
     :
     Beginner:
     2:
     0.129027,0.174096,0.008441,0.008441,0.000000,107.000000,106.000000,1.000000,1.000000,0.000000,0.000000,0.129027,0.174096,0.008441,0.008441,0.000000,107.000000,106.000000,1.000000,1.000000,0.000000,0.000000:
// measure 0
0000
0000
0000
0000
,  // measure 1
0000
0000
0000
0000
,  // measure 2
0000
0000
0000
0000
,  // measure 3
0000
0000
0000
0000
,  // measure 4
1000
0000
1000
0000
,  // measure 5
0010
0000
0010
0000
,  // measure 6
0100
0000
0100
0000
,  // measure 7
0001
0000
0001
0000
,  // measure 8
0010
0000
0010
0000
,  // measure 9
0100
0000
0100
0000
,  // measure 10
1000
0000
1000
0000
,  // measure 11
0001
0000
0001
0000
,  // measure 12
0100
0000
0100
0100
,  // measure 13
0000
0010
0000
0000
,  // measure 14
1000
0000
1000
1000
,  // measure 15
0000
0001
0000
0000
,  // measure 16
0100
0000
0010
0010
,  // measure 17
0000
1000
0000
0000
,  // measure 18
0100
0000
1000
1000
,  // measure 19
0000
0001
0000
0000
,  // measure 20
1001
0000
0100
0000
,  // measure 21
1000
0000
0100
0000
,  // measure 22
0001
0000
0010
0000
,  // measure 23
0100
0000
0010
0000
,  // measure 24
0001
0000
1000
0000
,  // measure 25
0010
0000
1000
0000
,  // measure 26
0001
0000
1000
0000
,  // measure 27
0100
0000
0010
0000
,  // measure 28
0001
0001
0001
0000
,  // measure 29
0000
0000
0010
0000
,  // measure 30
1000
1000
1000
0000
,  // measure 31
0000
0000
0010
0000
,  // measure 32
0001
0001
0001
0000
,  // measure 33
0100
0000
0010
0000
,  // measure 34
1000
1000
1000
1000
,  // measure 35
0000
0000
0000
0000
,  // measure 36
0100
0000
0000
0010
,  // measure 37
0000
0000
0001
0000
,  // measure 38
0000
0000
1000
0000
,  // measure 39
0000
0100
0000
0000
,  // measure 40
0010
0000
0000
0001
,  // measure 41
0000
0000
0000
0000
,  // measure 42
0000
0000
0100
0000
,  // measure 43
0000
0010
0000
0000
,  // measure 44
1000
0000
1000
0000
,  // measure 45
0001
0000
0000
0000
,  // measure 46
0010
0000
0010
0000
,  // measure 47
0100
0000
1000
0000
,  // measure 48
0001
0000
0001
0000
,  // measure 49
0010
0000
0000
0000
,  // measure 50
0100
0000
0100
0000
,  // measure 51
1000
0000
0001
0000
,  // measure 52
0100
0000
0010
0000
,  // measure 53
0001
0000
0010
0000
,  // measure 54
1000
0000
0100
0000
,  // measure 55
0010
0000
0001
0000
,  // measure 56
0100
0000
0000
0000
,  // measure 57
0000
0000
0000
0000
,  // measure 58
0010
0000
0000
0000
,  // measure 59
0000
0000
0000
0000
,  // measure 60
1000
0000
0000
0000
,  // measure 61
0000
0000
0000
0000
,  // measure 62
0001
0000
0000
0000
,  // measure 63
0000
0000
0000
0000
,  // measure 64
0010
0000
0000
0020
,  // measure 65
0000
0030
0000
0000
,  // measure 66
0100
0000
0000
0000
,  // measure 67
0100
0000
0000
0000
,  // measure 68
0010
0000
0000
0010
;
