#VERSION:0.83;
#TITLE:A Home Amongst the Clouds;
#SUBTITLE:(Cloud Ruins Past);
#ARTIST:Rainbowdragoneyes;
#TITLETRANSLIT:;
#SUBTITLETRANSLIT:;
#ARTISTTRANSLIT:;
#GENRE:The Messenger;
#ORIGIN:;
#CREDIT:[Ness];
#BANNER:The Messenger - A Home Amongst the Clouds (Cloud Ruins Past).png;
#BACKGROUND:The Messenger - A Home Amongst the Clouds (Cloud Ruins Past)-bg.png;
#PREVIEWVID:;
#JACKET:The Messenger - A Home Amongst the Clouds (Cloud Ruins Past)-jacket.png;
#CDIMAGE:;
#DISCIMAGE:;
#LYRICSPATH:;
#CDTITLE:;
#MUSIC:The Messenger - A Home Amongst the Clouds (Cloud Ruins Past).mp3;
#OFFSET:-0.029000;
#SAMPLESTART:23.060938;
#SAMPLELENGTH:15.359999;
#SELECTABLE:YES;
#BPMS:0.000=125.000,
30.000=250.000,
255.000=62.500,
271.000=125.000,
279.000=250.000;
#STOPS:30.000=0.720;
#DELAYS:;
#WARPS:;
#TIMESIGNATURES:0.000=4=4;
#TICKCOUNTS:0.000=2;
#COMBOS:0.000=1;
#SPEEDS:0.000=1.000=0.000=0;
#SCROLLS:0.000=1.000;
#FAKES:;
#LABELS:0.000=Song Start,
311.000=Song End;
#LASTSECONDHINT:97.980934;
#BGCHANGES:;
#KEYSOUNDS:;
#ATTACKS:
;

//---------------dance-single - ----------------
#NOTEDATA:;
#CHARTNAME:;
#STEPSTYPE:dance-single;
#DESCRIPTION:;
#CHARTSTYLE:;
#DIFFICULTY:Challenge;
#METER:10;
#RADARVALUES:0.652354,0.839888,0.471378,0.235689,0.078563,465.000000,417.000000,48.000000,24.000000,0.000000,0.000000,0.000000,0.000000,0.000000,0.652354,0.839888,0.471378,0.235689,0.078563,465.000000,417.000000,48.000000,24.000000,0.000000,0.000000,0.000000,0.000000,0.000000;
#CREDIT:;
#DISPLAYBPM:0.000000;
#NOTES:
0000
0000
0000
0000
,
0000
0000
0000
0000
,
0000
0000
0000
0000
,
0000
0000
0000
0000
,
2000
0000
0000
0000
3001
0000
0200
0000
0001
0000
0000
0000
0310
1000
0001
0100
,
0002
0000
0000
0000
1003
0000
0010
0100
0001
0000
1000
0000
0100
0000
1000
0000
,
0002
0000
0013
0100
1000
0100
0001
0100
,
1000
0001
0100
0010
2000
0000
3001
0000
,
0101
1000
1100
0001
,
0101
1000
1100
0010
,
0011
0000
1000
0000
1010
0000
0001
1000
,
0001
1000
0010
0100
0010
0100
0001
0000
,
1001
0010
0011
1000
,
1001
0010
1010
0001
,
1001
0000
0100
0000
1100
0000
0100
1000
,
0001
0100
0010
0100
0001
1000
0100
0010
,
0001
0010
0200
0000
1000
0000
0300
0000
,
2002
0000
3003
0000
0100
1000
0010
0000
,
0100
0000
0001
0000
1000
0010
0100
0000
,
0001
0000
1000
0100
0010
0002
0000
0013
,
0100
1000
0002
0000
0100
0000
0003
0000
,
0220
0000
0330
0000
1000
0010
0100
0000
,
0001
0000
1000
0000
0010
0000
0100
0001
,
0100
0001
1000
0100
1000
0100
0000
0100
,
0010
0001
2000
0000
0010
0000
3000
0000
,
2002
0000
3003
0000
0010
0001
1000
0000
,
1000
0000
0001
0000
0001
1000
0100
0000
,
0100
0000
1000
0010
0100
0001
1000
0001
,
1000
0020
0000
0000
0130
0000
0001
0100
,
0001
0020
0000
0130
1000
0001
0100
0010
,
1000
0010
0000
1000
0001
1000
0000
0000
,
0000
0000
0100
1000
0001
1000
0100
0000
,
1001
0010
1001
0100
,
1001
0010
1001
0001
,
1000
0000
0100
0000
0010
0001
0100
0000
,
0001
0000
1000
0001
1000
0100
0000
0010
,
0001
1000
0010
0000
1010
0000
0001
0000
,
1001
0010
0011
1000
,
1001
0000
0100
0000
0101
0000
1000
0100
,
1000
0100
0010
0001
0010
0001
0010
0000
,
0011
0010
0011
0100
,
1100
0100
1100
0010
,
1001
0000
0100
0000
0001
1000
0100
0000
,
1001
0000
1000
0010
0100
0001
0010
0100
,
0010
0002
0000
0000
1003
0000
0100
1000
,
0100
0020
0000
0031
1000
0010
0100
0001
,
1000
0100
0000
0010
0001
0200
0000
0000
,
0010
0000
0310
1000
0001
1000
0100
1000
,
0001
0000
0100
0001
1000
0000
0010
1000
,
0100
0000
0010
0001
0100
0000
0001
0000
,
1000
0000
0100
1000
0001
0000
0100
0010
,
1000
0000
0010
0100
0001
0000
1000
0000
,
0100
0000
1000
0001
1000
0000
0010
1000
,
0001
0000
0010
0001
0010
0000
0100
1000
,
0010
0000
0100
0001
1000
0000
0001
0010
,
0100
0000
0010
0000
1001
0000
0010
0001
,
0010
0001
0010
0000
1001
0000
0100
1000
,
0100
1000
0100
0000
1001
0000
0010
1000
,
0010
1000
0010
0000
1001
0000
0001
1000
,
0010
0000
0100
0001
1000
0000
0001
0100
,
0001
0100
0001
0000
0001
0000
1000
0100
,
1000
0100
1000
0000
1000
0000
0001
0010
,
0100
1000
0000
1000
0010
0000
0010
0100
,
0000
0100
0001
0000
1000
0000
0100
0010
,
0001
0000
1000
0001
0200
0000
0000
0000
0310
0000
0110
0000
1000
0000
0001
0000
,
0010
0000
0100
1000
0002
0000
0000
0000
1003
0000
1001
0000
0010
0000
1000
0001
,
0200
0000
0000
0000
0000
0000
0000
0000
0301
0000
1000
0000
0100
0000
0000
0000
0010
0000
0000
0010
0000
0000
0010
0000
0001
0000
0000
0000
1000
0000
0001
0000
,
0200
0000
0000
0310
1000
0000
0001
1000
0100
0000
0010
0000
0001
0000
0000
0010
,
0000
0000
0100
0000
1000
0000
0000
0001
0000
0000
0100
0000
0001
0000
1000
0000
,
0010
0000
0100
0000
0001
0000
1000
0100
1000
0001
0000
0000
0100
0000
0000
0000
,
1001
0100
1001
0010
,
1001
0010
1001
1000
,
1010
0000
0001
0000
0011
0000
1000
0100
,
0010
0001
0010
0100
1000
0001
1000
0000
,
0101
0001
1100
1000
,
0011
0001
1010
1000
,
0110
0000
0001
0000
0110
0000
0001
1000
,
0001
1000
0010
0100
0010
0100
0001
0000
;

//---------------dance-single - ----------------
#NOTEDATA:;
#CHARTNAME:;
#STEPSTYPE:dance-single;
#DESCRIPTION:;
#CHARTSTYLE:;
#DIFFICULTY:Hard;
#METER:9;
#RADARVALUES:0.454544,0.649005,0.127665,0.333893,0.049102,324.000000,311.000000,13.000000,34.000000,0.000000,0.000000,0.000000,0.000000,0.000000,0.454544,0.649005,0.127665,0.333893,0.049102,324.000000,311.000000,13.000000,34.000000,0.000000,0.000000,0.000000,0.000000,0.000000;
#CREDIT:;
#NOTES:
0000
0000
0000
0000
,
0000
0000
0000
0000
,
0000
0000
0000
0000
,
0000
0000
0000
0000
,
1000
0000
0000
1000
0010
0000
0000
0010
0100
0000
0000
0100
0001
0000
1000
0000
,
0100
0000
0000
0100
0010
0000
0000
0010
0001
0000
0100
0000
0010
0000
1000
0000
,
0100
0000
0000
0100
0010
0000
0001
0000
1000
0000
0001
0000
0100
0000
0000
0000
,
0001
0010
0100
1000
0100
0000
1000
0000
,
0001
1000
0100
1000
,
0010
1000
0100
0010
,
0001
0100
0001
1000
,
0010
0000
0100
0001
0100
0000
0010
0000
,
1000
0001
1000
0100
,
0010
0100
1000
0001
,
0010
0100
1000
0001
,
0010
0000
0100
0000
1000
0000
0001
1000
,
0001
1000
0020
0000
0100
0000
0030
0000
,
0220
0330
1001
0010
,
1000
0000
0010
0000
0100
0001
1000
0000
,
0000
0000
0001
0100
0001
0200
0000
0000
,
0000
0310
2002
3003
,
0220
0330
0001
0010
,
0100
0000
1000
0000
0010
0000
1000
0001
,
1000
0000
0010
0000
0100
0000
0001
1000
,
0001
1000
0200
0000
1000
0000
0300
0000
,
2002
3003
0101
0001
,
0010
0000
0100
0000
1000
0010
2000
0000
,
0000
3001
1000
0001
,
0010
0200
0000
0000
0310
0000
0001
0000
,
1000
0200
0000
0000
1300
0000
0010
0000
,
0100
0001
0000
1000
0001
1000
0000
0000
,
0000
0000
0000
0000
0000
0000
0100
1000
,
0100
1000
0002
0000
0100
0000
0003
0000
,
2002
3003
1100
0100
,
0010
0000
0001
0000
1000
0010
0100
0000
,
0000
0000
0001
0010
0001
0020
0000
0000
,
0000
0130
2002
3003
,
0220
0000
0330
0000
0001
0010
0100
0000
,
1000
0000
0010
0000
0100
0000
0001
1000
,
0001
0000
0010
0000
0100
0000
1000
0010
,
1000
0010
0200
0000
0010
0000
0300
0000
,
0220
0330
1001
0100
,
0001
0000
0010
0000
0100
1000
0002
0000
,
0000
0103
0010
1000
,
0001
0200
0000
0000
0310
0000
1000
0000
,
0100
0020
0000
0000
0031
0000
1000
0000
,
0010
0100
0000
0001
1000
0100
0000
0000
,
0000
0000
0000
1000
,
0100
0001
0100
1000
,
0010
1000
0100
0001
,
0100
1000
0100
0001
,
0010
0001
0100
1000
,
0010
0001
0010
1000
,
0100
1000
0010
0001
,
0010
1000
0100
0001
,
0100
0010
0000
0001
,
0010
0001
1000
0001
,
0100
0010
1000
0100
,
1000
0001
0010
0100
,
1000
0010
0000
1000
,
0001
0100
0010
0100
,
0001
0010
1000
0010
,
0000
0001
0000
0000
1000
0000
0000
0100
,
0000
1001
0000
0200
,
0310
0000
0001
0100
0002
0000
0000
0000
1003
0000
0001
0000
1000
0000
0100
0000
,
0010
0000
0001
0100
0020
0000
0000
0000
1030
0000
0100
0000
1000
0000
0001
0000
,
0010
0000
0100
1000
0002
0000
0000
0000
1003
0000
0100
0000
1000
0000
0010
0000
,
0100
0000
0010
1000
0200
0000
0000
0000
0310
0000
0001
0000
2000
0000
0000
0000
,
0000
0001
0001
3100
,
0000
0000
0000
0001
,
0010
0001
0100
0010
,
0100
0001
1000
0100
,
1000
0001
0010
0100
,
1000
0010
0100
0010
,
1000
0100
1000
0001
,
0010
0100
0010
0001
,
0100
0010
1000
0001
,
1000
0100
1000
0001
;

//---------------dance-single - ----------------
#NOTEDATA:;
#CHARTNAME:;
#STEPSTYPE:dance-single;
#DESCRIPTION:;
#CHARTSTYLE:;
#DIFFICULTY:Medium;
#METER:6;
#RADARVALUES:0.277777,0.496298,0.029461,0.088383,0.000000,198.000000,195.000000,3.000000,9.000000,0.000000,0.000000,0.000000,0.000000,0.000000,0.277777,0.496298,0.029461,0.088383,0.000000,198.000000,195.000000,3.000000,9.000000,0.000000,0.000000,0.000000,0.000000,0.000000;
#CREDIT:;
#NOTES:
0000
0000
0000
0000
,
0000
0000
0000
0000
,
0000
0000
0000
0000
,
0000
0000
0000
0000
,
1000
0000
0010
0200
0000
0300
0001
0000
,
1000
0000
0100
0000
0010
0001
0010
0001
,
0010
0000
0100
1000
0000
0001
0000
0000
,
0100
0010
0100
0010
1000
0000
0001
0000
,
0000
0010
0000
1000
,
0000
0010
0000
0001
,
0000
0100
0000
0010
,
1000
0100
1000
0010
,
0000
0100
0000
0001
,
0000
0010
0000
0100
,
0000
1000
0000
0001
,
1000
0100
1000
0001
,
0010
0100
1000
0000
,
1001
0000
0010
0000
,
0001
0000
0010
0000
,
0100
0000
1000
0001
,
1000
0100
1000
0000
,
0001
0000
1000
0000
,
0010
0000
0100
0000
,
0001
0000
0010
0001
,
1000
0001
0010
0000
,
0100
0000
0010
0000
,
0001
0000
1000
0000
,
0010
0000
0100
0001
,
1000
0000
0100
1000
,
0001
0000
0010
0001
,
1000
0000
0010
1000
,
0001
0000
0000
1000
,
0010
1000
0100
0000
,
0010
0000
0100
0000
,
0010
0000
0001
0000
,
0100
0000
1000
0100
,
0001
0100
1000
0000
,
0001
0000
1000
0000
,
0010
0000
0001
0000
,
0010
0000
0100
0001
,
1000
0100
1000
0000
,
0001
0000
0010
0000
,
0001
0000
0100
0000
,
0010
0000
1000
0001
,
1000
0000
0010
0100
,
0001
0000
0010
0100
,
1000
0000
0001
1000
,
0100
0000
0000
1000
,
0000
0100
0000
0001
,
0000
0100
0000
1000
,
0000
0010
0000
0001
,
0000
0101
0000
0001
,
0000
0100
0000
1000
,
0000
0100
0000
0001
,
0000
0010
0000
1000
,
0000
1100
0000
0010
,
1000
0100
0000
1000
,
0010
0100
0000
0001
,
0000
1000
0000
0010
,
0000
0100
0000
0001
,
0010
0100
0000
1000
,
0100
0010
0000
0001
,
0000
1000
0000
0010
,
0000
0100
0000
0002
,
1003
2000
3100
2000
,
3001
0000
0002
0000
0103
0000
0001
0010
,
0200
0000
2300
0000
3001
0000
1000
0010
,
0200
0302
1003
0001
,
0000
1000
0000
0010
,
0000
0000
0000
0100
,
0000
0001
0000
0010
,
0000
0001
0000
1000
,
0000
0001
0000
1000
,
0000
0100
0000
0001
,
0000
0100
0000
1000
,
0000
0001
0000
1000
,
0000
0010
0000
0100
,
0000
0001
0000
1000
;

//---------------dance-single - ----------------
#NOTEDATA:;
#CHARTNAME:;
#STEPSTYPE:dance-single;
#DESCRIPTION:;
#CHARTSTYLE:;
#DIFFICULTY:Easy;
#METER:4;
#RADARVALUES:0.199214,0.343591,0.009820,0.039282,0.000000,142.000000,141.000000,1.000000,4.000000,0.000000,0.000000,0.000000,0.000000,0.000000,0.199214,0.343591,0.009820,0.039282,0.000000,142.000000,141.000000,1.000000,4.000000,0.000000,0.000000,0.000000,0.000000,0.000000;
#CREDIT:;
#NOTES:
// measure 0
0000
0000
0000
0000
,  // measure 1
0000
0000
0000
0000
,  // measure 2
0000
0000
0000
0000
,  // measure 3
0000
0000
0000
0000
,  // measure 4
0001
0010
0001
0001
,  // measure 5
1000
1000
0100
0010
,  // measure 6
0100
1000
0001
1000
,  // measure 7
0100
0010
0100
1000
,  // measure 8
0000
1000
0000
1000
,  // measure 9
0000
0010
0000
0001
,  // measure 10
0000
0001
0000
0001
,  // measure 11
0000
0100
0000
1000
,  // measure 12
0000
1000
0000
0001
,  // measure 13
0000
0001
0000
0010
,  // measure 14
0000
0100
0000
0010
,  // measure 15
0000
0100
0000
1000
,  // measure 16
0000
0010
0000
1000
,  // measure 17
0000
0100
0000
1000
,  // measure 18
0000
0001
0000
1000
,  // measure 19
0000
0001
0000
0100
,  // measure 20
0000
0001
0000
0010
,  // measure 21
0000
0001
0000
0100
,  // measure 22
0000
0001
0000
1000
,  // measure 23
0000
0001
0000
1000
,  // measure 24
0000
0100
0000
0010
,  // measure 25
0000
0100
0000
1000
,  // measure 26
0000
0100
0000
1000
,  // measure 27
0000
0100
0000
1000
,  // measure 28
0000
0000
0000
0001
,  // measure 29
0000
0000
0000
0100
,  // measure 30
0000
0010
0000
1000
,  // measure 31
0000
0000
0000
0001
,  // measure 32
0000
0001
0000
1000
,  // measure 33
0000
1000
0000
0001
,  // measure 34
0000
1000
0000
0100
,  // measure 35
0000
0000
0000
0010
,  // measure 36
0000
0010
0000
0100
,  // measure 37
0000
0100
0000
1000
,  // measure 38
0000
0001
0000
0010
,  // measure 39
0000
0100
0000
0010
,  // measure 40
0000
0001
0000
1000
,  // measure 41
0000
0001
0000
1000
,  // measure 42
0000
1000
0000
0100
,  // measure 43
0000
0010
0000
0001
,  // measure 44
0000
0000
0000
1000
,  // measure 45
0000
0000
0000
0010
,  // measure 46
0000
0100
0000
0001
,  // measure 47
0000
0000
0000
1000
,  // measure 48
0000
0000
0000
0001
,  // measure 49
0000
0000
0000
1000
,  // measure 50
0000
0100
0000
0010
,  // measure 51
0000
0001
0000
1000
,  // measure 52
0000
0000
0000
0001
,  // measure 53
0000
0000
0000
0100
,  // measure 54
0000
0010
0000
1000
,  // measure 55
0000
0001
0000
0100
,  // measure 56
0000
0000
0000
0010
,  // measure 57
0000
0000
0000
1000
,  // measure 58
0000
0000
0000
0100
,  // measure 59
0000
1000
0000
0001
,  // measure 60
0000
0000
0000
1000
,  // measure 61
0000
0000
0000
0010
,  // measure 62
0000
0010
0000
0010
,  // measure 63
0000
0010
0000
0100
,  // measure 64
0000
0100
0001
0010
,  // measure 65
0000
0100
1000
0002
,  // measure 66
2003
3100
0000
2000
,  // measure 67
3002
0103
0000
1001
,  // measure 68
0000
0000
0000
0000
,  // measure 69
0000
0000
0000
0010
,  // measure 70
0000
0010
0000
1000
,  // measure 71
0000
1000
0000
0001
,  // measure 72
0000
0001
0000
1000
,  // measure 73
0000
0100
0000
0010
,  // measure 74
0000
0010
0000
0100
,  // measure 75
0000
0100
0000
1000
,  // measure 76
0000
1000
0000
0001
,  // measure 77
0000
0010
0000
0100
;

//---------------dance-single - ----------------
#NOTEDATA:;
#CHARTNAME:;
#STEPSTYPE:dance-single;
#DESCRIPTION:;
#CHARTSTYLE:;
#DIFFICULTY:Beginner;
#METER:2;
#RADARVALUES:0.127665,0.267237,0.000000,0.000000,0.000000,91.000000,91.000000,0.000000,0.000000,0.000000,0.000000,0.000000,0.000000,0.000000,0.127665,0.267237,0.000000,0.000000,0.000000,91.000000,91.000000,0.000000,0.000000,0.000000,0.000000,0.000000,0.000000,0.000000;
#CREDIT:;
#NOTES:
// measure 0
0000
0000
0000
0000
,  // measure 1
0000
0000
0000
0000
,  // measure 2
0000
0000
0000
0000
,  // measure 3
0000
0000
0000
0000
,  // measure 4
0001
0000
0001
0000
,  // measure 5
0010
0010
0010
0000
,  // measure 6
0100
0100
0100
0000
,  // measure 7
1000
1000
1000
0000
,  // measure 8
0000
0000
0000
0001
,  // measure 9
0000
0000
0000
1000
,  // measure 10
0000
0000
0000
0010
,  // measure 11
0000
0010
0000
0010
,  // measure 12
0000
0000
0000
0100
,  // measure 13
0000
0000
0000
0001
,  // measure 14
0000
0000
0000
1000
,  // measure 15
0000
0000
0000
0100
,  // measure 16
0000
0100
0000
0000
,  // measure 17
0000
0010
0000
0000
,  // measure 18
0000
0001
0000
0001
,  // measure 19
0000
0000
0000
1000
,  // measure 20
0000
0000
0000
0010
,  // measure 21
0000
0000
0000
0100
,  // measure 22
0000
0100
0000
0100
,  // measure 23
0000
0000
0000
0001
,  // measure 24
0000
0001
0000
0000
,  // measure 25
0000
1000
0000
0000
,  // measure 26
0000
0100
0000
0100
,  // measure 27
0000
0000
0000
0010
,  // measure 28
0000
0000
0000
0010
,  // measure 29
0000
0000
0000
0100
,  // measure 30
0000
0000
0000
1000
,  // measure 31
0000
0000
0000
0001
,  // measure 32
0000
0001
0000
0000
,  // measure 33
0000
1000
0000
0000
,  // measure 34
0000
0010
0000
0010
,  // measure 35
0000
0000
0000
0100
,  // measure 36
0000
0000
0000
0001
,  // measure 37
0000
0000
0000
1000
,  // measure 38
0000
1000
0000
1000
,  // measure 39
0000
0000
0000
0010
,  // measure 40
0000
0010
0000
0000
,  // measure 41
0000
1000
0000
0000
,  // measure 42
0000
0001
0000
0001
,  // measure 43
0000
0000
0000
0010
,  // measure 44
0000
0000
0000
0100
,  // measure 45
0000
0000
0000
1000
,  // measure 46
0000
0000
0000
0001
,  // measure 47
0000
0000
0000
0100
,  // measure 48
0000
0000
0000
0100
,  // measure 49
0000
0000
0000
0010
,  // measure 50
0000
0000
0000
0010
,  // measure 51
0000
0000
0000
1000
,  // measure 52
0000
0000
0000
1000
,  // measure 53
0000
0000
0000
0001
,  // measure 54
0000
0000
0000
0001
,  // measure 55
0000
0000
0000
0100
,  // measure 56
0000
0000
0000
0100
,  // measure 57
0000
0000
0000
0010
,  // measure 58
0000
0000
0000
0010
,  // measure 59
0000
0000
0000
1000
,  // measure 60
0000
0000
0000
0010
,  // measure 61
0000
0000
0000
0001
,  // measure 62
0000
0000
0000
0010
,  // measure 63
0000
0000
0000
0100
,  // measure 64
0000
0100
0000
0010
,  // measure 65
0000
0010
0000
0001
,  // measure 66
0000
0001
0000
1000
,  // measure 67
0000
1000
0000
0100
,  // measure 68
0000
0000
0000
0000
,  // measure 69
0000
0000
0000
0010
,  // measure 70
0000
0000
0000
0010
,  // measure 71
0000
0000
0000
0001
,  // measure 72
0000
0000
0000
1000
,  // measure 73
0000
0000
0000
0001
,  // measure 74
0000
0000
0000
0100
,  // measure 75
0000
0000
0000
0010
,  // measure 76
0000
0000
0000
1000
,  // measure 77
0000
0000
0000
0100
;
