#TITLE:favOriTe;
#SUBTITLE:;
#ARTIST:LOONA;
#TITLETRANSLIT:;
#SUBTITLETRANSLIT:;
#ARTISTTRANSLIT:;
#CREDIT:;
#BANNER:favOriTe banner.png;
#BACKGROUND:favOriTe bg.png;
#LYRICSPATH:;
#CDTITLE:;
#MUSIC:favOriTe.mp3;
#OFFSET:-9.940;
#SAMPLESTART:39.040;
#SAMPLELENGTH:15.000;
#SELECTABLE:YES;
#BPMS:0.000=99.020;
#STOPS:28.000=0.560
;
#BGCHANGES:;

//---------------dance-single - ----------------
#NOTES:
     dance-single:
     :
     Hard:
     7:
     0.406,0.391,0.144,0.183,0.033:
1000
0001
0100
0010
0100
0001
0100
0000
,
0001
0010
1000
0010
2000
0000
3100
0000
,
0010
0100
0001
0010
1000
0010
0100
0000
,
0010
0001
1000
0010
0200
0000
0301
0000
,
0010
0010
0100
0001
0200
0000
0310
0000
,
1000
1000
0001
0100
0002
0000
0013
0000
,
0100
0100
0010
0100
0100
0001
1000
0010
,
0110
0000
0100
0001
0100
0010
1100
0100
,
0110
0100
0001
0100
0010
0001
0011
0010
,
0110
0001
0010
0100
0010
1000
0101
0010
,
0110
1000
0100
0010
0001
0100
0020
0030
,
2000
3000
0002
0003
0200
0300
1001
0010
,
0100
0100
0001
0010
1000
0000
0011
0100
,
0010
0010
1000
0010
0100
0010
0101
1000
,
0001
0100
0010
1000
1000
0010
0001
0010
,
0100
1000
0200
0000
0302
0003
0010
0010
,
1000
0100
1000
0000
0010
0000
0100
0000
0002
0000
0003
0000
1000
0000
1000
0000
,
0010
0100
0010
0000
0001
0000
0100
0000
0010
0000
0000
0000
1000
0100
1000
0000
,
0001
0010
0001
0000
0100
0000
0100
0000
0110
0000
0010
0000
1000
0000
0100
0000
,
0010
0000
0001
0000
0010
0000
0000
1000
0000
0000
0010
0000
0100
0000
0001
0000
,
0100
0010
1000
0001
0100
0010
1000
0001
,
0010
0001
0010
0100
0010
0000
0001
0010
,
0001
1000
0100
1000
0010
0100
1000
0010
,
0100
0001
0100
0010
1000
0000
0001
0100
,
0010
1000
0002
0000
0103
0000
0010
1000
,
0010
0100
0002
0000
0013
0000
0100
0010
,
1000
0010
0100
0001
0100
0010
0200
0000
,
0000
0300
0000
0000
0000
0000
0000
0000
;

//---------------dance-single - ----------------
#NOTES:
     dance-single:
     :
     Medium:
     4:
     0.256,0.212,0.026,0.052,0.000:
0010
0000
0100
0000
0001
0000
1000
0010
,
0100
0000
0001
0000
0010
0000
0001
0010
,
0100
0000
0010
0000
1000
0000
0001
0100
,
0010
0000
1000
0000
0010
0000
0100
0100
,
0001
0000
0010
0010
0100
0000
0001
0000
,
1000
0000
0010
0010
0200
0000
0300
0000
,
0001
0000
0010
0000
0001
0000
0010
0100
,
0010
0000
0110
0000
1000
1000
1000
0000
,
0001
0000
0100
0000
0001
0001
0010
0000
,
0100
0000
0010
0000
0100
0100
0010
0000
,
0001
0000
0010
0000
1000
1000
0010
0000
,
0100
0010
0100
1001
,
0010
0000
0001
0010
0001
0000
0100
0000
,
0010
0000
1000
0100
1000
0000
0010
0000
,
0100
0000
0001
0010
0001
0001
0100
0000
,
0010
0000
1000
0000
0010
0000
0100
0100
,
0100
0000
0010
1000
0010
0000
0001
0001
,
0001
0000
0100
0010
0100
0000
0010
0000
,
0100
0000
0001
0000
1000
0000
0010
0100
,
0010
0100
0010
0000
0010
0000
0000
0100
,
0000
1000
0000
0010
0000
0100
0000
0001
,
1000
0001
0000
0100
0200
0000
0300
0010
,
0000
0001
0000
0010
0000
0100
0000
0001
,
1000
0001
0000
0010
0010
0000
0100
0000
,
1000
0001
0100
0001
,
0100
0010
0200
0000
0300
0000
0010
0000
,
0001
0000
1000
0000
0010
0010
0020
0000
,
0030
0000
0000
0000
;

//---------------dance-single - ----------------
#NOTES:
     dance-single:
     :
     Easy:
     3:
     0.223,0.248,0.105,0.092,0.000:
0010
0100
0001
0010
,
1000
0010
0200
0300
,
0001
0010
0001
0100
,
0010
1000
0020
0030
,
1000
1000
0100
0010
,
0100
0100
0002
0003
,
0010
0100
0001
1000
,
0010
1000
0010
1000
,
1000
0100
0100
0001
,
0001
0100
0100
0010
,
1000
0001
0100
0011
,
1010
0110
1100
1001
,
0010
0100
0001
1001
,
0010
0001
0100
1001
,
0010
0100
1000
0100
,
0010
0100
0010
1000
,
0100
0002
0103
0010
,
1000
0002
0103
0010
,
0010
0100
0010
1001
,
0100
0010
0010
1000
,
0100
0010
0001
0100
,
0100
0010
0100
0001
,
0010
0100
1000
0010
,
0100
0001
0001
0010
,
0100
0010
0010
1000
,
0001
0200
0300
0010
,
0100
0001
0010
2000
,
3000
0000
0000
0000
;

//---------------dance-single - ----------------
#NOTES:
     dance-single:
     :
     Beginner:
     1:
     0.101,0.107,0.000,0.013,0.000: // measure 1
0010
0000
0000
0000
,  // measure 2
0100
0000
0000
0000
,  // measure 3
0001
0000
0000
0000
,  // measure 4
1000
0000
0000
0000
,  // measure 5
0001
0000
0001
0000
,  // measure 6
0100
0000
0100
0000
,  // measure 7
0001
0000
0000
0000
,  // measure 8
0010
0000
0000
0010
,  // measure 9
0000
0000
0000
0100
,  // measure 10
0000
0000
0000
0001
,  // measure 11
0000
0010
0000
1000
,  // measure 12
1000
1000
1000
0010
,  // measure 13
0000
0010
0000
0100
,  // measure 14
0000
0100
0000
0001
,  // measure 15
0000
1000
0000
0010
,  // measure 16
0000
0100
0000
0001
,  // measure 17
0001
0001
0000
0100
,  // measure 18
0100
0100
0000
0010
,  // measure 19
0000
1000
0000
0010
,  // measure 20
0000
0010
0000
0100
,  // measure 21
0000
0100
0000
0010
,  // measure 22
0010
0010
0000
1000
,  // measure 23
0000
0001
0000
1000
,  // measure 24
1000
1000
0000
0010
,  // measure 25
0000
0100
0000
0001
,  // measure 26
0000
1000
0000
0010
,  // measure 27
0000
0100
0000
0002
,  // measure 28
0000
0003
0000
0000
;
