#TITLE:Where Are You?;
#SUBTITLE:;
#ARTIST:CLC;
#TITLETRANSLIT:;
#SUBTITLETRANSLIT:;
#ARTISTTRANSLIT:;
#CREDIT:;
#BANNER:Where Are You banner.png;
#BACKGROUND:Where Are You bg.png;
#LYRICSPATH:;
#CDTITLE:cdtitle.png;
#MUSIC:Where Are You.mp3;
#OFFSET:-11.820;
#SAMPLESTART:56.320;
#SAMPLELENGTH:15.000;
#SELECTABLE:YES;
#BPMS:0.000=170.000;
#STOPS:;
#BGCHANGES:;

//---------------dance-single - ----------------
#NOTES:
     dance-single:
     :
     Hard:
     8:
     0.544,0.551,0.339,0.208,0.000:
0011
0100
0001
0100
,
1000
0010
1000
1000
,
0110
0001
0010
0100
,
2100
3000
0000
0210
0300
0000
0012
0003
,
0100
0010
1001
0100
,
1000
0100
0010
1000
,
0001
0002
0000
0000
0013
0000
0000
0000
,
1000
2000
0000
0000
3100
0000
0000
0000
,
1001
0000
0010
0100
0010
0000
0001
0010
,
0000
0010
0100
1000
0100
0010
0100
0010
,
1000
0000
1000
0100
0010
0000
0100
0010
,
0000
0100
0010
0001
0010
0000
1000
0001
,
1000
1000
0010
0001
0000
0010
0100
0010
,
0000
1000
0100
0010
0010
0000
0100
0001
,
0100
0010
0010
1000
0000
0100
0100
0001
,
0000
0010
0100
0010
1000
0000
0010
0010
,
0101
0000
0010
1000
0010
0000
0100
1000
,
0000
1000
0100
0010
0001
0010
0100
2000
,
3100
0000
0001
0010
0010
0000
0100
1000
,
0000
1000
0001
1000
0001
0000
0100
0010
,
1100
0100
0010
0100
0000
0001
0100
1000
,
0000
1000
0100
0010
0001
0000
0010
1000
,
0010
0100
0100
0001
0000
0010
0010
1000
,
0000
0100
1000
0100
0010
0000
0100
0001
,
2000
0000
3200
0000
0320
0000
0130
1000
,
0000
0001
0000
0100
0010
0100
0001
1000
,
0000
2000
0000
0000
3010
0000
0100
0010
,
0100
0000
0001
1000
0000
1000
0010
0100
,
0002
0000
0003
0000
0010
0100
0010
0000
,
2000
0000
3000
0000
0010
0100
0100
0001
,
0100
1000
0100
0010
0001
0010
0100
1000
,
0100
0010
0000
0010
0001
0000
0010
0000
,
0110
0000
1001
0000
0010
1000
0100
0010
,
0100
0000
0001
0010
0000
0010
0100
1000
,
0110
0000
1001
0000
0100
1000
0001
0010
,
1001
0000
0100
0010
1001
0000
0010
0100
,
1000
0000
1000
0100
0000
0100
0010
0100
,
0010
0000
1000
0001
1000
0000
0010
0001
,
0010
0000
0100
0010
0000
0010
0000
0010
,
0100
1000
0000
1000
0010
0000
0100
0000
,
0110
0000
1001
0000
0001
0010
0100
0010
,
2000
0000
3100
0020
0000
0130
0100
0010
,
0110
0000
1001
0000
0001
1000
1000
0001
,
0100
0000
0010
2000
0000
3000
0010
0100
,
0010
0000
0100
1000
0000
1000
0001
0100
,
0010
0000
0001
0001
0110
0000
0001
0000
,
1000
0000
0001
0100
0000
1000
0000
0010
,
0000
0100
0000
1000
0011
0000
0110
0000
,
2100
3010
1100
0110
,
0012
0103
0010
1000
,
1001
0000
0010
0100
0010
0000
1000
0000
,
0101
0000
0010
0100
,
2000
3100
0010
0001
,
0200
0310
1000
0001
,
0110
0100
0000
0000
1000
0000
0001
0010
,
1100
0100
0000
0010
0010
0000
0100
0000
,
1001
0000
0000
0000
;

//---------------dance-single - ----------------
#NOTES:
     dance-single:
     :
     Medium:
     5:
     0.375,0.398,0.109,0.033,0.000:
0010
0100
0010
0001
,
1000
0010
0100
1000
,
0010
0001
0010
0001
,
0100
0010
1000
0010
,
0100
0001
0010
0001
,
1000
0010
0100
0001
,
1000
1000
0000
0000
0010
0000
0100
0000
,
0001
0001
0000
0100
0000
0000
0010
0000
,
0100
0010
0100
1000
,
0001
0000
0100
0000
0001
0010
0001
0000
,
0010
0100
0010
1000
,
0010
0000
0100
0000
0010
0100
0010
0000
,
1000
0000
0000
0000
0001
0000
1000
1000
,
0000
0010
0110
0000
,
0100
0000
0000
0000
0001
0000
0010
0010
,
0000
0000
1000
0000
0001
0001
0000
0000
,
0100
0001
0010
0001
,
1000
0000
0010
0000
0100
0001
0100
0000
,
0010
1000
0010
0100
,
0001
0000
1000
0000
0010
0000
0100
1000
,
0100
0000
0000
0000
0001
0000
0100
0100
,
0000
0000
0010
0000
,
0100
0000
0001
1000
,
0100
0100
0000
0010
0000
0000
0100
0000
,
0001
0000
0010
0000
0100
0000
0010
0100
,
0000
0100
0000
0000
1000
0000
0100
0010
,
0000
0010
0000
0000
0100
0000
0001
0000
,
0010
1000
0001
0010
,
2000
3000
0010
0100
,
0002
0003
0100
0010
,
0100
1000
0001
0100
,
0010
0100
0001
0010
,
1001
0000
0010
0000
0100
1000
0100
0000
,
0010
0100
0001
0100
,
1001
0000
0100
0000
0001
0010
0001
0000
,
0100
0010
0100
0001
,
1000
1000
0010
0010
,
0100
0001
0100
0001
,
0010
0000
0100
0001
0000
1000
0000
0010
,
0000
0100
0000
0000
0010
0000
0010
0000
,
1001
0000
1001
0000
0010
0100
0010
0000
,
1000
0010
0100
0001
,
1001
0000
0100
0000
0010
1000
0010
0000
,
0100
0001
0100
0100
,
0010
1000
0010
0001
,
0100
0000
0010
0020
0000
0030
0100
0000
,
1000
0000
0001
0100
0000
1000
0000
0010
,
0000
0100
0000
0001
0001
0000
0010
0000
,
1100
0010
0100
0010
,
1100
0001
0100
0010
,
1000
0000
0001
0100
0001
0000
0010
0000
,
0100
0010
0100
1000
,
0011
0100
0010
1000
,
0011
0100
0010
0001
,
0100
0100
0000
0000
0010
0000
0100
0000
,
0001
0001
0000
1000
1000
0000
0010
0000
,
0100
0000
0000
0000
;

//---------------dance-single - ----------------
#NOTES:
     dance-single:
     :
     Easy:
     3:
     0.330,0.334,0.044,0.033,0.000: // measure 1
0010
0000
0010
0000
,  // measure 2
0100
0000
0100
0000
,  // measure 3
0001
0000
1000
0000
,  // measure 4
0010
0010
0100
0000
,  // measure 5
0010
0001
0100
0000
,  // measure 6
1000
0010
0100
0100
,  // measure 7
0001
0000
0001
0000
,  // measure 8
1000
0000
1000
0000
,  // measure 9
0010
0010
0100
0010
,  // measure 10
1000
0001
0100
0100
,  // measure 11
0001
0010
0001
0001
,  // measure 12
1000
0010
0100
0100
,  // measure 13
0010
1000
0010
1000
,  // measure 14
0100
0001
0100
0100
,  // measure 15
0010
0001
0010
0001
,  // measure 16
0100
0010
0100
0100
,  // measure 17
0010
0001
0010
0100
,  // measure 18
0010
0100
1000
1000
,  // measure 19
0010
1000
0010
0100
,  // measure 20
0001
0100
0010
0010
,  // measure 21
0001
0100
0001
0100
,  // measure 22
0010
1000
0001
0001
,  // measure 23
1000
0010
1000
0010
,  // measure 24
0100
0001
0100
0100
,  // measure 25
0001
0010
0100
1000
,  // measure 26
0100
0100
1000
0100
,  // measure 27
0010
0100
0001
0100
,  // measure 28
0010
0010
1000
0010
,  // measure 29
0200
0000
0310
0010
,  // measure 30
2000
0000
3010
0000
,  // measure 31
1000
0100
0010
0001
,  // measure 32
1000
0100
0010
0010
,  // measure 33
1001
0010
0001
0010
,  // measure 34
0100
0001
0100
0010
,  // measure 35
1001
0010
1000
0100
,  // measure 36
1000
0010
0100
0001
,  // measure 37
0010
0010
0001
0001
,  // measure 38
0100
0010
0100
0010
,  // measure 39
1000
0100
0010
0100
,  // measure 40
0010
0010
0100
0100
,  // measure 41
1001
0010
0001
0001
,  // measure 42
0100
0010
1000
0010
,  // measure 43
1001
0010
1000
1000
,  // measure 44
0010
0100
0001
0100
,  // measure 45
0001
0001
0100
0100
,  // measure 46
0010
0010
1000
1000
,  // measure 47
0010
0100
1000
0100
,  // measure 48
0010
0020
1030
0100
,  // measure 49
1000
0100
0010
0100
,  // measure 50
0001
0100
0010
0010
,  // measure 51
1000
0010
0100
0010
,  // measure 52
0001
0000
0100
0100
,  // measure 53
0010
0001
0010
0100
,  // measure 54
1000
0010
0100
0010
,  // measure 55
1000
0000
1000
0000
,  // measure 56
0010
0000
0010
0000
;
