#TITLE:ViViD;
#SUBTITLE:;
#ARTIST:LOONA;
#TITLETRANSLIT:;
#SUBTITLETRANSLIT:;
#ARTISTTRANSLIT:;
#CREDIT:;
#BANNER:ViViD banner.png;
#BACKGROUND:ViViD bg.png;
#LYRICSPATH:;
#CDTITLE:cdtitle.png;
#MUSIC:ViViD.mp3;
#OFFSET:-10.000;
#SAMPLESTART:46.240;
#SAMPLELENGTH:15.000;
#SELECTABLE:YES;
#BPMS:0.000=106.040;
#STOPS:;
#BGCHANGES:;

//---------------dance-single - ----------------
#NOTES:
     dance-single:
     :
     Hard:
     8:
     0.441,0.390,0.196,0.173,0.237:
0010
0000
0100
1000
0100
0000
0000
0000
0100
0000
0001
0010
0001
0000
0000
0000
,
0010
0000
0100
0001
0100
0000
0000
0000
0010
0000
1000
0100
1000
0000
0000
0000
,
0010
0100
1000
1000
0100
0010
0001
0001
,
0010
0100
0010
1001
,
0010
0000
0001
0010
0100
0000
0000
0000
0100
0000
0010
1000
0100
0000
0000
0000
,
1000
0000
0010
0100
0001
0000
0000
0000
1000
0000
0100
0001
0010
0000
0000
0000
,
0100
0000
0001
1000
0000
0001
0000
0000
0010
0000
1000
0001
0000
1000
0000
0000
,
0001
0010
0100
1000
,
2000
0000
3100
0100
0001
0100
0010
0200
,
0300
0001
0010
0100
0020
0000
2030
0000
,
3001
0010
1000
0010
0001
0100
0010
0100
,
0000
0000
0010
0000
0100
0000
0001
0010
0002
0000
0000
0000
0013
0000
0000
0000
,
0100
1000
0100
0010
0100
0001
0010
0000
,
0010
1000
0010
0001
0100
0000
0010
0000
,
0001
0000
0010
1000
0000
1000
0000
0000
1000
0000
0100
0001
0000
0001
0000
0000
,
1100
0000
0110
0000
1001
0000
0010
0010
,
1001
0000
0010
0000
0100
0001
0000
0002
0000
0000
0000
0000
0013
0000
0010
0000
,
0110
0000
1000
0000
0100
0000
0010
1000
0000
2000
0000
0000
0100
0000
3100
0000
,
0010
0000
0101
0000
0000
0110
0000
0000
1100
0000
0000
0110
0000
0000
0001
0000
,
0010
0000
1000
0000
0100
1000
0000
0020
0000
0000
0000
0000
0130
0000
0100
0000
,
1001
0000
0100
0000
1000
0010
0000
0200
0000
0000
0000
0000
0310
0000
1000
0000
,
0101
0000
0010
0000
0001
0000
1000
0001
0000
2000
0000
0000
0001
0000
3001
0000
,
0010
0000
0100
0001
0000
0001
0000
0000
0100
0000
0010
1000
0000
1000
0000
0000
,
0010
0000
0001
0000
1000
0000
0100
0000
0001
0000
0010
0000
0100
0000
0000
0010
,
0100
1000
0100
2000
3000
0001
0010
0002
,
0003
0100
1000
0100
0001
0000
0001
0000
,
0100
0001
0001
0010
1000
0001
0001
0010
,
0000
0100
0010
1000
0010
0100
0010
0000
,
1001
0010
1000
0020
0030
1000
0010
2000
,
3000
0001
0100
0010
1000
0010
0100
0000
,
1000
0010
1000
0010
0000
0010
0000
0000
0100
0001
0100
0001
0000
0001
0000
0000
,
0010
0000
0100
0000
1000
0000
0100
0000
0010
0000
1000
0000
0001
0000
0000
1000
,
0002
0000
0003
0010
0100
0000
0010
0000
,
1100
0100
0110
0010
0011
0001
1001
0000
;

//---------------dance-single - ----------------
#NOTES:
     dance-single:
     :
     Medium:
     6:
     0.269,0.234,0.069,0.012,0.000:
0100
0000
0010
0000
1000
0100
1000
0000
,
0010
0000
0100
0000
0001
0010
0001
0000
,
0100
0100
0001
0001
,
1000
0100
0010
1001
,
0010
0100
0001
0000
0010
1000
0100
0000
,
1000
0000
0010
0000
0100
0001
0100
0000
,
0010
0010
0100
0100
,
0001
0010
0100
1000
,
0020
0000
0030
0100
0100
0010
0010
0010
,
0000
0100
0000
0100
0001
0000
0001
0000
,
0100
0010
1000
0010
,
0100
0100
0001
0001
,
1000
0000
0010
0000
0100
1000
0100
0000
,
0010
0000
0100
0000
0001
0010
0001
0000
,
0100
1010
0100
0011
,
0100
0010
0100
0010
,
1001
0000
0010
0000
1000
0000
0100
0100
,
0010
0000
1000
0000
0001
0000
0010
0010
,
0100
0001
0010
1000
,
0001
0001
0010
0000
0100
0000
0010
0000
,
1001
0000
0100
0000
0001
0000
0010
0001
,
0001
0000
1000
0000
0010
0000
0100
1000
,
1000
0010
0100
0001
,
0010
0000
0010
0000
0100
0100
0100
0000
,
0001
1000
0010
0100
,
1000
0000
0100
0000
0001
0010
0001
0000
,
0100
0000
0010
0000
1000
0100
1000
0000
,
0010
0000
0100
0001
0100
0000
0010
0000
,
1000
0001
0100
0010
,
0100
0000
0001
0000
1000
0010
1000
0000
,
0010
0010
0010
0000
0100
0100
0100
0000
,
0001
0010
1000
0010
,
0100
0000
0000
0000
0100
0100
0000
0000
,
0010
0001
0010
0110
;

//---------------dance-single - ----------------
#NOTES:
     dance-single:
     :
     Easy:
     3:
     0.231,0.215,0.046,0.081,0.000: // measure 1
0010
0010
0100
0100
,  // measure 2
0001
0001
1000
1000
,  // measure 3
0010
0001
0100
1000
,  // measure 4
0010
0010
0010
0000
,  // measure 5
0100
0100
0001
0001
,  // measure 6
1000
1000
0010
0010
,  // measure 7
0100
1000
0001
0010
,  // measure 8
1000
0100
0010
0000
,  // measure 9
0200
0301
0020
1030
,  // measure 10
0100
0100
0001
0100
,  // measure 11
0010
0010
1000
1000
,  // measure 12
0001
0100
0010
0000
,  // measure 13
0010
1000
0010
1000
,  // measure 14
0100
0001
0100
0000
,  // measure 15
0010
0010
0001
0001
,  // measure 16
0010
0100
1000
0010
,  // measure 17
1001
0010
0100
0001
,  // measure 18
1010
0100
1000
0001
,  // measure 19
0100
0010
0100
0010
,  // measure 20
0001
1000
0010
0100
,  // measure 21
0011
0100
1000
0100
,  // measure 22
0110
0001
0100
0010
,  // measure 23
0100
1000
0100
1000
,  // measure 24
0010
0001
0010
0001
,  // measure 25
0100
2000
3010
0002
,  // measure 26
0103
0010
0100
0100
,  // measure 27
0010
1000
0001
0001
,  // measure 28
0100
0010
0200
0300
,  // measure 29
0001
0020
1030
0200
,  // measure 30
0301
0010
1000
0010
,  // measure 31
0001
0100
0010
0100
,  // measure 32
1000
0010
0100
0010
,  // measure 33
1000
0000
0001
0000
,  // measure 34
0100
0100
0010
0100
;

//---------------dance-single - ----------------
#NOTES:
     dance-single:
     :
     Beginner:
     1:
     0.122,0.155,0.035,0.046,0.000:
0010
0000
0000
0000
,
0010
0000
0000
0000
,
0100
0000
0000
0000
,
0100
0000
0000
0000
,
0001
0000
0000
0000
,
0001
0000
0000
0000
,
1000
0000
0000
0000
,
1000
0000
0000
0000
,
0010
0000
0010
0000
,
0100
0000
0100
0000
,
0001
0000
1000
0000
,
0001
0000
1000
0000
,
0010
0000
0100
0000
,
0100
0000
0010
0000
,
1000
1000
0001
0001
,
0100
0000
0100
0000
,
1001
0000
0000
0010
,
0100
0000
0100
0000
,
0001
0000
0010
0000
,
0100
0000
1000
0000
,
1001
0000
0000
0100
,
0010
0000
0010
0000
,
1000
0000
0100
0000
,
0010
0000
0001
0000
,
0200
0300
0010
0000
,
0002
0003
0010
0000
,
1000
1000
0010
0000
,
0100
0100
0001
0000
,
0020
0030
1000
0000
,
0200
0300
0001
0000
,
0010
0010
0010
0010
,
0010
0000
0100
0000
,
1001
0000
0010
0000
,
0100
0100
0100
0000
;
