#TITLE:Sweet Crazy Love;
#SUBTITLE:;
#ARTIST:ODD EYE CIRCLE (LOONA);
#TITLETRANSLIT:;
#SUBTITLETRANSLIT:;
#ARTISTTRANSLIT:;
#CREDIT:;
#BANNER:Sweet Crazy Love banner.png;
#BACKGROUND:Sweet Crazy Love bg.png;
#LYRICSPATH:;
#CDTITLE:cdtitle.png;
#MUSIC:Sweet Crazy Love.mp3;
#OFFSET:-9.000;
#SAMPLESTART:54.020;
#SAMPLELENGTH:15.000;
#SELECTABLE:YES;
#BPMS:0.000=112.080;
#STOPS:;
#BGCHANGES:;

//---------------dance-single - ----------------
#NOTES:
     dance-single:
     :
     Hard:
     8:
     0.495,0.454,0.362,0.312,0.450:
0100
0010
0001
0010
0000
1000
0000
0010
0000
0001
0010
0100
1000
0000
0000
0000
,
0010
0100
1000
0010
0000
0100
0000
1000
0000
0000
0001
0000
0101
0000
0000
0000
,
0020
0000
0000
0130
0000
0000
2000
0000
0000
3100
0000
0000
0010
0000
0000
0000
,
0011
0000
0000
0110
0000
0000
1100
0000
0000
0000
0100
0000
0100
0000
0000
0000
,
1000
0000
0000
0000
,
0010
0000
1000
0000
0100
0001
0000
0100
0000
1000
0000
0200
0000
0300
0000
0000
,
0001
0000
0100
1000
0100
1000
0000
0010
0000
0100
0000
0000
1001
0000
0000
0000
,
1000
0000
0010
0001
0000
1000
0000
0010
0000
0100
0000
0001
0000
0000
0010
0100
,
0010
0000
1000
0100
0000
0100
0000
0000
2000
0000
0000
0000
3020
0000
0000
0000
,
0130
0000
1000
0000
0001
1000
0000
0010
0000
0001
0000
0010
0000
0000
0000
0000
,
0110
0000
0100
1000
0100
0010
0000
0100
0000
0001
0000
0000
0110
0000
1010
0000
,
0200
0000
0300
0002
0000
0003
2000
0000
0000
0000
0000
3000
0010
0000
0100
0001
,
0010
0000
0000
1100
0000
0000
0010
0000
0000
0000
1100
0000
0010
0000
0100
0000
,
0001
0000
0000
0000
0010
0000
0100
0000
0200
0000
0000
0000
0300
0000
0001
0010
,
0000
1000
0100
0000
0010
0000
0100
0000
0010
0000
0000
0000
1001
0000
0010
0010
,
0000
0100
0000
1000
0100
0000
0001
0000
0100
0000
0110
0000
0000
1000
0000
1000
,
0000
0100
0000
0000
0010
0000
0100
0000
0001
0000
0010
0000
1000
0000
0100
0000
,
0011
0000
0000
0000
0020
0000
0130
0000
1000
0000
0000
0100
0000
0001
0000
1000
,
0000
0010
0100
0000
0001
0000
1000
0000
1010
0000
0000
0000
0100
0000
0001
0000
,
0000
0001
0010
0100
0000
0010
0100
1000
,
0000
0000
0010
0000
0010
0000
0100
0000
1000
0001
1000
0001
1000
0000
1000
0000
,
0110
0000
1001
0000
0110
0010
0110
1000
,
0002
0000
0000
0023
0000
0000
0230
0000
0000
0300
1000
0000
0010
0100
1000
0000
,
0010
0000
0000
0100
0000
0000
0011
0000
0000
0000
0100
0000
1000
0000
0100
0000
,
0020
0230
0302
2003
,
3010
0000
0100
0000
1000
0000
0010
0000
0100
0000
0001
0100
0000
0000
0010
0000
,
1100
0000
0000
0110
0000
0000
0210
0000
0000
0300
0000
0000
0001
0010
0001
0010
,
0000
0100
0100
0010
0010
1000
0001
1000
,
0002
0003
0110
0000
1000
0001
0100
1000
,
0011
0000
0000
0110
0000
1001
0000
0100
0000
0100
0000
0000
1001
0000
0000
0000
,
1000
0000
0100
0010
0000
0100
0020
0000
0000
0000
0130
0000
1000
0000
0001
0000
,
0110
0000
0000
1000
0000
0100
0000
0010
0001
0000
0010
0000
0100
0000
0000
0000
,
0020
0000
0030
2000
0000
3000
0002
0000
0003
0200
0300
0000
0020
0000
0030
0000
,
1001
0000
0000
0000
;

//---------------dance-single - ----------------
#NOTES:
     dance-single:
     :
     Medium:
     7:
     0.298,0.309,0.037,0.100,0.000:
0010
0000
0010
0000
0100
0001
0100
0000
,
1000
0000
1000
0000
0100
0010
0100
0000
,
0001
0000
0010
0000
0100
1000
0100
0000
,
0010
0100
0001
1000
,
0000
0000
0000
0000
,
0010
0100
0010
0000
1000
0000
0100
0000
,
0001
0010
0001
0000
0100
0000
0100
0000
,
0001
0010
0100
0000
0010
0000
1000
0000
,
0010
0100
0010
0000
1000
0001
1000
0000
,
0010
0100
1000
0000
0010
0000
0100
0000
,
0001
0010
0001
0000
1000
0000
0010
0000
,
0100
1000
0100
0010
,
1000
0100
0010
0000
0100
0010
0001
0000
,
0020
0000
0130
0000
2000
0000
0000
3000
,
0001
0010
0100
0100
,
0010
0000
1000
0000
0001
0001
0010
0000
,
0100
0000
0010
0000
1000
1000
0010
0000
,
0200
0000
0310
0000
0002
0000
0000
0003
,
0100
0000
0010
0000
0100
1000
0100
0000
,
0001
0000
0100
0000
0001
0010
0001
0000
,
0100
0100
0100
0000
0010
0000
1000
0000
,
0101
0000
0110
0000
0100
0100
0100
0000
,
0010
0000
1000
0000
0010
0100
0010
0000
,
0100
0000
0001
0000
1000
0010
1000
0000
,
0002
0023
0230
2300
,
3010
0010
0010
0000
1000
1000
1000
0000
,
0001
0001
0001
0000
0100
0100
0100
0000
,
0010
1000
0010
0100
,
0001
0000
1000
0000
0010
0100
0010
0000
,
1000
0000
1000
0000
0010
0100
0010
0000
,
1000
0000
0001
0000
0100
0010
0100
0000
,
0001
0000
0001
0000
0010
0100
0010
0000
,
1000
0000
0100
0000
0001
0010
0100
0000
,
0110
0000
0000
0000
;

//---------------dance-single - ----------------
#NOTES:
     dance-single:
     :
     Easy:
     5:
     0.252,0.247,0.062,0.087,0.000: // measure 1
0100
0010
0100
0010
,  // measure 2
0001
1000
0001
1000
,  // measure 3
0001
0010
0100
1000
,  // measure 4
0010
0100
1000
0100
,  // measure 5
0000
0000
0000
0000
,  // measure 6
0100
0100
0010
0100
,  // measure 7
0001
0001
0010
1000
,  // measure 8
0010
0010
0100
1000
,  // measure 9
0010
0100
0001
0100
,  // measure 10
0001
0001
1000
0010
,  // measure 11
0100
0100
1000
0010
,  // measure 12
0100
0001
0200
0310
,  // measure 13
1000
0010
0100
0001
,  // measure 14
0020
0130
0002
0013
,  // measure 15
1000
1000
0100
0010
,  // measure 16
0100
0001
0100
0010
,  // measure 17
1000
0001
0010
0001
,  // measure 18
0020
0130
2000
3100
,  // measure 19
0001
0100
0010
1000
,  // measure 20
0010
0100
0010
0001
,  // measure 21
1000
0100
0010
0001
,  // measure 22
0110
1001
0010
0010
,  // measure 23
0100
1000
0010
0010
,  // measure 24
0100
0001
0100
0001
,  // measure 25
0010
0100
1000
0110
,  // measure 26
1100
0011
0100
0100
,  // measure 27
0001
1000
0100
0100
,  // measure 28
0010
1000
0100
0001
,  // measure 29
0100
0010
0100
0010
,  // measure 30
2000
3100
0010
0010
,  // measure 31
0100
0001
1000
0010
,  // measure 32
0002
0103
0010
0010
,  // measure 33
1000
0010
0001
0100
,  // measure 34
0010
0000
0000
0000
;

//---------------dance-single - ----------------
#NOTES:
     dance-single:
     :
     Beginner:
     2:
     0.139,0.165,0.025,0.037,0.000:
0100
0000
0100
0000
,
0001
0000
0001
0000
,
1000
0000
1000
0000
,
0010
0000
0010
0000
,
0200
0000
0000
0300
,
0010
0000
0010
0000
,
0001
0000
0001
0000
,
1000
0000
1000
0000
,
0010
0000
0010
0000
,
0100
0000
0001
0000
,
1000
0000
0010
0000
,
0001
0000
0100
0000
,
0010
0000
1000
0000
,
0010
0010
0020
0030
,
0100
1000
0100
0000
,
0010
0010
0100
0000
,
0001
0001
0010
0000
,
1000
1000
2000
3000
,
0010
0000
0010
0000
,
0100
0000
0001
0000
,
1000
0000
0010
0000
,
1001
0000
0010
0010
,
0100
0000
0001
0000
,
1000
0000
0010
0000
,
0100
0000
0001
0000
,
0110
0000
1000
1000
,
0010
0000
0100
0000
,
0001
0000
0010
0000
,
1000
0000
0010
0000
,
0100
0000
0001
0000
,
0100
0000
0001
0000
,
0010
0000
1000
0000
,
0010
0000
1000
0000
,
0010
0000
0000
0000
;
