#TITLE:Starry Night;
#SUBTITLE:;
#ARTIST:MAMAMOO;
#TITLETRANSLIT:;
#SUBTITLETRANSLIT:;
#ARTISTTRANSLIT:;
#CREDIT:;
#BANNER:Z-5 banner.png;
#BACKGROUND:Z-5 bg.png;
#LYRICSPATH:;
#CDTITLE:;
#MUSIC:Z-5.mp3;
#OFFSET:-8.380;
#SAMPLESTART:57.180;
#SAMPLELENGTH:15.000;
#SELECTABLE:YES;
#BPMS:0.000=124.080;
#STOPS:;
#BGCHANGES:;

//---------------dance-single - ----------------
#NOTES:
     dance-single:
     :
     Hard:
     8:
     0.479,0.467,0.182,0.285,0.291:
0010
1100
0010
0101
,
0010
1001
0100
0011
,
1000
0110
1000
0101
,
0020
0000
0030
0000
,
0010
0000
1000
0001
0000
0100
0010
0000
0001
0010
0000
0100
,
1000
0000
0100
1000
0000
0100
0010
0000
0020
0000
0000
0030
,
0100
0000
1000
0010
0000
0100
0010
0000
0100
0001
0000
0100
,
0010
0000
1000
0001
1000
0000
0020
0030
,
0100
0000
0000
0001
0000
1000
0010
0000
0100
0010
0000
1000
,
0010
0000
0001
0100
0000
0010
1000
0000
0010
0100
0000
0001
,
0100
0000
0000
0000
1000
0000
0000
0000
0010
0000
0000
0000
0001
0010
0001
0000
,
0100
0000
1000
0010
0000
0100
0010
0000
0000
0100
0000
0000
,
0001
0010
0100
1000
0100
0020
0000
0030
0100
0010
0001
0020
,
0000
0000
0030
0000
0100
0000
1000
0000
0100
0000
0020
0000
0000
0000
0030
0000
0000
0000
0100
0000
0000
0100
0000
0000
,
0010
0000
1000
0100
0000
0100
0010
0000
0001
0000
0001
0000
0010
0000
1000
0000
,
0020
0000
0030
0000
0000
0000
0100
0000
0000
0002
0000
0000
0003
0000
0000
1000
0000
0000
0010
0000
0000
0100
0000
0000
,
0010
0001
0000
0001
0000
0001
0010
0000
1000
0000
1000
0000
0010
0000
0100
0000
,
1000
0000
0000
0000
0000
0000
0010
0000
0000
0100
0000
0000
0001
0000
0000
0010
0000
0000
0100
0000
0000
0000
0000
0000
1000
0000
0000
0000
0000
0000
0000
0000
0000
0000
0000
0000
0010
0000
0000
0000
0100
0000
0000
0000
0010
0000
0000
0000
,
0200
0000
0000
0300
0000
0000
0001
0000
1000
0000
0001
0000
2000
0000
0000
3000
0000
0000
0010
0000
0000
0010
0000
0000
,
1000
0001
0100
0010
1000
0000
0010
0010
,
0210
1300
0002
0103
,
0010
0000
1000
0100
0001
0000
0100
0001
,
1010
0110
1001
0011
,
0100
0010
0001
1000
0001
0010
0100
0020
,
1000
0000
0001
0000
0100
0030
1000
0001
,
2000
3000
0001
0010
0100
0010
0100
2000
,
0000
3010
0000
0100
0000
0001
0010
0002
,
0003
0020
0030
0200
0300
0001
0010
0100
,
0000
0200
0000
0000
0310
0000
0100
0001
,
0100
0000
0001
0010
0100
1000
0100
0020
,
0000
0030
0100
0000
0001
0010
1000
0010
,
0000
0100
1000
0100
0001
0100
0010
0100
,
0000
0000
0001
1000
0010
0100
0001
0000
,
0110
0000
0000
1000
0000
0000
1000
0000
0000
0000
0010
0000
0100
0000
0001
0000
,
1100
0000
0000
0010
0000
0000
0010
0000
0000
0000
0100
0000
0001
0000
0100
0000
,
0010
0000
0000
1000
0200
0300
0000
0100
0020
0030
0000
0010
0002
0003
0000
0000
,
0010
0000
0100
0001
1000
0010
0001
0000
,
1100
0000
0000
0001
0000
0000
0100
0000
0000
0000
0010
0000
0100
0000
0001
0000
,
1010
0000
0000
0100
0000
0000
1000
0000
0000
0000
0100
0000
0010
0000
0001
0000
,
0020
0000
0030
0100
0000
0000
0001
0000
2000
0000
3000
0010
0000
0000
0100
0000
,
0001
0000
0010
0100
0001
0100
0010
0000
,
1001
0000
0000
0000
;

//---------------dance-single - ----------------
#NOTES:
     dance-single:
     :
     Medium:
     5:
     0.340,0.397,0.239,0.114,0.000:
0010
0110
0100
1100
,
0100
0011
0100
0011
,
0010
0110
1000
0011
,
0200
0000
0300
0010
,
0100
0101
0010
1000
,
0001
0010
0100
0000
0010
0000
0010
0000
,
1000
0110
1000
0100
,
0001
0000
0100
0010
0100
0000
0020
0000
,
0130
1000
0100
0001
,
0100
0010
0100
0000
0001
1000
0001
0000
,
2000
3100
0010
0100
,
0001
0000
0001
0000
0010
0000
0100
1000
,
0100
0000
0010
0000
0100
0000
0010
0001
,
0010
0000
0100
0010
0200
0000
0300
0000
,
0010
0010
1000
0010
,
0100
0000
1000
0100
0000
0100
0010
0000
,
0010
0100
0001
0010
,
1000
0010
1000
0000
0010
0000
0100
0000
,
0001
0000
0010
0001
0010
0000
0100
0000
,
0010
0000
1000
0001
1000
0000
0001
1000
,
0001
0010
0100
1000
,
0020
0000
0000
0030
0000
0000
0000
0000
,
1001
1100
0110
0011
,
0100
0100
0100
0100
0010
0010
0010
0010
,
2000
0000
0000
3010
,
0010
0100
0001
0100
,
0020
0000
0000
0030
0100
0000
0001
0000
,
0100
0000
0100
0000
0010
0000
1000
0100
,
0000
0200
0000
0300
0010
0000
0100
0001
,
0100
0010
0001
0010
,
1000
0101
0110
1001
,
1100
0110
0011
1001
,
2000
0000
0000
3100
,
0011
0000
0010
0100
0000
0100
0010
0000
,
1000
0000
0010
0100
0000
0100
0010
0000
,
0001
0010
0100
1000
,
0020
0000
0130
0000
1000
0001
1000
0000
,
0010
0000
1000
0100
0000
0100
0010
0000
,
1010
0000
0001
0100
0000
0100
0010
0000
,
1000
0000
0100
0000
0010
0001
0010
0000
,
0100
0000
0010
0001
0010
0000
0100
0000
,
0010
0000
0000
0000
;

//---------------dance-single - ----------------
#NOTES:
     dance-single:
     :
     Easy:
     3:
     0.257,0.210,0.023,0.114,0.000: // measure 1
0010
0100
0010
0100
,  // measure 2
0001
1000
0001
1000
,  // measure 3
0010
0001
0010
0001
,  // measure 4
0200
0000
0300
0010
,  // measure 5
0100
0100
1000
0100
,  // measure 6
0010
0010
0200
0300
,  // measure 7
0010
0001
0010
0100
,  // measure 8
0020
0030
1000
1000
,  // measure 9
0010
0100
0001
0010
,  // measure 10
0001
0010
0100
1000
,  // measure 11
0020
0030
0100
0100
,  // measure 12
0010
0100
0001
0100
,  // measure 13
0001
0010
0100
1000
,  // measure 14
1000
0100
0020
0030
,  // measure 15
0100
0100
0010
0100
,  // measure 16
0001
0010
0001
0001
,  // measure 17
0010
0010
0100
0100
,  // measure 18
0010
1000
0010
0100
,  // measure 19
1000
0010
1000
0010
,  // measure 20
0100
0100
0001
0100
,  // measure 21
0010
0000
1000
0000
,  // measure 22
0010
0000
1001
0000
,  // measure 23
0010
0010
0100
0100
,  // measure 24
0001
0010
0100
1000
,  // measure 25
0200
0000
0000
0310
,  // measure 26
0010
1000
0100
0010
,  // measure 27
0002
0000
0003
0100
,  // measure 28
0010
0010
0010
1000
,  // measure 29
0020
0000
0030
0100
,  // measure 30
0001
0100
0010
0100
,  // measure 31
0020
0000
0030
1000
,  // measure 32
1000
0100
0010
0002
,  // measure 33
0003
0010
0010
0010
,  // measure 34
0010
1000
0010
0100
,  // measure 35
0001
0100
0010
0001
,  // measure 36
1000
0100
0010
0001
,  // measure 37
0100
0010
0010
0010
,  // measure 38
0010
0100
0001
0010
,  // measure 39
0001
1000
0010
0100
,  // measure 40
1000
1000
0010
0010
,  // measure 41
0100
0001
0100
0010
,  // measure 42
0110
0000
0000
0000
;
