#TITLE:Sonatine;
#SUBTITLE:;
#ARTIST:LOONA 1/3;
#TITLETRANSLIT:;
#SUBTITLETRANSLIT:;
#ARTISTTRANSLIT:;
#CREDIT:;
#BANNER:Sonatine banner.png;
#BACKGROUND:Sonatine bg.png;
#LYRICSPATH:;
#CDTITLE:cdtitle.png;
#MUSIC:Sonatine.mp3;
#OFFSET:-16.780;
#SAMPLESTART:54.080;
#SAMPLELENGTH:15.000;
#SELECTABLE:YES;
#BPMS:0.000=127.980;
#STOPS:;
#BGCHANGES:;

//---------------dance-single - ----------------
#NOTES:
     dance-single:
     :
     Hard:
     7:
     0.351,0.295,0.060,0.156,0.054:
0010
1000
0001
0100
0000
0200
0300
0000
,
0001
1000
0100
0010
0000
0020
0030
0000
,
0100
0000
1000
0000
0001
0000
0100
0001
0000
0000
0010
0000
0100
0000
0010
0000
,
0000
0000
1000
0000
0001
0000
2000
0000
0000
3000
0000
0000
0100
0000
0000
0000
,
0001
0010
0100
1000
0000
2000
3000
0000
,
1000
0100
0010
0001
0000
0002
0003
0100
,
0100
0000
0010
1000
0010
0001
0100
0001
,
0000
0010
0100
0010
,
1000
0010
0100
0001
0000
0002
0003
0000
,
0010
0100
0001
1000
0000
2000
3000
0000
,
0010
0100
0010
1000
0000
1000
0000
0001
,
0000
0100
0010
0100
0000
0001
0000
0200
,
0000
0300
0010
0000
1000
0001
1000
0020
,
0000
0030
0100
1000
0000
1000
0000
0100
,
0010
0000
0000
1000
0000
0000
0010
0000
0100
0000
0000
0001
0000
0000
0100
0000
,
0010
0000
0100
0000
0001
0100
1000
0100
,
0000
0001
0000
0100
0000
0010
0000
2000
,
0000
3000
0010
0000
0100
0010
0001
0010
,
0000
1000
0000
0001
0000
0100
0000
0020
,
0000
0030
1000
0001
0100
1000
0010
0100
,
1001
0010
1000
0010
0000
0100
0001
0100
,
0000
0001
1000
0001
0000
0100
0000
0010
,
1000
0100
0010
1000
0000
0001
1000
0001
,
0000
0010
0000
0100
0000
0010
1000
0010
,
0100
0000
0000
0000
0100
0000
0000
0001
0100
0000
0010
0000
1000
0000
0010
0000
,
0000
1000
0000
0010
0000
0100
0000
0001
,
1010
0000
1100
0000
0010
0100
0010
0001
,
0000
1000
0010
1000
0000
0010
0000
0100
,
1000
0000
0000
0100
0000
0000
0010
0000
0001
0000
0000
0010
0000
0000
0100
0000
,
0110
0000
0000
1000
0000
0000
0200
0000
0000
0000
0010
0300
0010
0000
0000
0000
,
0001
0000
0000
0010
0000
0000
0100
0000
1000
0000
0000
0100
0000
0000
0010
0000
,
0101
0000
0010
1000
0000
1000
0010
0100
,
0001
0000
0100
0010
1000
0100
0001
0100
,
0000
0010
1000
0010
0000
0100
0000
0001
,
0200
0000
0000
0000
,
0000
0300
0000
0000
0000
0000
0000
0000
0000
0000
0000
0000
0000
0000
0000
0000
;

//---------------dance-single - ----------------
#NOTES:
     dance-single:
     :
     Medium:
     5:
     0.265,0.251,0.012,0.072,0.000:
0010
0000
0010
0000
0100
0100
0100
0000
,
0001
0000
0001
0000
1000
1000
1000
0000
,
0010
0100
0001
0100
,
0010
1000
0010
0000
,
0100
0000
1000
0000
0001
0001
0001
0000
,
0100
0000
0001
0000
0010
0010
0010
0000
,
1000
0010
0100
0001
,
0200
0000
0000
0000
0000
0300
0000
0000
,
0010
0010
0010
0000
0100
0000
0001
0000
,
1000
1000
1000
0000
0010
0000
0100
0000
,
1000
0001
0100
0010
,
0010
0100
0001
0010
,
0200
0000
0310
0000
0001
0001
0001
0000
,
0020
0130
1000
1000
,
0010
0100
0001
0100
,
0020
0000
0000
0030
0000
0000
0100
0000
,
0100
0000
1000
0000
1000
0000
0010
0100
,
0010
0001
0010
0100
,
1000
0000
0010
0000
0100
0000
0001
0010
,
0001
1000
0100
0010
,
0001
1001
0010
0100
,
0001
0000
1000
0000
0010
0100
0010
0000
,
1000
0100
1000
0000
0001
0000
0100
0000
,
0010
0010
0200
0300
,
0010
0000
0010
0000
1000
0100
1000
0000
,
0010
0000
0100
0000
0001
0010
0001
0000
,
0100
0100
0001
0001
,
0010
0100
0010
0000
1000
0000
1000
0000
,
0100
0010
0000
1000
0000
0001
0000
0100
,
0000
0001
0000
0100
0000
0010
0100
0000
,
0001
1000
0000
0010
0000
0100
0000
0001
,
0000
1000
0000
0010
0000
0100
0000
0001
,
0100
0000
0010
0000
1000
0100
1000
0000
,
0010
0100
0001
0100
,
0020
0000
0000
0030
;

//---------------dance-single - ----------------
#NOTES:
     dance-single:
     :
     Easy:
     3:
     0.222,0.230,0.036,0.012,0.000: // measure 1
0010
0010
0100
0100
,  // measure 2
0001
0001
1000
1000
,  // measure 3
0010
0100
0001
0010
,  // measure 4
1000
0001
0100
0000
,  // measure 5
0010
0010
0001
0001
,  // measure 6
1000
1000
0100
0100
,  // measure 7
1000
0010
0100
0001
,  // measure 8
0100
0000
0010
0010
,  // measure 9
1000
0100
1000
0100
,  // measure 10
0001
0010
0001
0010
,  // measure 11
0100
0100
0001
0001
,  // measure 12
0100
0010
0100
0010
,  // measure 13
1000
0000
1000
0100
,  // measure 14
0001
0000
0001
0010
,  // measure 15
0100
0100
0001
0001
,  // measure 16
0100
0000
0100
0010
,  // measure 17
1000
0100
0010
0001
,  // measure 18
0010
0000
0010
0010
,  // measure 19
0001
0010
0100
1000
,  // measure 20
0100
0000
0100
0000
,  // measure 21
1001
0100
0001
0100
,  // measure 22
0001
0001
1000
0010
,  // measure 23
1001
0100
1000
0010
,  // measure 24
0100
0100
0001
0100
,  // measure 25
0010
0010
1000
1000
,  // measure 26
0001
0100
0001
0100
,  // measure 27
0010
0000
0010
0000
,  // measure 28
1000
1000
1000
0010
,  // measure 29
0110
0100
0001
0100
,  // measure 30
0010
1000
0010
0000
,  // measure 31
0100
0001
1000
1000
,  // measure 32
0010
0100
0001
0001
,  // measure 33
0100
0000
0010
0010
,  // measure 34
1000
0100
0001
0100
,  // measure 35
2000
0000
0000
3000
;

//---------------dance-single - ----------------
#NOTES:
     dance-single:
     :
     Beginner:
     1:
     0.114,0.146,0.012,0.024,0.000:
0010
0000
0000
0000
,
0010
0000
0000
0000
,
0100
0000
0000
0000
,
0100
0000
0000
0000
,
0001
0000
0000
0000
,
0001
0000
0000
0000
,
1000
0000
0000
0000
,
1000
0000
0000
0000
,
0010
0000
1000
0000
,
0010
0000
1000
0000
,
0001
0000
0100
0000
,
0001
0000
0100
0000
,
0020
0000
0030
0000
,
0010
0000
0010
0000
,
1000
0000
0100
0000
,
0010
0000
0001
0000
,
0100
0100
0100
0000
,
0010
0000
0000
0000
,
0001
0001
0001
0000
,
0100
0000
0000
0000
,
1001
0000
0000
0000
,
0100
0100
0010
0010
,
1000
0000
1000
0000
,
0001
0000
0001
0000
,
0100
0000
0100
0000
,
0010
0010
0010
0000
,
0100
0000
0000
0000
,
0100
0100
0100
0100
,
0001
0000
0010
0000
,
0100
0000
1000
0000
,
1000
0000
0100
0000
,
0010
0000
0001
0000
,
0100
0000
0010
0000
,
0100
0000
0010
0000
,
0200
0000
0000
0300
;
