#TITLE:Singing In The Rain;
#SUBTITLE:;
#ARTIST:LOONA;
#TITLETRANSLIT:;
#SUBTITLETRANSLIT:;
#ARTISTTRANSLIT:;
#CREDIT:;
#BANNER:Singing In The Rain banner.png;
#BACKGROUND:Singing In The Rain bg.png;
#LYRICSPATH:;
#CDTITLE:cdtitle.png;
#MUSIC:Singing In The Rain.mp3;
#OFFSET:-7.640;
#SAMPLESTART:47.660;
#SAMPLELENGTH:15.000;
#SELECTABLE:YES;
#BPMS:0.000=138.140;
#STOPS:;
#BGCHANGES:;

//---------------dance-single - ----------------
#NOTES:
     dance-single:
     :
     Hard:
     7:
     0.539,0.504,0.262,0.308,0.146:
1001
0000
0010
0000
0100
0001
0010
0100
,
0010
1000
0100
1000
0001
0100
0010
1000
,
0020
0000
0130
0000
0001
0010
0100
1000
,
0200
0000
0310
0001
0010
0100
0010
0000
,
2000
0000
3010
0100
0001
0010
1000
0010
,
0100
1000
0001
0010
1000
0010
0200
0000
,
0301
0000
0010
0100
0010
1000
0002
0000
,
0103
0000
0010
2000
0000
3010
0100
0001
,
0010
0000
1000
0100
0000
0010
0001
0000
0000
0010
0001
0010
0100
0000
0010
0000
,
0100
0000
2000
0000
0000
0000
3100
0000
0100
0000
0010
0200
0000
0300
0000
0000
,
0001
0000
0001
0010
0000
0100
1000
0000
0001
0010
0100
1000
0100
0000
0010
0000
,
0200
0000
0000
0000
0310
0000
0001
0000
0010
0000
0100
2000
0000
0000
3000
0000
,
0001
0000
0100
0010
0000
0010
0100
0000
1000
0000
0001
0010
0100
0000
0010
0000
,
0100
0000
2000
0000
0001
0000
3001
0000
0010
0000
0100
2000
0000
3000
0000
0000
,
0010
0000
0200
0000
0000
0000
0310
0000
0010
0000
0001
0200
0000
0300
0001
0000
,
0010
1000
0010
0000
0100
0001
0100
0000
0010
0000
1000
0000
0100
0000
0010
0000
,
0001
0000
0010
0000
0100
0000
1000
1000
,
0010
0100
0001
0100
,
0001
0000
1000
0000
0010
0000
0100
0100
,
0001
1000
0100
1000
,
0010
0000
0100
0000
0010
0000
1000
0001
,
1000
0000
0100
0010
0100
0000
0001
0000
,
1000
0001
1000
0001
1000
0001
1000
0001
,
0011
0110
1100
0110
,
2002
3003
0010
0100
0100
0000
0001
0010
,
0100
0000
0000
0000
1000
0000
0000
0000
0000
0100
0000
0000
0010
0000
0000
1000
0000
0000
0100
0000
0000
0001
0000
0000
,
1100
0000
0010
1000
0010
0000
0100
0001
,
1100
0110
0011
0110
,
2002
3003
0001
0100
0100
0000
0010
1000
,
0000
0000
0001
0000
0000
0000
0010
0000
0000
0001
0000
0000
0100
0000
0000
0010
0000
0000
1000
0000
0000
0100
0000
0000
,
1000
0000
0001
0010
0100
0000
0010
0100
,
1100
0110
0011
0110
,
2002
0000
0000
0003
0000
0100
3100
0000
;

//---------------dance-single - ----------------
#NOTES:
     dance-single:
     :
     Medium:
     6:
     0.330,0.302,0.123,0.015,0.000:
0010
0010
0100
0001
,
0100
0000
0010
0000
1000
0100
0010
0001
,
0010
0100
0010
1000
,
0100
0000
1000
0000
0001
0010
0001
0000
,
0100
0010
0100
0100
,
1000
0000
0001
0000
0100
1000
0100
0000
,
0010
0000
0100
0000
0001
0010
0001
0000
,
0100
0100
0010
0010
,
1000
1100
0100
0110
,
0001
0000
0001
0000
0100
0100
0010
0000
,
0001
0011
0010
0110
,
1000
0000
0010
0000
1000
0010
0010
0000
,
0100
1000
0001
0010
,
0100
0000
0100
0000
0001
0001
0010
0000
,
0100
0000
1000
0000
0010
0010
0100
0000
,
0010
0010
0001
0001
0100
0000
0100
0000
,
1000
0100
0010
0001
,
1000
0100
0010
0001
,
0100
0010
0100
0010
,
0001
1000
0001
1000
,
0001
0010
0100
0100
,
0010
0100
1000
1000
,
0001
1000
0001
0000
1000
0001
1000
0000
,
0010
0100
0001
0100
,
1001
0000
0010
0000
,
1000
1000
0100
0000
0010
0000
0001
0000
,
0010
0000
1001
0000
,
0010
1000
0001
0100
,
0010
0000
0000
0000
1001
0000
0010
0010
,
0100
0000
1000
0000
0010
0010
0001
0100
,
0010
0000
1001
0000
,
0010
1000
0001
0100
,
0020
0000
0000
0000
0000
0100
0130
0000
;

//---------------dance-single - ----------------
#NOTES:
     dance-single:
     :
     Easy:
     4:
     0.279,0.252,0.062,0.062,0.000: // measure 1
0010
0010
0100
0001
,  // measure 2
0100
0100
1000
0010
,  // measure 3
1000
1000
0001
0010
,  // measure 4
0001
0001
0100
0010
,  // measure 5
1000
0010
1000
0010
,  // measure 6
0100
0001
0100
0001
,  // measure 7
1010
0000
0100
0100
,  // measure 8
0011
0000
0010
0000
,  // measure 9
1000
1000
0010
0010
,  // measure 10
0100
0001
0100
0001
,  // measure 11
0010
0010
0100
0100
,  // measure 12
1000
0010
1000
0010
,  // measure 13
0100
1000
0001
0001
,  // measure 14
0010
0100
0001
0001
,  // measure 15
1000
0100
0010
0001
,  // measure 16
0100
0100
1000
0010
,  // measure 17
2000
3000
0100
0100
,  // measure 18
0002
0003
0010
0010
,  // measure 19
0100
0010
0100
0001
,  // measure 20
1000
1000
0010
0010
,  // measure 21
0100
0001
0100
0010
,  // measure 22
0100
0001
1000
0010
,  // measure 23
2000
0000
3001
0100
,  // measure 24
0010
0010
0001
0010
,  // measure 25
1001
0000
1000
0010
,  // measure 26
0001
0000
0001
0000
,  // measure 27
0100
0010
1000
0001
,  // measure 28
1000
0000
0100
0100
,  // measure 29
1001
0000
0001
1000
,  // measure 30
0010
0000
0100
0100
,  // measure 31
0001
0010
0001
0100
,  // measure 32
0010
1000
1000
0010
,  // measure 33
0200
0000
0000
0000
0300
0010
0010
0000
;

//---------------dance-single - ----------------
#NOTES:
     dance-single:
     :
     Beginner:
     2:
     0.180,0.172,0.031,0.062,0.000:
0010
0000
0010
0000
,
0100
0000
0100
0000
,
0001
0000
1000
0000
,
0001
0000
0010
0010
,
0100
0000
0100
0000
,
1000
0000
1000
0000
,
0001
0001
0010
0010
,
0100
0000
0100
0000
,
0010
0000
0010
0000
,
1000
1000
1000
0000
,
0100
0000
0100
0000
,
0001
0001
0001
0000
,
0010
0000
1000
0000
,
0010
0000
1000
1000
,
0010
0000
0100
0000
,
0001
0001
0001
0000
,
0010
0000
0010
0000
,
0100
0100
0100
0100
,
0001
0000
0001
0000
,
0010
0010
0010
0010
,
1000
0000
1000
0000
,
0010
0010
0010
0010
,
0100
0000
0100
0000
,
0001
0000
0010
0000
,
2002
0000
3003
0000
,
0010
0000
0010
0000
,
1000
0000
1000
0000
,
0001
0000
0100
0000
,
2002
0000
3003
0000
,
0010
0000
0010
0000
,
0100
0000
0001
0000
,
0100
0000
0100
0000
,
0010
0000
0000
0000
;
