#TITLE:SObeR;
#SUBTITLE:;
#ARTIST:SUZY;
#TITLETRANSLIT:;
#SUBTITLETRANSLIT:;
#ARTISTTRANSLIT:;
#CREDIT:;
#BANNER:Z-4 banner.png;
#BACKGROUND:Z-4 bg.png;
#LYRICSPATH:;
#CDTITLE:;
#MUSIC:Z-4.mp3;
#OFFSET:-8.480;
#SAMPLESTART:40.500;
#SAMPLELENGTH:15.000;
#SELECTABLE:YES;
#BPMS:0.000=120.140;
#STOPS:;
#BGCHANGES:;

//---------------dance-single - ----------------
#NOTES:
     dance-single:
     :
     Hard:
     7:
     0.440,0.431,0.171,0.109,0.000:
1000
0001
0100
0010
0000
0000
0100
0001
,
0010
1000
0010
0100
0000
0100
0001
0000
,
0010
1000
0010
1000
1000
0000
0010
0100
,
0100
1000
0010
0100
0001
0000
0010
0001
,
0010
0100
1000
0010
0000
0010
0100
1000
,
0100
0010
0001
0100
0010
0000
2000
0000
,
3010
0100
0001
0100
0010
0000
1000
0001
,
0011
0110
1100
1001
,
0010
0100
1000
0100
0010
0000
0100
0001
,
0010
0200
0300
2000
3000
0001
0010
1000
,
0010
0001
0100
0010
0100
0000
1000
0100
,
0010
0002
0003
0010
0000
0100
0010
1000
,
0100
1000
0001
0010
0000
0100
0010
1000
,
0100
0002
0003
0100
0000
0010
0100
0000
,
0100
0010
1000
0100
0001
0000
0001
0010
,
0100
1000
0100
0010
0001
0020
0030
0000
,
0110
1000
0110
0001
0110
1000
0010
0100
,
1000
0100
0010
0001
0000
0001
0010
0100
,
0011
0010
0110
0100
1100
0100
0110
0001
,
0010
0100
0010
1000
0000
0010
0100
1000
,
0010
0000
0100
0010
0100
0000
0001
0000
,
0100
0000
0001
0010
0001
0010
0100
1000
,
0100
0000
0010
0100
1000
0000
0100
1000
,
0100
0000
0010
0001
0010
0100
0100
0100
,
0010
1000
0010
0200
0000
0301
0001
0010
,
0100
1000
0010
0100
0000
0100
0010
0100
,
0010
0000
1000
0000
0001
0010
0100
1000
,
0000
1000
0000
0010
0000
0100
0010
0000
;

//---------------dance-single - ----------------
#NOTES:
     dance-single:
     :
     Medium:
     5:
     0.289,0.259,0.016,0.078,0.000:
0010
0000
0100
0001
0001
0000
0010
0000
,
1000
0000
0001
0100
0100
0000
0000
0000
,
0010
0000
1000
0010
0010
0000
0100
0000
,
0001
0010
0100
1000
,
0010
0000
0100
0001
0001
0000
0100
0000
,
0010
1000
0010
0100
,
0001
0000
0100
1000
1000
0000
0010
0000
,
0100
0100
0100
0000
,
0001
0010
0001
0000
0010
0000
0100
0000
,
0010
0020
0000
0000
0030
0000
0100
0000
,
1000
0001
0100
0010
,
1000
2000
0000
0000
0000
0000
3010
0000
,
0100
0000
0001
0100
0000
0000
0010
0000
,
0100
1000
0000
1000
0000
0000
0010
0000
,
0100
0001
0100
0000
0010
0000
1000
0000
,
0010
0100
0001
1000
,
0001
0010
0001
0000
0100
0010
0100
0000
,
1000
0000
0010
0200
0000
0300
0010
0000
,
1000
0100
1000
0000
0010
0100
0010
0000
,
0001
0000
0100
0010
0000
0010
0100
0000
,
0001
0000
1000
0010
0000
0010
0100
0000
,
0001
0000
0100
0001
0000
0001
0100
0000
,
0010
0000
1000
0010
0000
0010
0100
0000
,
1000
0000
0001
0100
0000
0100
0010
0000
,
0100
0000
0010
2000
0000
3000
0010
0000
,
1000
0000
0001
0200
0000
0300
0010
0000
,
0100
0000
0001
0000
0010
0000
1000
0001
,
0000
0010
0000
0100
0000
0000
1001
0000
;

//---------------dance-single - ----------------
#NOTES:
     dance-single:
     :
     Easy:
     3:
     0.246,0.216,0.031,0.062,0.000: // measure 1
0010
0100
0010
0000
,  // measure 2
1000
0001
0100
0100
,  // measure 3
0001
0010
0001
0000
,  // measure 4
0010
0100
0010
0010
,  // measure 5
1000
0010
0001
0010
,  // measure 6
0100
0010
0100
0100
,  // measure 7
0001
0010
1000
0010
,  // measure 8
0001
0001
0001
0000
,  // measure 9
0110
0001
0010
1000
,  // measure 10
0020
0030
0100
0001
,  // measure 11
1000
0010
0100
0001
,  // measure 12
2000
3000
0001
0010
,  // measure 13
0100
0001
0100
0010
,  // measure 14
0100
0100
0010
0010
,  // measure 15
1000
0001
0200
0300
,  // measure 16
0010
1000
0001
0100
,  // measure 17
0010
0010
0100
0100
,  // measure 18
0001
0010
2000
3000
,  // measure 19
0001
0001
1000
1000
,  // measure 20
0100
0001
0100
0010
,  // measure 21
1000
0001
0100
0100
,  // measure 22
0001
1000
0010
0010
,  // measure 23
0100
1000
0010
0100
,  // measure 24
0001
0010
1000
0010
,  // measure 25
1000
1000
1000
0010
,  // measure 26
0001
0001
0001
0100
,  // measure 27
0010
0000
0100
0000
0001
0000
1000
0001
,  // measure 28
0000
1000
0000
0010
0000
0000
1001
0000
;
