#TITLE:ROLLER COASTER;
#SUBTITLE:;
#ARTIST:CHUNG HA;
#TITLETRANSLIT:;
#SUBTITLETRANSLIT:;
#ARTISTTRANSLIT:;
#CREDIT:;
#BANNER:Z-3 banner.png;
#BACKGROUND:Z-3 bg.png;
#LYRICSPATH:;
#CDTITLE:;
#MUSIC:Z-3.mp3;
#OFFSET:-8.100;
#SAMPLESTART:59.780;
#SAMPLELENGTH:15.000;
#SELECTABLE:YES;
#BPMS:0.000=130.100;
#STOPS:;
#BGCHANGES:;

//---------------dance-single - ----------------
#NOTES:
     dance-single:
     :
     Hard:
     7:
     0.476,0.464,0.134,0.078,0.061:
1000
0010
1000
0010
,
0100
0001
0110
0110
,
0001
0100
0001
0100
,
0010
0000
0010
0000
0010
0000
1000
0010
,
0100
0000
0001
0000
0100
0000
0001
0010
,
0000
0010
0100
1000
0100
0000
0001
0010
,
0001
0010
0000
0100
0100
0000
1000
0100
,
1000
0100
0000
0010
0010
0100
0010
0001
,
0010
0000
0100
0000
0001
0000
0010
1000
,
0000
1000
0000
0100
0000
0010
0100
0001
,
0100
0010
0000
1000
0010
1000
0010
0100
,
0001
0100
0000
0020
0230
2300
3000
0100
,
0100
0000
0010
0000
0100
0000
0001
1000
0000
0100
0000
0010
0001
0010
0100
0000
,
1010
0000
1100
0010
0010
0000
0100
0001
,
0100
0000
0010
0000
1000
0000
0100
0001
0000
0000
0001
0000
0010
0000
0100
0000
,
2000
0000
3020
0000
0130
0100
0001
0100
,
0010
1000
0010
0001
0100
0010
1000
0010
,
0100
0000
0100
0000
0001
0010
0100
0010
,
0100
1000
0000
0100
0100
0000
0010
0001
,
0010
0100
0000
0010
0010
0100
0010
1000
,
0011
0000
0000
0001
0000
0000
0010
0000
0100
0000
0010
0000
1000
0000
0010
0000
,
1000
0000
0000
0100
0000
0000
0020
0000
0000
0000
0030
0000
0100
0000
0100
0000
,
0100
0000
0000
0001
0000
0000
0100
0000
0010
0000
0001
0000
0010
0000
0100
0000
,
1000
0000
0000
0010
0000
0000
2000
0000
0000
0000
3000
0000
0110
0000
0001
0000
,
0110
0000
0000
1000
0000
0000
0010
0000
0100
0000
0001
0000
0010
0000
0001
0000
,
0100
0000
0000
0010
0000
0000
1000
0000
0000
0000
0100
0000
0010
0000
0001
0000
,
0010
0100
0010
1000
0010
0100
1000
0010
,
0100
0100
0100
0010
,
1001
0010
0100
0001
1000
0000
1000
0000
,
1001
0010
0100
0001
1000
0000
1000
0000
,
0100
0010
0001
0010
1000
0000
1000
0010
,
0100
0000
0100
0001
0100
0000
0100
0000
,
0110
1000
0100
0010
0001
0000
0001
0000
,
0110
1000
0100
0010
0001
0000
0001
0000
,
0010
0100
0010
1000
0010
0000
0100
0010
,
0100
0000
0100
0100
0001
0010
0100
1000
,
0010
0001
0010
1000
0010
0100
0001
1000
,
0010
1000
0100
0010
0100
0001
1000
0010
,
1000
0100
0010
0001
1000
0010
0100
0001
,
1000
0010
0001
0100
0010
0001
0010
1000
,
0010
0100
1000
0010
0100
0001
0010
0100
,
1000
0010
1000
0001
0100
0010
1000
0100
,
0001
0100
1000
0010
0100
0001
0100
1000
,
0010
0100
0001
1001
;

//---------------dance-single - ----------------
#NOTES:
     dance-single:
     :
     Medium:
     4:
     0.304,0.268,0.011,0.033,0.000:
1000
0010
0100
0010
,
0001
0010
0100
0100
,
0001
1000
0010
1000
,
0010
0000
0100
0000
0001
0000
0010
0100
,
0010
0000
1000
0000
0010
0000
0001
0100
,
0000
0010
0000
0100
0010
0000
1000
0000
,
0001
0001
0000
0010
0010
0000
0100
0000
,
0010
0010
0000
1000
1000
0000
0010
0000
,
0010
0100
0001
0010
,
0100
1000
0010
0100
,
0001
0001
0000
1000
1000
0000
0010
0000
,
0100
0100
0000
0010
0020
0000
0000
0030
,
0100
0001
0100
0001
,
0100
0100
0010
0010
,
1000
0010
0100
0001
,
0100
0100
0010
0010
,
1000
0010
0100
0001
,
0010
0010
0100
0001
,
0100
0100
0000
0001
0001
0000
0010
0000
,
0100
0100
0000
0010
0010
0000
1000
0000
,
0001
0010
0100
1000
,
0020
0030
0000
0010
0000
0000
0100
0000
,
0001
1000
0010
0100
,
2000
3000
0000
1000
0000
0000
0010
0000
,
0100
0100
0001
0100
,
0010
0100
0010
1000
,
0010
0100
0010
0100
0010
0100
0010
0100
,
0000
0000
0010
0010
,
0100
0001
0100
0100
,
0010
1000
0010
0010
,
0100
0001
0010
0001
,
1000
0000
0010
0100
0100
0000
0010
0000
,
1000
0001
0100
0100
,
0001
1000
0100
0100
,
0010
0001
0010
0100
,
0010
0010
0100
0001
,
1000
0100
0010
0100
,
0001
0000
0010
0000
0100
0010
0100
0000
,
0001
0010
1000
0010
,
0100
0000
0001
0000
1000
0010
1000
0000
,
0010
0100
1000
0010
,
0100
0000
1000
0000
0001
0010
0001
0000
,
0100
0010
0100
0001
,
0010
1000
0010
0110
;

//---------------dance-single - ----------------
#NOTES:
     dance-single:
     :
     Easy:
     3:
     0.303,0.268,0.078,0.145,0.000: // measure 1
0010
0100
0010
0100
,  // measure 2
0001
1000
0001
0001
,  // measure 3
0100
0010
0100
0010
,  // measure 4
1000
0100
0010
0001
,  // measure 5
0010
0010
0100
0010
,  // measure 6
0100
0001
0100
0100
,  // measure 7
1001
0100
1000
0100
,  // measure 8
0010
0010
0100
0010
,  // measure 9
1000
0100
0010
0001
,  // measure 10
0001
0010
0100
1000
,  // measure 11
1001
0010
0001
0010
,  // measure 12
0100
0010
1000
0010
,  // measure 13
0100
0100
0001
0100
,  // measure 14
0010
0020
0030
0100
,  // measure 15
0100
0001
0010
1000
,  // measure 16
0010
0020
0030
1000
,  // measure 17
0001
0010
0001
0010
,  // measure 18
0100
0100
0010
1000
,  // measure 19
0010
0010
0100
1000
,  // measure 20
0010
0001
0010
0100
,  // measure 21
0020
0031
0100
0010
,  // measure 22
1000
0010
0200
0300
,  // measure 23
0002
0013
0100
0010
,  // measure 24
0100
0001
0200
0300
,  // measure 25
0010
1000
0010
1000
,  // measure 26
0010
0001
0010
0001
,  // measure 27
0100
0100
0010
0100
,  // measure 28
0000
0000
0010
0100
,  // measure 29
1001
0010
0001
0010
,  // measure 30
1001
0100
1000
0100
,  // measure 31
0010
0001
0100
0010
,  // measure 32
0100
0010
0100
0100
,  // measure 33
1001
0100
0001
0100
,  // measure 34
1001
0010
1000
0010
,  // measure 35
0100
0001
0010
0001
,  // measure 36
1000
0010
0100
0100
,  // measure 37
0002
0013
0100
0010
,  // measure 38
2000
3010
0100
0001
,  // measure 39
0200
0310
1000
0001
,  // measure 40
0020
0031
0100
0100
,  // measure 41
0010
1000
0020
0130
,  // measure 42
0001
1000
0002
0013
,  // measure 43
0100
0010
2000
3100
,  // measure 44
0010
0100
0010
0110
;
