#TITLE:One & Only;
#SUBTITLE:;
#ARTIST:LOONA;
#TITLETRANSLIT:;
#SUBTITLETRANSLIT:;
#ARTISTTRANSLIT:;
#CREDIT:;
#BANNER:One & Only banner.png;
#BACKGROUND:One & Only bg.png;
#LYRICSPATH:;
#CDTITLE:;
#MUSIC:One & Only.mp3;
#OFFSET:-9.100;
#SAMPLESTART:34.980;
#SAMPLELENGTH:15.000;
#SELECTABLE:YES;
#BPMS:0.000=110.120;
#STOPS:;
#BGCHANGES:;

//---------------dance-single - ----------------
#NOTES:
     dance-single:
     :
     Hard:
     9:
     0.511,0.526,0.147,0.163,0.359:
1010
0000
0100
0000
0001
0000
0100
0000
0010
0000
1000
0010
0000
0000
0100
0001
,
0100
0010
1000
0010
0100
0000
0001
0010
0100
1000
0000
0100
0010
0000
0100
0000
,
0001
1000
0010
0100
1000
0010
0100
0001
,
0010
0000
0020
0000
0030
0000
0100
0000
0100
0000
0200
0000
0300
0000
0001
1000
,
0001
0000
0010
0000
0100
0000
1000
0000
0010
0000
1000
0001
0000
0000
0010
0100
,
1000
0100
0010
0001
0010
0000
0100
1000
0010
0000
0100
0000
0001
0000
0100
0000
,
0010
0010
0100
1000
0001
0010
0100
1000
,
0000
1000
0100
0010
0001
0010
0100
0000
,
0010
0001
0100
1000
0010
0100
0001
1000
0010
0000
0100
0001
0100
0000
0010
0000
,
1000
0100
0010
0001
0010
0000
1000
0100
0001
0100
1000
0010
0100
0000
0100
0000
,
0001
0010
0100
0010
0100
1000
0100
0010
0001
0000
0010
0001
0010
0000
0100
0000
,
0001
1000
0010
1000
0001
1000
0010
1000
0200
0000
0000
0000
0310
0000
1000
0000
,
1001
0000
0000
0000
0010
0000
0000
0000
0001
0010
0000
0100
0000
1000
0100
0010
,
0001
0100
0000
0010
0010
1000
0000
1000
,
0010
0100
0001
1000
0001
0010
1000
0000
,
0010
0100
0001
0010
0001
0010
1000
0010
,
0110
0000
1000
0000
0100
0000
0000
0010
0000
0100
0000
0001
0000
1000
0000
0010
,
0100
0010
0100
1000
0001
1000
0001
0000
,
0010
0100
1000
0100
0010
0001
0010
0000
,
0100
0010
1000
0010
0001
0010
0100
0000
,
0011
0000
0000
0010
0000
0000
0120
0000
0000
0030
1000
0000
1000
0000
0001
0000
,
0110
0000
0000
1000
0000
0000
0210
0000
0000
0300
0001
0000
0001
0000
1000
0000
,
1100
0000
0000
0100
0000
0000
0120
0000
0000
0030
0100
0000
0100
0000
0001
0000
,
0200
0000
2300
0000
3002
0000
0023
0030
;

//---------------dance-single - ----------------
#NOTES:
     dance-single:
     :
     Medium:
     5:
     0.278,0.255,0.033,0.065,0.000:
0010
0000
0100
0000
0010
0001
0010
0000
,
0100
0000
0010
0000
1000
0100
0010
0000
,
0100
0000
0100
0000
0010
0100
0010
0000
,
1000
0001
0010
0001
,
0100
0000
0010
0000
0001
0010
0001
0000
,
0010
0000
0100
0000
0010
1000
0010
0000
,
0100
0000
1000
0000
0010
0001
0010
0000
,
0100
0100
0010
0100
,
0001
0010
0100
1000
,
0001
0010
0100
1000
,
0010
0100
0010
0100
,
1000
0001
1000
0001
1000
0000
1000
0000
,
0110
0000
0010
0000
1000
0100
0010
0000
,
0100
0000
0001
0000
0010
0100
0010
0000
,
1000
0100
1000
0100
,
0001
0000
0010
0000
0001
0100
0100
0000
,
0011
0010
0100
0010
,
1000
0000
0010
0000
0100
0001
0100
0000
,
0010
1000
0010
0100
,
0001
0010
0100
0000
0010
0100
1000
0000
,
0010
0000
0010
0000
0100
1000
0100
0000
,
0010
0000
0100
0000
0001
0010
0001
0000
,
0100
0000
0010
0000
1000
0100
0010
0000
,
0002
0023
0230
2300
,
3000
0000
0000
0000
;

//---------------dance-single - ----------------
#NOTES:
     dance-single:
     :
     Easy:
     3:
     0.240,0.213,0.033,0.147,0.000: // measure 1
0010
0100
0010
0010
,  // measure 2
0001
0010
1000
1000
,  // measure 3
0010
0100
0001
1000
,  // measure 4
0020
0030
0200
0300
,  // measure 5
0001
0010
0100
0010
,  // measure 6
1000
0100
0010
0100
,  // measure 7
0001
1000
0010
0001
,  // measure 8
0200
0300
2000
3000
,  // measure 9
0010
0010
0100
0010
,  // measure 10
1000
1000
0001
1000
,  // measure 11
0010
0010
0001
0010
,  // measure 12
0100
0010
1000
0010
,  // measure 13
1001
0010
0100
0010
,  // measure 14
1000
0100
0010
0001
,  // measure 15
0010
0010
0100
0002
,  // measure 16
0103
0010
1000
0010
,  // measure 17
1001
0010
0001
1000
,  // measure 18
0100
1000
0010
0001
,  // measure 19
1000
0001
2000
3100
,  // measure 20
0010
1000
0010
0001
,  // measure 21
0200
0310
1000
1000
,  // measure 22
0020
0130
0001
0001
,  // measure 23
0200
0301
1000
1000
,  // measure 24
0010
0100
0001
0100
;

//---------------dance-single - ----------------
#NOTES:
     dance-single:
     :
     Beginner:
     1:
     0.140,0.155,0.033,0.049,0.000:
1000
0000
1000
0000
,
0010
0000
0010
0000
,
0100
0000
0100
0000
,
0001
0000
0001
0000
,
1000
0000
0010
0000
,
0100
0000
0001
0000
,
0010
0000
0001
0000
,
0100
0000
1000
0000
,
0010
0010
0010
0000
,
0100
0100
0100
0000
,
0001
0001
0001
0000
,
1000
1000
1000
0000
,
0110
0000
0100
0000
,
0001
0000
0100
0000
,
0010
0010
0010
0000
,
0001
0001
0001
0000
,
1001
0000
0100
0000
,
1000
0000
0010
0000
,
0100
0100
0100
0000
,
1000
1000
1000
0000
,
0020
0000
0030
0000
,
0200
0000
0300
0000
,
0002
0000
0003
0000
,
0010
0010
0010
0010
;
