#TITLE:New;
#SUBTITLE:;
#ARTIST:LOONA;
#TITLETRANSLIT:;
#SUBTITLETRANSLIT:;
#ARTISTTRANSLIT:;
#CREDIT:;
#BANNER:New banner.png;
#BACKGROUND:New bg.png;
#LYRICSPATH:;
#CDTITLE:cdtitle.png;
#MUSIC:New.mp3;
#OFFSET:-9.200;
#SAMPLESTART:44.840;
#SAMPLELENGTH:15.000;
#SELECTABLE:YES;
#BPMS:0.000=107.900;
#STOPS:;
#BGCHANGES:;

//---------------dance-single - ----------------
#NOTES:
     dance-single:
     :
     Hard:
     7:
     0.477,0.456,0.333,0.285,0.198:
0110
0000
0001
0020
0000
0000
0000
0030
0000
0000
0100
1000
0100
0000
0010
0000
,
1000
0000
0100
0002
0000
0000
0000
0003
0010
0000
0100
0000
1000
0000
0010
0100
,
0010
0000
1000
0002
0000
0000
0000
0003
1000
0000
0001
0000
0100
0000
0001
0000
,
0000
0000
0110
0000
0000
1100
0000
0000
1010
0000
0000
0100
0000
0000
0001
0000
,
0110
0000
0001
2000
0000
3000
0100
0000
0100
0000
0010
1000
0001
0000
0100
0000
,
1000
0000
0010
0002
0000
0003
0100
0000
0100
0000
0010
0100
0010
0001
0100
1000
,
0100
0000
0010
0200
0000
0300
0001
0000
1000
0000
1000
0000
0010
0000
0100
0000
,
0000
0000
0011
0000
0000
0110
0000
0000
1100
0000
0100
0000
0100
0000
0010
0000
,
0210
0000
0300
0000
2000
0000
0000
3000
0002
0000
0000
0003
0100
0000
0010
1000
,
0000
0100
0001
0100
0100
0001
0001
0010
,
2000
0000
0000
3000
0002
0000
0000
0003
0200
0000
0000
0300
1010
0000
0000
1001
,
0000
0000
0010
0000
0000
0010
0000
0000
0010
0000
1000
0000
0001
0000
0100
0000
,
2100
0000
3000
0000
0020
0000
0030
0000
0002
0000
0000
0003
0100
0000
0010
1000
,
0000
0000
0100
0000
0000
0001
0000
0000
0100
0000
0010
0000
1000
0000
0010
0000
,
0000
0100
0001
0100
0000
0010
0010
0100
,
1000
0100
0010
0001
0000
0110
1000
0100
,
1001
0010
0100
1000
0010
1000
0001
0100
,
0010
1000
0100
0001
1000
0100
1000
0010
,
0200
0000
0301
0010
0002
0000
0013
0100
,
2000
0000
3010
0010
0000
1100
0110
0011
,
0110
1000
0100
0001
0010
0100
0010
0100
,
0001
1000
0100
0010
0100
0001
1000
0010
,
0100
0000
0011
0000
0010
0100
0000
0100
0010
0000
0000
1100
0000
0000
0110
0000
,
1000
0000
0001
0000
0100
0010
0000
0010
0100
0000
1000
0000
0100
0000
0010
0000
,
0001
0000
0000
0000
;

//---------------dance-single - ----------------
#NOTES:
     dance-single:
     :
     Medium:
     5:
     0.269,0.265,0.063,0.063,0.000:
0100
0010
1000
1000
,
0001
0100
0001
0001
,
0100
0010
1000
1000
,
0001
0001
0001
0000
0100
0100
0100
0000
,
0001
0100
0100
0010
,
1000
0001
0001
0100
,
0010
0100
0100
1000
,
0010
0010
0010
0000
0100
0100
0100
0000
,
0011
1100
0010
0100
,
0001
0010
0001
0000
0100
0000
0001
0000
,
1100
0000
0011
0000
0100
1000
0100
0000
,
0010
0000
0010
0000
0100
0100
0001
0100
,
0100
0010
1000
0001
,
0100
1000
0100
0000
0001
0010
0001
0000
,
0200
0000
0000
0300
0010
0000
0000
0000
,
0002
0000
0000
0003
0010
0000
0100
0100
,
0010
0000
1000
0000
0001
0010
0100
0000
,
0010
0000
1000
0000
0010
0100
0010
0000
,
2000
3100
0020
0031
,
0100
0010
1000
0001
,
0100
0000
0010
0000
1000
0100
1000
0000
,
0001
0000
0100
0000
0001
0010
0001
0000
,
0100
0000
0100
0000
0010
0010
0010
0000
,
1000
0000
0001
0000
0100
0010
0100
0010
;

//---------------dance-single - ----------------
#NOTES:
     dance-single:
     :
     Easy:
     3:
     0.217,0.226,0.063,0.063,0.000: // measure 1
0010
0010
0000
0100
,  // measure 2
0001
0001
0000
0100
,  // measure 3
1000
1000
0000
0001
,  // measure 4
0100
0100
0010
1000
,  // measure 5
0001
0001
0000
0100
,  // measure 6
1000
1000
0000
0010
,  // measure 7
0100
0100
0000
0001
,  // measure 8
0010
1000
0010
0001
,  // measure 9
0010
0010
0010
0100
,  // measure 10
1000
2000
0000
0000
3000
0000
0010
0000
,  // measure 11
0100
0001
1000
0100
,  // measure 12
0001
0010
0001
1000
,  // measure 13
0100
0100
0100
0001
,  // measure 14
0010
0020
0000
0000
0030
0000
0100
0000
,  // measure 15
0001
0001
1000
1000
,  // measure 16
0010
0100
0010
0100
,  // measure 17
1001
0001
0001
0010
,  // measure 18
1001
1000
1000
0010
,  // measure 19
0200
1300
0200
0310
,  // measure 20
0001
0010
0100
1000
,  // measure 21
0110
1000
0010
1000
,  // measure 22
0110
0001
0010
0001
,  // measure 23
1000
0100
0010
0010
,  // measure 24
0100
0010
0001
0001
;

//---------------dance-single - ----------------
#NOTES:
     dance-single:
     :
     Beginner:
     1:
     0.124,0.149,0.032,0.032,0.000:
0010
0000
0000
1000
,
0100
0000
0000
0001
,
0010
0000
0000
0000
,
0100
0100
0100
0000
,
0010
0000
0000
0100
,
0010
0000
0000
1000
,
0001
0000
0000
0100
,
0010
0010
0010
0000
,
1000
0000
1000
0000
,
0010
0000
0010
0000
,
0100
0000
0100
0000
,
0001
0000
0001
0000
,
0100
0000
0010
0000
,
1000
0000
0001
0000
,
0100
0000
0001
0000
,
0010
0000
1000
0000
,
2001
0000
3000
0000
,
0010
0000
0010
0000
,
1000
1000
1000
0000
,
0001
0001
0001
0000
,
0210
0000
0300
0000
,
0010
0000
1000
0000
,
0010
0010
0010
0000
,
0100
0100
0100
0000
;
