#TITLE:Love4Eva;
#SUBTITLE:;
#ARTIST:LOONA yyxy (feat. Grimes);
#TITLETRANSLIT:;
#SUBTITLETRANSLIT:;
#ARTISTTRANSLIT:;
#CREDIT:;
#BANNER:Love4Eva banner.png;
#BACKGROUND:Love4Eva bg.png;
#LYRICSPATH:;
#CDTITLE:;
#MUSIC:Love4Eva.mp3;
#OFFSET:-9.580;
#SAMPLESTART:18.360;
#SAMPLELENGTH:15.000;
#SELECTABLE:YES;
#BPMS:0.000=101.800,16.000=204.080,144.000=101.800,176.000=204.080;
#STOPS:;
#BGCHANGES:;

//---------------dance-single - ----------------
#NOTES:
     dance-single:
     :
     Hard:
     9:
     0.578,0.762,0.138,0.096,0.106: // measure 1
0100
0001
0010
1000
0001
0100
1000
0000
,  // measure 2
0010
0100
0001
0010
0001
1000
0100
0000
,  // measure 3
0010
0100
1000
0100
0010
0100
0001
0010
,  // measure 4
1000
0001
1000
0001
1000
0001
1000
0001
1000
0000
0000
0000
0010
0000
0010
0000
,  // measure 5
1001
0100
0001
0100
,  // measure 6
0001
0000
1000
0010
1000
0000
0010
0000
,  // measure 7
0100
0001
0010
0100
1000
0100
0010
0000
,  // measure 8
0100
1000
0100
0010
0001
0010
0100
0000
,  // measure 9
0001
0010
0100
1000
0100
0000
0100
0000
,  // measure 10
1000
0100
0010
0001
0010
0000
0010
0000
,  // measure 11
1100
0000
0001
0100
0000
0100
0010
0000
,  // measure 12
1000
0010
0000
0001
0010
0100
1000
0000
,  // measure 13
0011
0110
1100
0010
,  // measure 14
0100
0000
0001
1000
0001
0000
0100
0000
,  // measure 15
0001
0010
0100
0010
1000
0000
1000
0000
,  // measure 16
0010
0100
1000
0100
0010
0001
0010
0000
,  // measure 17
0100
0001
0010
1000
0001
0000
0001
0000
,  // measure 18
0010
0100
0001
0010
1000
0000
1000
0000
,  // measure 19
0010
0100
0010
2000
,  // measure 20
3100
0100
0001
0100
,  // measure 21
0001
0010
0100
0001
,  // measure 22
1000
0010
1000
0000
0010
0000
0010
0000
,  // measure 23
0100
0001
1000
0010
,  // measure 24
1000
0100
1000
0000
0001
0000
0100
0000
,  // measure 25
0020
0130
0100
0001
,  // measure 26
1000
0100
0001
0100
1000
0000
0010
0000
,  // measure 27
0100
0000
0001
1000
0000
1000
0001
0000
,  // measure 28
0010
0000
0100
0000
0001
0020
0000
0030
,  // measure 29
1100
0010
0100
0001
,  // measure 30
0100
0010
0100
0000
0001
0000
0001
0000
,  // measure 31
0010
0100
0001
1000
,  // measure 32
0010
0100
1000
0000
0001
0000
0100
0000
,  // measure 33
0020
0000
0000
1030
1000
0000
0010
1000
,  // measure 34
0100
0001
0100
0010
,  // measure 35
0001
0000
1000
0001
0000
0001
0100
0000
,  // measure 36
0010
0000
0100
0000
1000
0001
1000
0010
,  // measure 37
1000
0100
0001
0010
0100
0000
0100
0000
0001
0010
0100
0000
0010
0000
0010
0000
,  // measure 38
1000
0100
0010
0001
0000
0000
1000
0000
0100
0000
0010
0000
0010
0000
0100
0000
,  // measure 39
0001
0010
0100
1000
0100
0000
0100
0000
0010
0000
0100
0010
0100
0000
0001
0000
,  // measure 40
1000
0010
0100
0001
0000
0000
1010
0000
0100
0000
1010
0000
0100
0000
0001
0010
,  // measure 41
0100
0000
0100
0000
0010
0000
1000
0000
0010
0000
0100
0002
0000
0003
1000
0000
,  // measure 42
0010
0100
0001
0200
2300
0000
3000
0010
,  // measure 43
0100
0010
0100
0001
1000
0100
0010
0001
,  // measure 44
1000
0100
0010
0001
0010
0100
1000
0100
0010
0000
0000
0000
0100
0000
0100
0000
,  // measure 45
1001
0010
0100
0001
,  // measure 46
0010
0000
1000
0001
1000
0000
0010
0000
,  // measure 47
1000
0001
0010
0001
1000
0010
0100
0000
,  // measure 48
0010
1000
0100
0001
0100
0010
0100
0000
,  // measure 49
0001
0010
0100
1000
0100
0000
0100
0000
,  // measure 50
1000
0100
0010
0001
0010
0000
0010
0000
,  // measure 51
0110
0000
0001
1000
0000
0100
0010
0000
,  // measure 52
1000
0200
0300
0001
0010
0100
1000
0000
,  // measure 53
1100
0110
0011
0100
,  // measure 54
0001
0000
1000
0010
1000
0000
0100
0000
,  // measure 55
0001
0100
0010
0001
0100
0000
0100
0000
,  // measure 56
0010
1000
0010
0100
0001
0010
0100
0000
,  // measure 57
0010
0100
0001
1000
0010
0000
0010
0000
,  // measure 58
0100
0010
1000
0001
0100
0000
0100
0000
,  // measure 59
0001
0010
0100
2000
,  // measure 60
3010
0000
0010
0000
0100
0010
0100
0000
;

//---------------dance-single - ----------------
#NOTES:
     dance-single:
     :
     Medium:
     6:
     0.410,0.444,0.021,0.159,0.000:
0010
0000
0100
0000
0001
0000
1000
0100
,
1000
0000
0010
0000
0100
0000
0001
0010
,
0001
0000
0100
0100
0100
0000
0010
0000
,
1000
0100
0010
0001
0010
0000
0100
0000
,
0101
0010
1000
0010
,
0100
0001
0010
1000
,
0010
0000
0010
0000
0100
0001
0100
0000
,
0010
0000
0010
0000
1000
0100
1000
0000
,
0010
0100
0001
0010
,
1000
0100
1000
0010
,
0200
0000
0300
0002
0000
0003
2000
0000
,
3000
0020
0000
0030
0100
0000
0100
0000
,
0001
0100
0010
1000
,
0010
0010
0100
0100
,
0010
0000
1000
0000
0001
0010
0001
0000
,
0100
0000
0001
0000
0010
1000
0010
0000
,
0100
1000
0100
0100
,
0001
0010
0001
0001
,
0100
0010
0100
0020
,
0030
1000
1000
1000
,
0010
0100
0001
0010
,
0001
0100
0010
0100
,
0010
1000
0010
0001
,
0100
0010
1000
0010
,
0200
0000
0000
0300
1000
0000
0100
0000
,
0010
0100
0001
0001
,
0200
0000
0300
0002
0000
0003
2000
0000
,
3000
0000
0000
0000
0010
0010
0000
0000
,
0100
0010
1000
0001
,
0010
0001
0100
0010
,
0100
0010
1000
0010
,
1000
1000
0001
0001
,
0100
0010
0100
0000
,
0001
0010
0100
1000
,
0010
0000
0000
1000
0000
0000
0001
0000
,
0010
0100
1000
0010
,
0100
0001
0100
0000
0010
1000
0010
0000
,
0100
0000
1000
0000
0010
0100
0010
0000
,
1000
0100
1000
0000
0001
0010
0001
0000
,
1000
0010
0100
0100
,
0001
0001
0010
0010
0100
0000
0010
0000
,
1000
0100
1000
0200
0000
0300
0000
0000
,
0010
0010
0100
0100
0001
0001
1000
1000
,
0010
0100
0001
1000
,
0110
0001
0010
1000
,
0010
0100
0001
0010
,
1000
0000
0010
0000
0100
0001
0100
0000
,
0010
0000
1000
0000
0010
0100
0010
0000
,
1000
0100
0010
0010
,
0001
0010
0100
0100
,
0002
0000
0003
2000
0000
3000
0020
0000
,
0030
0200
0000
0300
0001
0000
0001
0000
,
1000
0010
0100
0001
,
0010
0001
0100
0010
,
1000
0000
1000
0000
0010
0100
0010
0000
,
1000
0000
1000
0000
0001
0010
0001
0000
,
0100
0010
0001
0100
,
0010
1000
0010
0100
,
0001
0010
0100
2000
,
0000
3000
0010
0000
0100
0100
0100
0000
;

//---------------dance-single - ----------------
#NOTES:
     dance-single:
     :
     Easy:
     3:
     0.360,0.349,0.021,0.106,0.000:
0010
0010
0100
0100
,
0001
0010
1000
0010
,
0100
1000
0010
0100
,
0001
0010
0100
1000
,
1001
0010
0001
0010
,
0100
1000
0100
1000
,
0010
0100
1000
0100
,
0010
0001
0010
0100
,
0002
0013
0010
0100
,
2000
3100
0010
0100
,
0001
0000
0100
0000
,
0001
0010
0100
1000
,
0010
0100
0001
0010
,
0001
1000
0010
0100
,
0010
1000
0010
0010
,
0100
0001
0100
0100
,
0020
0130
0001
0100
,
0002
1003
0010
1000
,
0010
0100
0010
0200
,
0300
0001
1000
1000
,
0010
0001
0100
0010
,
1000
0010
0100
0001
,
1000
0100
1000
0010
,
0100
0001
0010
0100
,
0001
0000
0010
0010
,
0100
0010
1000
1000
,
0010
0000
0100
0000
,
0001
0010
0001
0010
,
1000
0010
0100
1000
,
0010
0001
0100
0010
,
1000
0001
0010
0001
,
0100
1000
0100
0010
,
2000
0000
3000
0000
,
0010
0010
0100
0001
,
0100
0001
0100
0010
,
1000
1000
1000
0000
,
0010
0010
0100
0100
,
0001
0001
1000
0010
,
0100
0100
1000
1000
,
0010
0100
0001
1000
,
0001
0010
0100
1000
,
0010
0100
2000
3000
,
0010
0010
0100
0100
,
0001
0010
1000
0010
,
1001
0010
0100
0001
,
0100
0010
1000
0010
,
0100
0001
0100
0100
,
0010
1000
0001
0001
,
0200
0310
1000
0010
,
2000
3001
0010
0001
,
0100
0000
0001
0000
,
0100
0010
1000
0001
,
1000
0100
0010
0001
,
0100
0010
0001
0010
,
1000
0010
0100
0100
,
0010
0100
0001
0001
,
0100
1000
0010
0010
,
0100
0001
0100
0100
,
0001
0010
0100
0020
,
0030
0000
0100
0100
;

//---------------dance-single - Copied from----------------
#NOTES:
     dance-single:
     Copied from:
     Beginner:
     1:
     0.126,0.188,0.000,0.011,0.000:
0010
0000
0010
0000
,
0100
0000
0100
0000
,
0001
0000
0001
0000
,
1000
0000
1000
0000
,
0010
0000
0000
0000
,
0010
0000
0000
0000
,
0001
0000
0000
0000
,
0001
0000
0000
0000
,
1000
0000
0000
0000
,
1000
0000
0000
0000
,
0010
0000
0000
0000
,
0010
0000
0000
0000
,
0100
0000
0000
0000
,
1000
0000
0000
0000
,
0001
0000
0000
0000
,
0100
0000
0000
0000
,
0010
0000
0000
0000
,
0100
0000
0000
0000
,
0001
0000
0000
0000
,
1000
0000
0000
0000
,
0010
0000
0000
0000
,
0100
0000
0100
0000
,
0001
0000
0000
0000
,
1000
0000
0010
0000
,
0100
0000
0000
0000
,
0001
0000
0010
0000
,
0001
0000
0000
0000
,
0100
0000
0100
0000
,
0010
0000
0000
0000
,
0100
0000
0001
0000
,
0100
0000
0000
0000
,
0010
0000
1000
0000
,
0010
0000
0000
0000
,
0100
0000
0100
0000
,
0001
0000
0000
0000
,
0010
0000
0000
0000
,
0100
0000
0100
0000
,
0010
0010
0010
0000
,
1000
0000
0001
0000
,
1000
1000
1000
0000
,
0010
0000
0100
0000
,
0001
0000
0200
0300
,
0010
0000
1000
0000
,
0010
0100
0010
0000
,
0100
0000
0000
0000
,
0100
0000
0000
0000
,
0001
0000
0000
0000
,
0001
0000
0000
0000
,
1000
0000
0000
0000
,
1000
0000
0000
0000
,
0010
0000
0000
0000
,
0010
0000
0000
0000
,
0100
0000
0000
0000
,
0001
0000
0000
0000
,
0010
0000
0000
0000
,
1000
0000
0000
0000
,
0001
0000
0000
0000
,
0100
0000
0000
0000
,
0010
0000
0000
0000
,
0100
0000
0000
0000
;
