#TITLE:Love Cherry Motion;
#SUBTITLE:;
#ARTIST:LOONA;
#TITLETRANSLIT:;
#SUBTITLETRANSLIT:;
#ARTISTTRANSLIT:;
#CREDIT:;
#BANNER:Love Cherry Motion banner.png;
#BACKGROUND:Love Cherry Motion bg.png;
#LYRICSPATH:;
#CDTITLE:cdtitle.png;
#MUSIC:Love Cherry Motion.mp3;
#OFFSET:-7.300;
#SAMPLESTART:49.360;
#SAMPLELENGTH:15.000;
#SELECTABLE:YES;
#BPMS:0.000=137.020;
#STOPS:;
#BGCHANGES:;

//---------------dance-single - ----------------
#NOTES:
     dance-single:
     :
     Hard:
     8:
     0.560,0.577,0.275,0.132,0.082:
0010
0100
0001
0010
1000
0010
0000
0010
,
1000
0100
1000
0001
0010
0000
1000
0000
,
0002
0000
0003
0010
0100
0000
0010
0000
1000
0000
0010
0000
0100
0000
0000
0000
,
0011
0010
0100
0100
0000
0010
1000
1000
,
0100
0001
0100
0010
1000
0010
0000
0001
,
1000
0100
1000
0001
1000
0100
1000
0000
,
0200
0000
0300
0001
0010
0000
1000
0000
0010
0000
0001
0000
0010
0000
0000
0000
,
1100
0000
0100
0110
0000
0010
1001
0100
,
1000
0010
0100
0001
1000
0000
0001
0010
,
0000
0010
0100
1000
0000
1000
1000
0100
,
0010
1000
0010
0001
0010
0000
0100
1000
,
0000
0010
0100
0100
0001
0100
0100
0000
,
0010
0100
0001
0100
1000
0100
0000
0010
,
0001
1000
0010
1000
0110
0000
0101
0000
,
0020
0000
0030
0100
0001
0000
0010
0000
1000
0000
0001
0000
1000
0000
0000
0000
,
0110
0000
0001
0110
0000
1000
0110
0000
,
0002
0013
0100
1000
,
0010
0100
0001
0100
0010
1000
0010
0100
,
1001
0000
1000
1000
0000
0010
0000
1000
,
0000
0001
0000
0100
0000
0010
0000
1000
,
0011
0100
0010
0100
,
0001
1000
1000
0010
0100
0001
0100
0020
,
0000
0100
0130
0000
1000
0100
0010
2000
,
0000
0100
3100
0010
0001
0010
1000
0010
,
1001
0000
0010
1000
0010
0001
0000
0110
,
0000
1000
0010
1000
0000
0100
0100
0001
,
0000
0010
1000
0010
0000
0100
0001
0100
,
0010
1000
0010
1000
,
0110
0000
0001
0001
0010
1000
0000
0010
,
0000
0100
1000
0100
0000
0001
0100
0001
,
0000
0100
0010
0100
0000
0001
0010
0100
,
1000
0000
0100
0000
0010
0010
0100
0001
,
1000
0020
0030
0100
0001
2000
3000
0010
,
0000
0100
0001
0200
0300
0010
0010
0100
,
0001
0020
0030
1000
0100
0002
0003
0100
,
0000
0010
1000
0200
0300
0001
1000
0010
,
0110
0000
1000
0100
0010
0001
0000
1010
,
0000
0100
0001
0100
0000
0010
1000
0100
,
1000
0000
0010
0100
0000
0100
0001
0100
,
0010
0000
0010
0000
1000
0000
0001
0000
1000
0001
1000
0001
1000
0000
0010
0000
,
1001
0000
0010
0100
0010
0000
1000
0000
0100
0000
0001
0010
0001
0000
0010
0000
,
0010
0100
0100
1000
0011
0010
0100
0001
,
1000
0000
0010
0100
0010
0000
1000
0000
0100
0000
0001
0010
0001
0000
0100
0000
,
0010
1000
1000
0110
0001
0010
1001
0100
,
0011
0000
0100
1000
0100
0000
0100
0000
1000
0000
0010
0001
0010
0000
0100
0000
,
0010
0000
1001
0000
1001
0000
0010
0000
0100
0000
0000
0100
0000
0000
0010
0000
,
0101
0000
0010
1000
0010
0000
0100
0000
1000
0000
0001
0010
0001
0000
0100
0000
,
0010
0000
1000
0100
0010
0000
0100
0000
0001
0000
0100
0000
1001
0000
0000
0000
;

//---------------dance-single - ----------------
#NOTES:
     dance-single:
     :
     Medium:
     6:
     0.364,0.315,0.077,0.044,0.000:
0100
0000
0010
0000
1000
1000
1000
0000
,
0010
0010
0010
0100
0001
0000
0010
0000
,
1000
0001
0100
0010
,
1000
1000
0010
0010
,
0100
0000
0001
0000
0010
0010
0010
0000
,
0001
0001
0001
0010
0100
0000
0010
0000
,
1000
0010
0100
0010
,
1000
1000
0001
0001
,
2000
3100
0020
0031
,
0100
0000
0010
0000
0100
0100
0100
0000
,
0002
0013
0200
1300
,
0010
0000
0100
0000
0001
0001
0001
0000
,
0100
0000
0010
0000
0100
0100
0000
0000
,
0010
1000
0010
0010
,
0100
0001
0010
1000
,
0110
0000
0000
0110
0000
0000
1000
0000
,
0100
0000
0100
0000
0100
0010
0010
0000
,
0001
0000
0001
0000
0001
0010
0010
0000
,
1000
0000
0010
0100
0000
1000
0000
0100
,
0000
0010
0000
0001
0000
0100
0000
0010
,
1000
1000
0001
0001
,
0100
0000
0100
0000
0010
0010
0010
0010
,
1000
0010
0100
0001
,
0100
0100
0010
1000
,
1001
0000
0010
0000
0100
0001
0100
0000
,
0010
1000
0100
1000
,
0010
0110
0100
0110
,
0001
0001
1000
0010
,
0101
0000
0010
0000
1000
0100
1000
0000
,
0010
0100
0001
0100
,
0010
0010
0100
0100
,
0001
0010
0001
0010
0001
0000
0100
0000
,
0010
0010
0000
1000
1000
1000
0000
0010
,
0000
0010
0100
0010
0000
0000
0100
0000
,
0001
0001
0000
0100
0100
0100
0000
0010
,
0000
1000
0010
1000
0000
0000
0100
0000
,
0001
0000
0100
0000
0010
0010
0000
1000
,
0000
0100
0000
0010
0000
0100
0100
0000
,
0001
0010
0001
0010
,
0100
0100
0100
0110
,
0010
0000
1000
0000
0010
0001
0010
0000
,
0100
0000
1000
0000
0010
0100
0010
0000
,
0100
0000
0001
0000
1000
0010
1000
0000
,
0010
0010
0010
0100
0010
0000
0010
0000
,
1000
0000
0001
0000
0010
0001
0010
0000
,
0100
1000
0100
0000
0010
0000
0010
0000
,
1000
0000
0010
0000
1000
0100
1000
0000
,
0001
0100
0010
1000
;

//---------------dance-single - ----------------
#NOTES:
     dance-single:
     :
     Easy:
     4:
     0.305,0.289,0.066,0.088,0.000: // measure 1
0010
0010
0100
0001
,  // measure 2
0100
0100
0010
1000
,  // measure 3
0010
0001
0010
0100
,  // measure 4
0001
0001
0010
0100
,  // measure 5
1000
1000
0010
0100
,  // measure 6
0001
0001
0100
0010
,  // measure 7
1000
0100
1000
0100
,  // measure 8
0010
0001
0100
0010
,  // measure 9
0200
0300
0100
0100
,  // measure 10
0002
0003
0001
0001
,  // measure 11
0100
0010
0100
1000
,  // measure 12
0010
0100
0001
0100
,  // measure 13
0010
0000
0010
0000
1000
1000
0000
0000
,  // measure 14
0010
0100
0001
1000
,  // measure 15
0010
0001
0010
0001
,  // measure 16
0100
1000
0100
1000
,  // measure 17
0010
0020
0130
0200
,  // measure 18
0301
0001
0010
0100
,  // measure 19
1000
0010
1000
0010
,  // measure 20
0001
0100
0001
0100
,  // measure 21
0010
0010
0010
1000
,  // measure 22
0100
0100
0100
0001
,  // measure 23
0010
1000
0010
1000
,  // measure 24
0100
1000
0100
0001
,  // measure 25
0100
0101
0010
0100
,  // measure 26
0001
1000
0010
1000
,  // measure 27
0100
0101
0100
0101
,  // measure 28
0010
0010
0010
1000
,  // measure 29
0001
1010
0100
0001
,  // measure 30
1000
0010
0100
0001
,  // measure 31
0100
0001
0100
0010
,  // measure 32
1000
0010
0100
0010
,  // measure 33
2000
3000
0002
0003
,  // measure 34
0100
0100
0010
0000
,  // measure 35
0020
0030
0200
0300
,  // measure 36
0001
1000
0001
0000
,  // measure 37
0100
0011
0100
0010
,  // measure 38
1000
0001
0100
0010
,  // measure 39
1000
1000
0001
0001
,  // measure 40
0100
0010
0100
0010
,  // measure 41
1001
0010
0001
0010
,  // measure 42
1000
0100
1000
1000
,  // measure 43
0010
0100
1000
0010
,  // measure 44
0100
0010
0001
0010
,  // measure 45
1000
0000
1000
0000
,  // measure 46
0001
0001
0010
0100
,  // measure 47
0001
0000
0001
0000
,  // measure 48
0100
0010
1000
0001
;

//---------------dance-single - ----------------
#NOTES:
     dance-single:
     :
     Beginner:
     1:
     0.157,0.183,0.022,0.066,0.000:
0010
0000
0000
0000
,
0010
0000
0000
0000
,
0100
0000
0001
0000
,
0100
0000
0001
0000
,
1000
0000
0000
0000
,
1000
0000
0000
0000
,
0010
0000
1000
0000
,
0010
0000
1000
0000
,
0002
0000
0003
0000
,
0020
0000
0030
0000
,
0200
0000
0300
0000
,
2000
0000
3000
0000
,
0010
0000
0000
0000
,
0010
0000
0000
0000
,
0100
0000
0010
0000
,
0100
0000
0010
0000
,
2000
0000
0000
3000
,
0100
0000
0000
0000
,
0002
0000
0000
0003
,
0010
0000
0000
0000
,
0100
0000
0100
0000
,
0010
0000
0010
0000
,
0001
0000
0010
0000
,
0100
0000
1000
0000
,
0010
0010
0010
0000
,
0100
0100
0100
0000
,
0001
0000
1000
0000
,
0001
0000
1000
0000
,
0001
0001
0001
0000
,
1000
1000
1000
0000
,
0010
0000
0010
0000
,
0100
0000
0100
0000
,
0001
0001
0010
0000
,
1000
1000
0100
0000
,
0010
0010
0100
0000
,
0100
0100
0010
0000
,
1000
0000
0010
0000
,
0100
0000
0001
0000
,
0010
0000
0000
0010
,
0010
0000
0100
0000
,
1001
0000
0010
0000
,
1000
0000
0001
0000
,
0110
0000
1000
0000
,
0001
0000
0100
0000
,
0010
0000
0010
0000
,
0100
0100
0100
0000
,
1000
0000
1000
0000
,
0010
0010
0010
0000
;
