#TITLE:Love & Live;
#SUBTITLE:;
#ARTIST:LOONA 1/3;
#TITLETRANSLIT:;
#SUBTITLETRANSLIT:;
#ARTISTTRANSLIT:;
#CREDIT:;
#BANNER:Love & Live banner.png;
#BACKGROUND:Love & Live bg.png;
#LYRICSPATH:;
#CDTITLE:cdtitle.png;
#MUSIC:Love & Live.mp3;
#OFFSET:-8.840;
#SAMPLESTART:52.480;
#SAMPLELENGTH:15.000;
#SELECTABLE:YES;
#BPMS:0.000=110.040;
#STOPS:;
#BGCHANGES:;

//---------------dance-single - ----------------
#NOTES:
     dance-single:
     :
     Hard:
     5:
     0.292,0.288,0.068,0.091,0.000:
0200
0010
0001
0310
,
0001
0000
1000
0000
0010
0100
0010
0000
,
1000
0100
0010
0001
,
2002
0000
0000
0003
0000
0000
3000
0000
,
0100
0010
1000
0000
,
0100
0000
0001
0000
0010
1000
0010
0000
,
0100
0100
0001
0001
,
1000
0100
0010
0001
,
0100
1000
0001
0000
,
0100
0010
0100
0000
0001
0010
0001
0000
,
1000
0100
1000
0000
0010
0000
0010
0000
,
0200
0000
0310
0010
,
1100
0010
0100
0001
,
0010
0100
0010
0000
0001
0000
1000
0100
,
1000
0010
0010
0100
,
0002
0000
0000
0003
0100
0100
0010
0100
,
1000
0001
0100
0100
,
0010
0000
1000
0000
0001
0010
0000
0010
,
0200
1000
1000
1300
,
0010
0100
0001
0100
0010
0000
0100
0000
,
1001
0010
0100
0001
,
1000
0010
1000
0000
0100
0001
0100
0000
,
0010
1000
0020
0030
,
0100
1000
0100
0000
0001
0001
0010
0000
,
0100
0010
0001
1000
,
0011
0100
0110
1000
,
0010
0010
0100
0000
1000
1000
0001
0000
,
0010
0100
0010
0100
0010
0000
1000
1000
,
0010
0100
0001
1000
,
0001
0001
0100
0000
0010
1000
0010
0000
,
0100
1000
0100
0001
0010
0000
0000
0000
,
0100
0001
0100
0001
,
1000
0000
0010
0100
0100
0000
0001
0000
,
1000
0100
0010
0000
2000
0000
3010
0000
,
0100
0000
0001
0000
1000
0001
0100
0010
,
0100
0010
0010
0010
,
0110
0000
0000
0000
;

//---------------dance-single - ----------------
#NOTES:
     dance-single:
     :
     Challenge:
     8:
     0.439,0.409,0.114,0.068,0.348:
0001
0010
0100
0000
0010
0100
1000
0000
,
0100
0000
0100
0000
0001
0010
0100
1000
0100
0010
0001
0010
0100
1000
0100
0000
,
0010
1000
0001
0100
,
0002
0000
0000
0000
0000
0000
0000
0000
0010
0010
0000
0000
0000
0003
0000
0000
,
0100
0000
0010
0000
1000
0000
0001
0100
0000
0000
0000
0000
0110
0000
1000
0001
,
1000
0000
0010
0000
1000
0000
0001
0100
0000
0000
0010
0000
1000
0000
0100
0000
,
1000
0000
0010
0100
0000
0000
1000
0000
1000
0000
0000
0000
0001
0000
0000
0000
,
0100
0000
0000
0001
0010
0000
0010
0000
0000
1000
0010
0000
0100
0000
0000
0000
,
0001
0000
0100
0000
0010
0000
1000
0100
0000
0000
0000
0000
1001
0000
0010
0100
,
0010
0000
1000
0000
1000
0000
0001
0100
0000
0000
1000
0000
0001
0000
1000
0000
,
0010
0000
0100
0001
0000
0000
0010
0000
1000
0000
0000
0000
0010
0000
0100
0000
,
0010
0100
0001
1000
,
0101
0000
0010
0000
1000
0000
0001
1000
0000
0000
0010
0000
0010
0000
0100
1000
,
0100
0000
0001
0000
0001
0000
0100
0010
0000
0000
1000
0000
0001
0000
0001
0000
,
1000
0000
0010
0100
0000
0000
0001
0000
0000
0100
0000
0000
0010
0000
1000
0000
,
0001
0000
0100
0000
0010
1000
0001
0100
,
0000
0000
0010
0000
1000
0000
0001
0100
0000
0000
0100
0000
0000
0000
0010
0000
,
0000
0010
1000
0010
0100
0010
0000
1001
,
0000
0010
0001
0010
0001
0100
0010
1000
,
0001
0000
0000
1000
0000
0000
0001
0000
0110
0000
0000
0000
1000
0001
0000
0000
,
1001
0000
0000
0000
0010
0000
1000
0020
0000
0000
0030
0100
0100
0000
0001
0000
,
0100
0000
0000
0000
0001
1000
0000
1000
0000
0000
0010
0000
0100
0000
1000
0000
,
0010
0000
0100
0001
0000
1000
0000
0001
0000
0000
0000
1000
0010
0000
0100
0000
,
1000
0000
0010
0000
0100
0001
0000
0100
0000
0000
0100
0000
0010
0000
1000
0000
,
0010
0000
0000
0000
1000
0000
0001
0100
0001
0000
0000
0000
0100
0000
0010
1000
,
0010
0000
0000
0100
0000
0000
1000
0100
1000
0000
0000
0000
0010
0000
0100
0000
,
0100
0000
0000
0000
0001
0000
0000
0000
0010
0000
0000
1000
0000
0000
0010
0000
,
0100
0000
0001
1000
0000
1000
0000
1000
0000
0000
0010
0000
0100
0010
0100
0000
,
1001
0000
0010
0000
1001
0000
0100
0010
0000
0000
0000
0001
0001
0000
1000
0000
,
0010
0000
0000
0000
1000
0100
0000
0010
0000
0000
1000
0000
0001
0000
0100
0000
,
0010
0000
0001
1000
0000
0010
0000
2000
0000
3000
0000
0001
0100
0000
0010
0000
,
0100
0000
0000
0000
0010
1000
0000
0100
0000
0000
0001
0000
0100
0000
0010
0000
,
1000
0000
0000
0000
0110
0000
0001
1000
0001
0000
0000
0000
0110
0000
1000
0000
,
1000
0000
0010
0100
0000
0100
0000
0002
0000
0000
0000
0003
0100
0000
0010
2000
,
0000
3000
0000
0000
0010
0000
0010
0000
0100
0000
0001
0100
0000
1000
0000
0020
,
0000
0030
0100
1000
0100
0000
0001
0010
;

//---------------dance-single - ----------------
#NOTES:
     dance-single:
     :
     Medium:
     4:
     0.241,0.226,0.023,0.091,0.000:
0100
0000
0002
0000
,
1003
0010
0100
0001
,
1000
0000
0020
0030
,
0200
0000
0000
0000
0010
0000
0000
0300
,
0001
0010
0001
0000
,
0100
0000
1000
0000
0010
0010
0010
0000
,
1000
1000
0001
0001
,
0100
0010
1000
0001
,
0100
1000
0100
0000
,
0010
0000
0100
0000
0001
0001
0001
0000
,
1000
0010
0100
0001
,
2000
0000
0000
3000
0100
0000
0000
0000
,
0010
0100
0001
0000
,
1000
0000
0010
0000
0100
0100
0001
0000
,
1000
0010
0100
0001
,
1000
0000
1000
0000
0010
0010
0010
0000
,
0100
0001
0100
0010
,
1000
0001
0100
0100
,
0020
0000
0000
0000
0000
0030
0000
0000
,
0100
0100
0010
0000
,
1001
0000
0010
0000
1000
1000
1000
0000
,
0010
0100
0001
0100
,
0001
0000
1000
0000
0001
0001
0001
0000
,
0100
0010
0100
1000
,
0010
0010
0100
0100
,
0001
0010
0200
0300
,
0010
1000
0010
1000
,
0010
0010
0010
0000
0100
0000
0001
0000
,
1000
0000
1001
0000
0010
0000
0100
0100
,
0001
0010
0100
1000
,
0001
0001
0001
0000
0200
0000
0300
0000
,
0001
0001
1000
1000
,
0010
0100
0010
0010
,
1000
0000
0100
0000
0002
0000
0100
0003
,
0010
0000
0010
0000
1000
1000
1000
0010
,
1000
0000
0010
0010
,
0010
0000
0000
0000
;

//---------------dance-single - ----------------
#NOTES:
     dance-single:
     :
     Easy:
     3:
     0.228,0.226,0.046,0.103,0.000: // measure 1
0010
0010
0200
0300
,  // measure 2
0001
0010
0100
1000
,  // measure 3
0001
0001
0200
0300
,  // measure 4
0020
0000
0000
0030
,  // measure 5
0100
0100
1000
0000
,  // measure 6
0100
1000
0010
0100
,  // measure 7
0001
0001
0010
0010
,  // measure 8
1000
0001
1000
0001
,  // measure 9
0100
0001
0100
0000
,  // measure 10
0010
1000
0001
0100
,  // measure 11
1000
1000
0010
0010
,  // measure 12
0100
0001
0100
1000
,  // measure 13
0010
1001
0100
1001
,  // measure 14
0010
0010
0100
0100
,  // measure 15
0001
0010
0100
1000
,  // measure 16
0002
0003
0010
0010
,  // measure 17
1000
1000
0100
1000
,  // measure 18
0010
0100
0001
1000
,  // measure 19
0020
0000
0000
0030
,  // measure 20
0100
0100
0001
0100
,  // measure 21
1001
0010
0200
0300
,  // measure 22
0010
0010
0001
0010
,  // measure 23
1000
0010
0200
0300
,  // measure 24
0010
1000
1000
0010
,  // measure 25
0100
0100
0001
0001
,  // measure 26
1000
0001
1000
0000
,  // measure 27
0010
0010
0100
0001
,  // measure 28
0100
0100
0001
1000
,  // measure 29
0010
0101
0010
0100
,  // measure 30
1000
1000
0001
0001
,  // measure 31
0100
0010
0200
0300
,  // measure 32
0010
1000
1000
0001
,  // measure 33
0100
0000
0100
0000
,  // measure 34
0100
0010
0200
0310
,  // measure 35
0001
1000
0010
0010
,  // measure 36
0100
0000
0001
0001
,  // measure 37
1000
0000
0000
0000
;

//---------------dance-single - ----------------
#NOTES:
     dance-single:
     :
     Beginner:
     1:
     0.124,0.144,0.000,0.000,0.000:
0010
0000
0000
0000
,
0100
0000
0000
0000
,
0001
0000
0000
0000
,
1000
0000
0000
0000
,
0100
0000
0100
0000
,
0001
0000
0001
0000
,
0010
0000
0010
0000
,
1000
0000
1000
0000
,
0010
0000
0100
0000
,
0001
0000
1000
0000
,
0001
0000
1000
0000
,
0100
0000
0010
0000
,
0001
0000
0001
0000
,
1000
0000
1000
0000
,
0010
0000
0010
0000
,
0100
0000
0100
0000
,
0010
0010
0010
0000
,
1000
1000
1000
0000
,
0010
0000
0010
0000
,
0100
0100
0100
0000
,
0010
0000
0010
0000
,
0001
0000
0001
0000
,
0100
0100
0100
0000
,
0010
0000
1000
0000
,
0010
0000
1000
0000
,
0001
0000
0100
0000
,
0001
0001
0001
0000
,
0100
0100
0100
0000
,
0010
0000
0010
0000
,
0010
0000
0100
0000
,
0001
0001
0001
0000
,
1000
0000
0001
0000
,
0100
0000
0010
0000
,
1000
0000
1000
0000
,
0010
0000
0100
0000
,
0001
0000
0100
0000
,
0010
0000
0000
0000
;
