#TITLE:Like A Star - After This Night;
#SUBTITLE:;
#ARTIST:MIXNINE;
#TITLETRANSLIT:;
#SUBTITLETRANSLIT:;
#ARTISTTRANSLIT:;
#CREDIT:;
#BANNER:Like A Star - After This Night banner.png;
#BACKGROUND:Like A Star - After This Night bg.png;
#LYRICSPATH:;
#CDTITLE:;
#MUSIC:Like A Star - After This Night.mp3;
#OFFSET:-9.380;
#SAMPLESTART:53.980;
#SAMPLELENGTH:15.000;
#SELECTABLE:YES;
#BPMS:0.000=105.000;
#STOPS:;
#BGCHANGES:;

//---------------dance-single - ----------------
#NOTES:
     dance-single:
     :
     Hard:
     8:
     0.482,0.510,0.267,0.117,0.352:
1000
0000
0010
0000
0100
0000
0001
0000
0010
0000
1000
0002
0000
0003
0010
0100
,
0010
0000
1000
0001
0000
0001
2000
0000
0000
0000
0000
0000
3100
0000
0000
0000
,
0100
0010
0001
0010
0100
0010
1000
0001
,
0100
0000
0010
1000
0000
1000
0002
0000
0013
0000
0000
0000
0100
0000
0000
0000
,
0010
0010
0100
0001
0100
0010
1000
0010
,
0100
0000
1000
0001
0000
0001
0020
0000
0130
0000
0000
0000
0001
0000
0000
0000
,
0010
1000
1000
0100
1000
0010
1000
0001
,
0010
0000
0100
0001
0000
0001
0010
0100
1000
0000
0000
0000
0010
0000
0000
0000
,
0110
0000
1000
0100
0010
0001
0010
0000
0100
0000
0100
0000
0200
0000
0000
0000
,
0301
0001
0001
0000
0010
0100
1000
0001
,
0110
0000
0001
0000
0010
1000
0100
0010
0001
0000
0001
0000
0002
0000
0000
0000
,
0013
0100
1000
0100
0010
0000
0000
0000
,
1001
0000
0010
0100
1000
0100
0010
0100
0001
0000
0010
1000
0000
0100
0000
0020
,
0000
0030
0100
0000
0100
0000
0000
0000
0001
0000
0010
0000
0001
0000
0000
0000
,
0110
0000
1000
0100
0010
0001
0010
0100
0010
0000
1000
0001
0000
0010
0000
0200
,
0000
0300
0010
0000
0000
0010
0000
0000
0100
0000
0000
0000
0110
0000
0000
0000
,
1100
0000
0010
0001
0010
0100
0010
0100
1000
0000
0001
0010
0000
1000
0000
0020
,
0000
0030
0100
0000
0100
0000
1000
0000
0010
0000
0000
0000
0010
0000
0000
0000
,
0100
0001
0010
0100
1000
0010
0100
0001
0100
0000
0010
1000
0000
0001
0000
0200
,
0000
0300
0001
1000
0001
1000
0001
1000
0001
0000
0010
0000
0100
0000
1000
0000
,
0110
0000
0000
0000
1001
0000
0000
0000
0011
0000
0010
0000
0100
0000
0000
1000
,
0010
0000
0000
1000
0010
0000
0000
0100
0001
0000
0010
0000
1000
0000
0020
0000
,
0030
0000
0100
0010
0100
0000
0000
0000
1000
0000
1000
0000
0001
0000
0000
0000
,
0010
0100
0001
0010
1000
0010
0100
0001
,
0110
0000
1001
0000
1100
0100
0010
0000
,
0110
0001
0010
0100
1000
0010
0100
0010
,
1000
0000
0001
0010
0100
0000
0010
0100
,
1000
0000
0100
0100
0100
0000
0010
0000
,
1001
0000
0010
0100
0000
0010
0100
0000
1000
0000
0000
0001
0000
0000
0100
0000
,
0001
0000
1000
0010
0000
0100
0001
0000
0010
0000
0000
1000
0000
0000
0010
0000
,
0100
0000
0001
1000
0000
0010
1000
0000
0100
0000
0000
0001
0000
0000
0100
0000
,
1010
0100
0001
0100
0010
0000
0100
0000
,
1001
0000
1000
0100
0000
1000
0100
0000
0011
0000
0000
0110
0000
0000
1100
0000
,
0010
0000
0100
0001
0000
0001
0100
0000
1010
0000
0000
1100
0000
0000
1001
0000
,
0010
0000
0100
0001
0000
0010
1000
0000
0110
0000
0000
0110
0000
0000
1001
0000
,
0010
0100
0001
0100
0010
0000
1000
0000
,
0010
0010
0100
0010
;

//---------------dance-single - ----------------
#NOTES:
     dance-single:
     :
     Medium:
     5:
     0.288,0.255,0.032,0.149,0.005:
0010
0001
0010
0100
,
0001
0010
0001
0000
2000
0000
3000
0000
,
0010
0100
0001
0100
,
0010
1000
0010
0000
0200
0000
0300
0000
,
0001
0001
0010
0100
,
0010
0100
1000
0100
0020
0000
0030
0000
,
0100
1000
0001
0100
,
0001
0010
0100
0010
0002
0000
0003
0000
,
0100
0000
0100
0000
0010
0010
0010
0000
,
1000
0000
0001
0000
0100
0100
0100
0000
,
0001
0000
0010
0000
1000
1000
1000
0000
,
0010
0100
0010
0000
,
0110
1000
0100
0001
,
0110
0001
0100
0010
,
1100
0010
0100
0001
,
0100
0000
0100
0000
0100
0000
0000
0000
0001
0000
0000
0010
0000
0000
0100
0000
,
1000
0000
0010
0000
0100
0001
0100
0000
,
0010
0000
0100
0000
0001
1000
0001
0000
,
0100
0100
0100
0000
0010
0010
0010
0000
,
1000
0000
0100
0000
0001
0010
0100
1000
,
0100
0020
0230
0300
,
0001
0000
0100
0000
0010
1000
0010
2000
,
3000
2000
3000
0000
0010
0000
0010
0000
,
0100
0000
0001
0000
0100
0010
0100
0010
,
0100
0002
2003
3000
,
0010
0000
0100
0000
1000
0000
0001
0010
,
0002
0023
0130
1000
,
0010
0100
2000
3002
,
0013
0000
0100
0000
0010
0001
0010
0000
,
0100
0000
0010
0000
1000
0100
1000
0000
,
0010
0000
0100
0000
1000
0010
1000
0000
,
0001
0010
0001
0010
0001
0000
0100
0000
,
0010
0000
1000
0000
0001
0100
0001
0000
,
0010
0000
1000
0000
0010
0100
0010
0000
,
1000
0000
0010
0000
1000
0010
1000
0000
,
0100
0010
0100
0010
0100
0000
0001
0000
,
0100
0010
1000
0010
;

//---------------dance-single - ----------------
#NOTES:
     dance-single:
     :
     Easy:
     3:
     0.235,0.216,0.064,0.117,0.005: // measure 1
0010
0010
0100
0010
,  // measure 2
1000
0001
0200
0300
,  // measure 3
0001
0010
0001
0100
,  // measure 4
0010
1000
0200
0300
,  // measure 5
0010
0010
0100
0001
,  // measure 6
0100
1000
0020
0030
,  // measure 7
0100
1000
0100
0001
,  // measure 8
0100
1000
0020
0030
,  // measure 9
0100
0100
1000
0200
,  // measure 10
0310
0100
0001
0100
,  // measure 11
0010
0001
0010
0020
,  // measure 12
0130
1000
0100
0000
,  // measure 13
0010
0110
0100
0001
,  // measure 14
0100
1100
0100
0010
,  // measure 15
0100
0101
0010
1000
,  // measure 16
0010
0000
0000
0000
0100
0000
0000
0000
0001
0000
0000
0010
0000
0000
0000
0000
,  // measure 17
0100
0011
0010
0100
,  // measure 18
0010
1100
0100
0001
,  // measure 19
0100
0100
0100
0100
,  // measure 20
0010
0010
1000
0100
,  // measure 21
0001
0010
0200
0300
,  // measure 22
0010
0100
1000
0100
,  // measure 23
0020
0030
2000
3000
,  // measure 24
0002
0003
0200
0300
,  // measure 25
0001
1000
0001
0000
,  // measure 26
0100
0100
0010
0100
,  // measure 27
0001
0100
1000
0100
,  // measure 28
0010
0100
0100
0001
,  // measure 29
1000
0100
0010
0001
,  // measure 30
1000
0100
0010
0001
,  // measure 31
0010
0100
0001
1000
,  // measure 32
0010
0010
0100
0010
,  // measure 33
0001
0010
0100
1000
,  // measure 34
0001
0010
0100
1000
,  // measure 35
0010
0100
0001
1000
,  // measure 36
0010
0010
0100
0010
,  // measure 37
1000
0100
0010
1001
;
