#TITLE:Let Me In;
#SUBTITLE:;
#ARTIST:LOONA;
#TITLETRANSLIT:;
#SUBTITLETRANSLIT:;
#ARTISTTRANSLIT:;
#CREDIT:;
#BANNER:Let Me In banner.png;
#BACKGROUND:Let Me In bg.png;
#LYRICSPATH:;
#CDTITLE:cdtitle.png;
#MUSIC:Let Me In.mp3;
#OFFSET:-18.140;
#SAMPLESTART:51.300;
#SAMPLELENGTH:15.000;
#SELECTABLE:YES;
#BPMS:0.000=116.000;
#STOPS:;
#BGCHANGES:;

//---------------dance-single - ----------------
#NOTES:
     dance-single:
     :
     Hard:
     7:
     0.329,0.273,0.000,0.093,0.033:
0010
0001
0100
1000
0100
0010
0000
0100
,
0100
0001
0100
0001
0000
0010
1000
0010
,
0000
0100
0001
0100
0000
0010
1000
0100
,
1000
0000
0010
0100
0020
0000
0130
0000
,
0001
0010
0100
1000
0100
0010
0000
0100
,
0010
0001
0010
0100
0000
0010
0100
1000
,
0000
1000
0100
0010
0000
0100
0000
0001
,
0100
0000
0010
0100
0100
0000
0010
1000
,
0010
0100
0001
0100
0000
0001
0100
0001
,
0010
0000
1000
0010
0000
0010
1000
0100
,
0001
0100
0010
0100
0000
0001
0010
0100
,
1000
0000
0010
0100
0010
0000
1000
0001
,
1000
0000
0010
0100
0000
1000
0000
0100
,
0000
0001
0000
0200
0000
0300
0010
0000
,
0010
0000
0100
0000
0001
0000
0100
0000
0010
0000
0000
0100
0000
0000
0010
0000
,
0001
0001
0010
0010
0100
0000
1000
0000
,
0010
0100
0001
0100
0000
0010
1000
0010
,
0000
0100
0001
0000
0010
0000
0100
0000
0000
0000
0010
0000
0010
0000
1000
0000
,
0000
0100
1000
0100
0010
0001
0010
0100
,
0000
0001
0000
0010
0200
0000
0310
0000
,
0001
1000
0001
0100
0000
1000
0010
1000
,
0000
0001
0010
0100
1000
0000
1000
0000
0000
0000
0010
0000
0100
0000
0020
0000
,
0000
0030
0001
0000
1000
0000
0002
0000
0003
0000
1000
0000
0100
0000
2000
0000
,
3000
0010
0010
0010
,
0100
0000
0001
0010
0100
1000
0100
0010
,
0001
0000
0010
0100
0020
0000
0000
0030
,
0100
0000
0001
0010
1000
0010
0100
0010
,
0100
0000
0000
0000
0000
0000
0000
0001
0100
0000
0000
0000
0000
0000
0000
0000
;

//---------------dance-single - ----------------
#NOTES:
     dance-single:
     :
     Medium:
     5:
     0.238,0.218,0.093,0.040,0.000:
0010
0000
0100
0000
0001
0010
0001
0000
,
0100
0010
0100
0000
,
1000
0000
0010
0000
0100
1000
0100
0000
,
0001
0000
0100
0000
0020
0000
0000
0030
,
0100
0000
0001
0000
0100
0010
0100
0000
,
0001
0001
0010
0000
0100
0000
0000
0000
,
0010
0000
1000
0000
0100
1000
0100
0000
,
0010
0100
0002
0003
,
0100
1100
0100
0110
,
0010
0100
0001
0100
,
0001
0011
0010
0110
,
1000
0000
0100
0000
1000
0000
0010
0010
,
0010
0000
0100
0001
0000
0010
0000
1000
,
0000
0010
0000
0100
0000
0000
0010
0000
,
0001
0010
0100
0010
,
1000
1000
1000
1000
1000
0000
0000
0000
,
0110
0001
0010
1000
,
0010
0000
0100
0000
0001
1000
1000
0000
,
0010
0000
1000
0000
0010
0000
0100
0001
,
0000
0010
0100
1000
,
0011
0010
0100
0010
,
1000
0000
0001
0000
0100
0010
0010
0000
,
1000
0000
0100
0010
0000
0000
0100
0010
,
0000
0100
0001
0100
,
0010
0000
0010
0000
1000
0001
1000
0000
,
0010
0000
0100
0000
2000
0000
0000
3000
,
0010
0100
0010
0000
0001
0000
1000
0000
,
0011
0000
0100
0000
;

//---------------dance-single - ----------------
#NOTES:
     dance-single:
     :
     Easy:
     3:
     0.210,0.182,0.066,0.093,0.000: // measure 1
0010
0010
0100
0100
,  // measure 2
0001
0010
0001
0010
,  // measure 3
1000
1000
0100
0100
,  // measure 4
0001
1000
0002
0003
,  // measure 5
0100
0010
1000
0010
,  // measure 6
0100
0100
0001
0100
,  // measure 7
0010
1000
0001
0100
,  // measure 8
0020
0030
0100
0000
,  // measure 9
0001
0110
0100
1000
,  // measure 10
0010
0100
0010
0000
,  // measure 11
1000
0110
0010
0001
,  // measure 12
0010
0100
0001
0100
,  // measure 13
0100
0010
0100
0001
,  // measure 14
1000
1000
0001
0000
,  // measure 15
0010
0010
0100
0100
,  // measure 16
0001
1000
0010
0000
,  // measure 17
1001
0100
1000
0100
,  // measure 18
0001
0001
0100
0100
,  // measure 19
0010
1000
0010
0100
,  // measure 20
0002
0003
0100
0100
,  // measure 21
0110
0001
0100
0010
,  // measure 22
1000
0010
1000
1000
,  // measure 23
0002
0013
0020
0130
,  // measure 24
2000
0000
0000
3000
,  // measure 25
0010
0001
0010
0100
,  // measure 26
0010
0100
2000
3000
,  // measure 27
0010
0100
0001
0100
,  // measure 28
1001
0000
0010
0000
;

//---------------dance-single - ----------------
#NOTES:
     dance-single:
     :
     Beginner:
     1:
     0.121,0.127,0.026,0.053,0.000:
0010
0000
0000
0010
,
0100
0000
0000
0100
,
0001
0000
0001
0000
,
1000
0000
1000
0000
,
0010
0000
0000
1000
,
0100
0000
0000
0001
,
0010
0000
1000
0000
,
0010
0000
0100
0000
,
0002
0003
0010
0000
,
2000
3000
0010
0000
,
0100
0000
0100
0000
,
0200
0000
0300
0000
,
0010
0000
0001
0000
,
0010
0000
0001
0000
,
1000
0000
0100
0000
,
0010
0000
0001
0000
,
1001
0000
0100
0000
,
1001
0000
0010
0000
,
0100
0000
0100
0000
,
0002
0000
0003
0000
,
0010
0000
0010
0000
,
0100
0000
0100
0000
,
0001
0000
0010
0000
,
0100
0000
1000
0000
,
0010
0010
0010
0000
,
0100
0100
0100
0000
,
0001
0001
0001
0001
,
0010
0000
0010
0000
;
