#TITLE:Lady;
#SUBTITLE:;
#ARTIST:EXID;
#TITLETRANSLIT:;
#SUBTITLETRANSLIT:;
#ARTISTTRANSLIT:;
#CREDIT:;
#BANNER:Z-7 banner.png;
#BACKGROUND:Z-7 bg.png;
#LYRICSPATH:;
#CDTITLE:;
#MUSIC:Z-7.mp3;
#OFFSET:-5.040;
#SAMPLESTART:58.400;
#SAMPLELENGTH:15.000;
#SELECTABLE:YES;
#BPMS:0.000=106.960;
#STOPS:;
#BGCHANGES:;

//---------------dance-single - Copied from----------------
#NOTES:
     dance-single:
     Copied from:
     Challenge:
     8:
     0.568,0.539,0.507,0.130,0.228:
0010
0100
0001
0000
0010
1000
0100
0000
,
0011
0000
0010
0100
0010
0000
0100
1000
0100
0000
0000
0000
1001
0000
0010
0000
,
0100
0001
0010
0000
1000
0010
0100
0000
,
1100
0000
0100
0010
0100
0000
0010
0001
0010
0000
0000
0000
1001
0000
0000
0000
,
0001
0010
0001
0100
0010
0100
0010
1000
,
0010
0100
1000
0001
0010
0100
0010
0000
,
1000
0010
0100
0001
0010
0100
0001
0100
,
1010
1000
1100
1000
1001
1000
1010
0010
,
0100
1000
0100
0010
0001
0000
0010
0000
0100
0000
0020
0000
0030
0000
1000
0100
,
0001
0010
0100
1000
0100
0000
0010
0000
1010
0000
1010
0000
0100
0000
0001
0000
,
0010
0000
0100
0010
0100
0000
0001
0000
0100
0020
0000
0000
1030
0100
1000
0100
,
0001
0000
0010
0000
1000
0000
0001
0000
1000
0002
0000
0003
1000
0100
0010
0100
,
0010
0000
0001
0000
0110
0000
0110
0000
0110
0000
0000
0000
0001
0010
0100
1000
,
0100
0000
1000
0000
0011
0000
0011
0000
0011
0000
0000
1000
0100
0010
0100
0010
,
0100
0000
0001
0010
0100
1000
0100
0000
1000
0001
0100
0000
0010
0000
0100
0000
,
0011
0010
0110
0100
1100
0100
0110
0000
,
2001
0000
0000
0000
3100
0000
0000
0001
0010
0000
0100
0000
0010
1000
0100
0002
,
0000
0003
0010
0000
0010
0000
0100
0000
0000
0000
0010
0000
0100
0000
1000
0000
,
0100
0010
0001
0010
0001
0100
0010
1000
,
0101
0000
0110
0000
1100
0001
0010
0100
,
0010
0000
0100
0000
0001
0010
0100
1000
,
0200
0000
0302
0000
2003
0000
3020
0030
,
0100
0100
1100
0000
0010
0010
0011
0000
,
1100
0100
0110
0010
0011
0010
0100
0100
,
1000
0100
0010
0001
0000
0000
0110
0000
0110
0000
0000
0000
1000
0000
0100
0000
,
0001
0000
0010
0100
1000
0000
0110
0000
0110
0000
0000
0000
0001
0000
0010
0000
,
0100
0000
0001
1000
0001
0000
0100
0000
0110
0000
0000
0000
1000
0000
0100
0000
,
0001
0000
1000
0010
0000
0010
1000
0000
1001
0000
0010
0100
0010
0000
1000
0000
,
0001
0001
0010
0010
0100
0100
1000
0100
,
0010
0000
0100
0000
0010
0000
0001
0000
0010
0000
0100
0000
0010
0100
0010
0000
,
1000
1000
0100
0100
0010
0010
0001
0001
,
1100
0010
0110
0001
1010
0100
0201
0300
;

//---------------dance-single - ----------------
#NOTES:
     dance-single:
     :
     Hard:
     6:
     0.364,0.310,0.065,0.117,0.000:
0020
0230
0302
2003
,
3010
0100
0010
0000
1000
1000
0010
0000
,
0200
2300
3020
0032
,
0103
0010
0100
0000
0001
0001
0010
0000
,
0100
0010
0100
0000
0001
0010
0001
0000
,
1000
0100
0010
0001
0010
0000
0010
0000
,
0100
0010
0100
0000
1000
0010
1000
0000
,
0001
0001
0010
0010
0100
0100
0100
0000
,
0010
0100
1000
0100
0010
0000
0100
0000
,
0001
0010
1000
0010
0001
0000
0100
0000
,
0010
0100
1000
0001
0100
0000
0010
0001
,
0010
0100
0010
1000
0010
0000
0100
0000
,
1000
1000
0010
0010
0010
0000
0100
0000
,
0001
0000
0100
0100
0100
0000
0010
0000
,
0100
0001
0100
0000
0010
1000
0010
0000
,
0100
0100
1000
1000
0010
0010
0001
0000
,
2000
0000
3000
0000
0010
0010
0100
0000
,
1000
1000
0001
0000
0010
0100
0010
0000
,
1000
0010
0100
0001
,
0100
0010
0100
0010
0001
0010
0100
1000
,
0100
0000
0010
0000
0100
1000
0100
0010
,
0001
0010
0100
1000
,
0001
0001
0010
0000
1000
1000
0100
0000
,
0010
0100
0010
0100
0010
0100
0010
0000
,
1001
0000
0010
0100
0010
0000
1000
0000
,
1001
0000
0100
0010
0100
0000
0001
0000
,
0110
0000
1000
0001
1000
0000
0010
0000
,
0110
0000
0001
1000
0001
0000
0100
0000
,
1000
0100
0010
0001
0010
0100
0000
0100
,
0100
0010
0100
0001
,
0001
0010
0100
1000
0100
0010
0000
0010
,
0010
0000
0100
0100
0000
0010
0110
0000
;

//---------------dance-single - ----------------
#NOTES:
     dance-single:
     :
     Medium:
     4:
     0.282,0.268,0.117,0.078,0.000:
0010
0100
0010
0100
,
1000
0001
2000
0000
0000
0000
3001
0000
,
0010
0100
0001
0100
,
0001
0010
0002
0000
0000
0000
0013
0000
,
0100
0100
0010
0010
,
0100
0001
0100
0000
0010
0000
0010
0000
,
1000
0001
0100
0010
,
1000
0100
0010
0001
,
0100
0100
0010
0000
1000
0000
0000
0000
,
0001
0001
0010
0000
0100
0000
0000
0000
,
0010
0010
0100
0000
0001
0000
0100
0000
,
0010
0010
1000
0000
0100
0000
1000
0000
,
0001
0000
0010
0100
0010
0000
1000
0000
,
0001
0000
0100
0010
0100
0000
0001
0000
,
0010
0100
0010
0100
,
0011
0110
1100
0110
,
2000
0000
3100
0010
,
0100
0100
0001
0100
,
0002
0000
0013
0100
,
0010
0000
0010
0000
1000
0100
0010
0000
,
0100
0100
0001
0100
,
0001
0010
0100
1000
,
0010
0010
0010
0000
0100
0100
0100
0000
,
0001
1000
0010
0100
,
0011
0010
0100
1000
,
0010
0100
0020
0000
0000
0000
0130
0000
,
0001
1000
0010
0100
,
1000
0100
1000
0200
0000
0000
0310
0000
,
0100
0100
0001
0001
,
1000
0010
1000
0000
0001
0100
0001
0000
,
0100
0100
0010
0010
,
1100
0110
0011
0110
;

//---------------dance-single - ----------------
#NOTES:
     dance-single:
     :
     Easy:
     2:
     0.271,0.268,0.208,0.117,0.000: // measure 1
0010
0010
0100
0001
,  // measure 2
0100
0010
1000
1000
,  // measure 3
0010
0100
0100
1000
,  // measure 4
0010
0100
0001
0001
,  // measure 5
0010
0100
1000
0100
,  // measure 6
1000
0010
0001
0100
,  // measure 7
0001
0010
1000
0010
,  // measure 8
0110
1001
0110
1001
,  // measure 9
0010
0010
0100
0000
,  // measure 10
0001
0001
1000
0000
,  // measure 11
0010
0010
0100
0001
,  // measure 12
0100
0100
0010
1000
,  // measure 13
0001
0010
0010
1000
,  // measure 14
0010
0100
0100
0001
,  // measure 15
0100
1000
0100
0010
,  // measure 16
0110
1001
0110
1001
,  // measure 17
0020
0000
0130
0100
,  // measure 18
0001
0100
0010
1000
,  // measure 19
0002
0000
0103
0010
,  // measure 20
1000
1000
0100
1000
,  // measure 21
0010
0010
0100
0001
,  // measure 22
2000
3200
0320
0032
,  // measure 23
0103
0100
0010
0010
,  // measure 24
0110
1001
0110
1001
,  // measure 25
1000
1000
0020
0030
,  // measure 26
0100
0100
0002
0003
,  // measure 27
0010
0010
0100
0001
,  // measure 28
0100
0100
0020
0030
,  // measure 29
1000
1000
0001
0001
,  // measure 30
0100
0010
0100
0010
,  // measure 31
0001
0001
1000
1000
,  // measure 32
0110
1001
0110
1001
;
