#TITLE:LOONATIC (English Version);
#SUBTITLE:;
#ARTIST:ODD EYE CIRCLE (LOONA);
#TITLETRANSLIT:;
#SUBTITLETRANSLIT:;
#ARTISTTRANSLIT:;
#CREDIT:;
#BANNER:LOONATIC (English Version) banner.png;
#BACKGROUND:LOONATIC (English Version) bg.png;
#LYRICSPATH:;
#CDTITLE:cdtitle.png;
#MUSIC:LOONATIC (English Version).mp3;
#OFFSET:-3.600;
#SAMPLESTART:42.020;
#SAMPLELENGTH:15.000;
#SELECTABLE:YES;
#BPMS:0.000=150.040;
#STOPS:;
#BGCHANGES:;

//---------------dance-single - ----------------
#NOTES:
     dance-single:
     :
     Hard:
     7:
     0.517,0.592,0.240,0.099,0.021:
0010
0100
1000
0001
0100
0010
1000
0000
,
0001
0010
0100
1000
,
1000
0100
1000
0010
0100
0010
0001
0000
,
1000
0100
0010
0001
,
0020
0000
0130
0000
0110
0000
1000
2000
,
3000
0001
0002
0003
0010
0000
0100
0000
,
1001
0000
0010
0100
1001
0000
0010
0100
,
1000
0000
1000
0100
0010
0010
0100
0010
,
1001
0010
0100
1000
0010
0000
0100
0000
,
0010
1000
0010
0001
,
0100
0010
0001
0010
0100
0000
0010
0000
,
1000
0000
0001
0010
0000
0010
0100
1000
,
0200
0000
0310
0000
0110
0000
0001
0002
,
0003
1000
2000
3000
0010
0000
0100
0000
,
0011
0010
0100
1000
,
0100
0000
0010
0100
0020
0000
0000
0000
,
0130
0000
1000
1000
0100
0000
0010
0001
,
0010
0000
0100
0000
0010
0000
1000
1000
,
0010
0000
0100
0010
0010
0000
0100
0001
,
0010
0100
1000
0100
0010
0001
0010
0000
,
1100
0000
0110
0000
0011
0000
0010
0100
,
0000
0100
0010
0000
0100
0000
1000
0001
,
1000
0000
0000
0000
0000
0000
0000
1000
,
0000
0010
0100
0010
0001
0000
0001
0000
,
1000
0010
0100
0000
0001
0100
0010
0000
,
1000
0010
0100
0001
0100
0000
0100
0000
,
0001
0010
0100
1000
0100
0010
0001
0010
,
0000
0100
0010
0100
1000
0000
0110
0000
,
1000
0100
1000
0000
0010
0100
0010
0000
,
0001
1000
0100
0000
0010
0001
0100
0000
,
0010
0100
1000
0100
0010
0001
0010
1000
,
0000
1000
0010
0100
0010
0000
0010
0000
,
1001
0001
0001
0000
1010
1000
1000
0000
,
0010
0100
0010
0000
1000
0100
0010
0001
,
0000
0010
0010
0000
0100
0100
0000
0001
,
0010
0100
1000
0010
,
0100
1000
0100
0000
0001
0010
0001
0000
,
0100
0000
0100
0010
0100
0000
0010
0100
,
0010
0000
1000
0000
0001
0000
1000
0001
,
0000
0001
0010
0100
1000
0000
1000
0000
,
0011
0110
1100
0110
,
1001
0000
0000
0010
0100
0000
0010
0000
1000
0100
1000
0000
0001
0010
0001
0000
,
0100
0000
0000
0000
;

//---------------dance-single - ----------------
#NOTES:
     dance-single:
     :
     Beginner:
     2:
     0.197,0.234,0.028,0.000,0.000:
0010
0000
0010
0000
,
0100
0000
0100
0000
,
0001
0000
0001
0000
,
1000
0000
1000
0000
,
0001
0000
0100
0000
,
0010
0000
1000
0000
,
0010
0000
0100
0000
,
0001
0001
0001
0000
,
0100
0000
0010
0000
,
1000
0000
0001
0000
,
0100
0000
0001
0000
,
1000
0000
0010
0000
,
0100
0000
0100
0000
,
0010
0000
0010
0000
,
1000
0000
0001
0000
,
0100
0100
0100
0000
,
0001
0000
0010
0000
,
0100
0000
1000
0000
,
0001
0000
0010
0000
,
0100
0000
1000
0000
,
0010
0010
0010
0000
,
0100
0100
0100
0000
,
0001
0000
0000
0000
,
0010
0000
0010
0000
,
1001
0000
0010
0000
,
0100
0000
0001
0000
,
1000
1000
1000
0000
,
0010
0010
0010
0000
,
1001
0000
0010
0000
,
0001
0000
0010
0000
,
0100
0100
0100
0000
,
0001
0001
0001
0001
,
0010
0000
1000
0000
,
0010
0000
0100
0000
,
0001
0000
0100
0000
,
0001
0000
1000
0000
,
0010
0010
0010
0000
,
1000
1000
1000
0000
,
0010
0000
0100
0000
,
0001
0010
0100
1000
,
0010
0000
0010
0000
,
0100
0000
0100
0000
;

//---------------dance-single - ----------------
#NOTES:
     dance-single:
     :
     Easy:
     4:
     0.350,0.324,0.056,0.099,0.000: // measure 1
1000
1000
0010
1000
,  // measure 2
0001
0001
0010
0001
,  // measure 3
0100
0100
0010
1000
,  // measure 4
0010
0010
0100
0001
,  // measure 5
0200
1300
0010
0100
,  // measure 6
0002
0013
0100
1000
,  // measure 7
0010
0100
0010
0100
,  // measure 8
0001
0010
0200
0300
,  // measure 9
0010
0010
0100
0001
,  // measure 10
1000
1000
0010
0100
,  // measure 11
0001
0001
1000
0010
,  // measure 12
0100
0100
0001
0100
,  // measure 13
0020
1030
0010
0100
,  // measure 14
0002
1003
0001
1000
,  // measure 15
0010
0010
0010
0100
,  // measure 16
0010
1000
0010
0010
,  // measure 17
0001
0010
0100
1000
,  // measure 18
0001
0010
0100
1000
,  // measure 19
1000
0100
0010
0001
,  // measure 20
1000
0100
0010
0001
,  // measure 21
0100
0100
0010
0100
,  // measure 22
0001
1000
0010
0100
,  // measure 23
0010
0000
0000
0000
,  // measure 24
0100
1000
0001
0010
,  // measure 25
1001
0010
0100
0001
,  // measure 26
0100
1000
0010
0100
,  // measure 27
0001
0001
0010
0010
,  // measure 28
1000
0001
1000
0010
,  // measure 29
1100
0010
0100
0001
,  // measure 30
1000
0010
0001
0100
,  // measure 31
0010
0010
1000
1000
,  // measure 32
0010
0100
0001
1000
,  // measure 33
0120
1030
0010
1000
,  // measure 34
0010
0000
0010
0010
,  // measure 35
2001
3010
0010
0100
,  // measure 36
0001
0010
0100
1000
,  // measure 37
0010
0100
0001
0100
,  // measure 38
0010
1000
0010
0100
,  // measure 39
0010
0010
0010
0100
,  // measure 40
1000
0100
0010
0001
,  // measure 41
0100
0100
0100
0010
,  // measure 42
1000
0100
0001
0100
;

//---------------dance-single - ----------------
#NOTES:
     dance-single:
     :
     Medium:
     6:
     0.407,0.382,0.028,0.085,0.000:
0100
0000
0010
0000
1000
0100
1000
0000
,
0001
0000
0010
0000
0001
0010
0001
0000
,
0100
0000
0001
0000
0100
0010
0100
0000
,
0001
0000
1000
0000
0010
0100
0010
0000
,
1000
0000
0100
0000
0010
0000
0001
0100
,
0000
0100
0001
0000
0010
0000
0010
0000
,
1000
0000
0010
0100
0010
0000
0001
0000
,
0100
0100
0110
0100
,
0001
0000
0100
0000
0010
0001
0010
0000
,
1000
0000
0010
0000
0100
1000
0100
0000
,
0010
0000
1000
0000
0010
0001
0010
0000
,
0100
0000
0001
0010
0000
0010
0100
0000
,
0001
0000
1000
0000
0010
0000
0100
1000
,
0000
1000
0100
0000
0010
0000
0100
0000
,
0010
1000
1000
0001
,
0001
0000
0100
0100
0100
0000
0001
0000
,
0200
0310
2000
3001
,
0010
0000
0100
0000
0010
0000
0001
0001
,
0001
0000
0010
0010
0010
0000
0100
0000
,
1000
1000
0010
1000
,
0010
0000
0100
0000
0001
0000
0100
0010
,
0000
0010
1000
0000
0010
0000
0001
0020
,
0000
0000
0000
0030
0000
0110
0000
0100
,
0000
0100
0000
0010
0100
0000
0100
0000
,
0001
0000
1000
0000
0010
0100
0010
0000
,
0100
0000
0001
0000
0010
1000
0010
0000
,
0100
0001
0100
0000
0010
0100
0010
0000
,
1000
1000
1000
0100
0010
0000
0010
0000
,
1000
0000
0001
0000
0100
1000
0100
0000
,
0001
0000
0100
0000
0010
0001
0010
0000
,
0100
0000
0010
0000
1000
0001
1000
0000
,
0010
0010
0010
0000
0100
0000
0100
0000
,
0002
0013
0100
0010
,
2000
3010
0100
0010
,
2000
3001
0010
0001
,
0100
0100
0010
0100
,
0001
0000
1000
0000
0010
0100
0010
0000
,
1000
0000
0100
0000
0001
0010
0001
0000
,
0100
1000
0100
1000
,
0010
0010
0100
0010
,
0001
0010
0100
1000
,
0010
0100
0010
0100
;
