#TITLE:Kiss Later;
#SUBTITLE:;
#ARTIST:LOONA;
#TITLETRANSLIT:;
#SUBTITLETRANSLIT:;
#ARTISTTRANSLIT:;
#CREDIT:;
#BANNER:Kiss Later banner.png;
#BACKGROUND:Kiss Later bg.png;
#LYRICSPATH:;
#CDTITLE:cdtitle.png;
#MUSIC:Kiss Later.mp3;
#OFFSET:-10.140;
#SAMPLESTART:62.120;
#SAMPLELENGTH:15.000;
#SELECTABLE:YES;
#BPMS:0.000=103.920,32.000=208.000;
#STOPS:;
#BGCHANGES:;

//---------------dance-single - ----------------
#NOTES:
     dance-single:
     :
     Hard:
     8:
     0.505,0.553,0.640,0.251,0.220:
0010
0100
0001
0010
1000
0100
1000
0010
,
0001
0000
0100
0010
0000
0000
1000
0000
1000
0000
0000
0000
0010
0000
0000
0000
,
0100
0000
0001
0000
0100
0000
0010
0000
0100
0000
1000
0100
0000
0000
0010
0000
,
0100
0000
0001
0010
0000
0000
0001
0000
1000
0000
0001
0000
0100
0000
0010
0000
,
0000
0000
1000
0000
0100
0000
0010
0000
0001
0000
0010
2000
0000
3000
0000
0000
,
0010
0000
0100
0000
0001
0000
0010
0000
0100
0000
1000
0100
0000
0100
1000
0000
,
0010
0000
0000
0000
0010
0000
0000
0000
0100
0000
0001
1000
0000
1000
0001
0000
,
2000
0100
0010
3001
,
0010
1100
0010
1100
,
0010
0000
0000
0000
0000
0000
0100
0000
0000
0100
0000
0000
0000
0000
0001
0000
0000
0000
0000
0000
0100
0000
0000
0000
,
0000
0010
0000
0100
,
1100
0110
0011
0110
,
1001
0100
0011
0100
,
0011
0000
0000
0000
0000
0000
1000
0000
0000
0100
0000
0000
0000
0000
0001
0000
0000
0000
0000
0000
0200
0000
0000
0000
,
0000
0010
0010
0310
,
0100
0000
0001
0000
1000
0000
0010
0100
,
0000
0000
0000
0000
0000
0011
0000
0000
0000
0000
0000
0000
0000
0000
0202
0000
0000
0000
0000
0000
0303
0000
0000
0000
,
0000
0000
0000
0000
0000
1010
0000
0000
0000
0000
0000
0000
0000
0000
2200
0000
0000
0000
0000
0000
3300
0000
0000
0000
,
0000
0000
0000
0000
0000
0110
0000
0000
0000
0000
0000
0000
0000
0000
2002
0000
0000
0000
0000
0000
3003
0000
0000
0000
,
0000
0000
0000
0000
0000
0101
0000
0000
0000
0000
0000
0000
0000
0000
2002
0000
0000
3003
0000
0000
0000
0000
0000
0110
,
0000
0000
0000
0000
0000
0000
0000
0000
1010
0000
0000
0000
0000
0000
0000
0000
0000
0101
0000
0000
0000
0000
0000
0000
,
1001
0010
0100
0001
,
0100
0010
1000
0010
,
0100
0000
0000
0001
0000
0020
0000
0000
0000
0100
0030
0000
,
0100
0000
0001
0000
,
1010
0100
0001
0100
,
0010
0000
0000
1000
0000
0001
0000
0000
0000
0100
0000
0000
,
0010
0000
0000
0001
0000
1000
0000
0000
0000
0010
0000
0000
,
0200
0001
1000
0301
,
0010
0000
0110
0110
,
1000
0000
0110
0110
,
1000
0001
0010
0100
,
1000
0000
0000
0010
0000
0100
0000
0000
0000
0001
0000
0000
,
0001
0000
0000
0000
0000
0000
0010
0000
0000
0000
1000
0000
,
0100
0000
0000
0000
0000
0001
0000
0000
0000
0010
0000
0000
0000
0000
0000
0010
0000
0000
0000
0000
0000
0000
0000
0000
,
1001
0000
0100
0000
0000
0010
0000
0000
,
0100
0000
0020
0030
,
1000
0000
0000
1100
0000
0000
0100
0000
0000
0110
0000
0001
,
0000
0000
0001
0000
0000
0000
0110
0000
0000
0011
0000
0000
,
1001
0000
0000
0000
0100
0000
0000
0012
,
0000
0010
0100
1003
,
0010
0000
0000
0011
0000
0000
0010
0000
0000
0110
0000
1000
,
0000
0000
1000
0000
0000
1000
0010
0000
0000
0100
0000
0000
,
0110
0000
0010
0000
1001
0000
0000
2100
,
0000
0010
0100
3010
,
0002
0010
0100
0013
,
2000
0100
0010
3100
,
0011
0110
1100
0110
,
2002
0000
0000
3003
0010
0000
0010
0000
,
1100
0000
0000
0100
0000
0000
0110
0000
0000
0001
0000
0001
,
0000
1010
0101
0011
,
1001
0000
0000
0000
0110
0000
0000
1001
;

//---------------dance-single - ----------------
#NOTES:
     dance-single:
     :
     Medium:
     6:
     0.353,0.391,0.251,0.088,0.000:
0010
0100
0001
0100
,
0010
1000
1000
0010
0100
0000
0100
0000
,
0001
1000
0010
0001
,
0100
0100
0010
1000
0010
0000
0001
0000
,
0100
0010
2000
3000
,
0001
0100
0002
0003
,
0100
0000
0100
0000
0010
0010
0100
0100
,
0001
1000
0010
0100
,
1001
0010
0100
0001
,
0100
1000
0010
0001
,
0100
0000
1000
0000
,
1001
1001
1001
0000
,
0010
1000
0001
0100
,
0010
1000
0100
0001
,
0200
0300
0010
0000
,
0002
0003
0010
0000
,
1100
0000
0010
0000
,
0101
0000
0010
0000
,
1001
0000
0100
0000
,
0011
0000
0100
0000
,
0110
0000
1001
0000
,
0010
0001
0010
0100
,
1000
0100
0010
1000
,
0010
0001
0100
0010
,
1000
0000
1000
0000
,
0010
0100
0001
0100
,
0010
1000
0010
1000
,
0001
1000
0010
0100
,
0010
0000
0001
0000
,
0100
0100
0000
0010
,
0010
0000
1001
0000
,
0001
0001
0000
1000
,
1000
0000
0110
0000
,
1000
0100
0010
0001
,
0010
0100
1000
0010
,
0100
0000
0010
0000
0000
0010
0000
0000
,
0010
0000
0200
0300
,
0001
0010
0001
0010
,
1000
0100
1000
0100
,
0110
0000
0110
0000
,
1001
0000
1001
0000
,
0100
1000
0100
0010
,
0100
0001
0100
0010
,
1001
0000
1001
0000
,
0110
0000
0100
0000
,
0001
0010
0100
1000
,
0001
0010
0100
1000
,
1000
0100
0010
0001
,
0220
0000
0330
0000
,
0010
0010
0100
0100
,
0001
0010
1000
0010
,
0100
0000
0100
0000
,
0010
0000
0000
0000
;

//---------------dance-single - ----------------
#NOTES:
     dance-single:
     :
     Easy:
     4:
     0.245,0.294,0.138,0.138,0.000: // measure 1
0010
0010
0100
0100
,  // measure 2
0001
0010
0100
1000
,  // measure 3
0100
0100
0010
0010
,  // measure 4
1000
0100
0010
0001
,  // measure 5
0100
0100
0020
0030
,  // measure 6
0001
0001
0020
0030
,  // measure 7
1000
0100
1000
0100
,  // measure 8
0001
0010
0001
0010
,  // measure 9
0100
0000
0100
0000
,  // measure 10
0010
0000
0010
0000
,  // measure 11
1001
0000
0000
0000
,  // measure 12
0001
0000
0100
0000
,  // measure 13
0010
0000
0100
0000
,  // measure 14
1000
0000
0010
0000
,  // measure 15
0100
0000
0100
0000
,  // measure 16
0001
0000
0001
0000
,  // measure 17
2001
3000
0000
0000
,  // measure 18
0102
0003
0000
0000
,  // measure 19
0210
0300
0000
0000
,  // measure 20
1020
0030
0000
0000
,  // measure 21
0100
0100
0010
0010
,  // measure 22
1001
0000
0001
0000
,  // measure 23
0010
0000
0100
0000
,  // measure 24
0010
0000
0100
0000
,  // measure 25
1000
0000
1000
0000
,  // measure 26
0100
0000
0001
0000
,  // measure 27
0100
0000
0001
0000
,  // measure 28
0010
0000
1000
0000
,  // measure 29
0010
0000
1000
0000
,  // measure 30
0020
0000
0030
0000
,  // measure 31
0200
0000
0300
0000
,  // measure 32
0001
0000
0010
0000
,  // measure 33
0100
0000
1000
0000
,  // measure 34
0010
0000
0010
0000
,  // measure 35
0100
0000
0100
0000
,  // measure 36
0010
0000
0100
0000
,  // measure 37
0010
0000
0100
0000
,  // measure 38
1001
0000
0010
0000
,  // measure 39
0100
0000
0010
0000
,  // measure 40
1001
0000
0100
0000
,  // measure 41
0010
0000
0100
0000
,  // measure 42
0110
0000
0001
0000
,  // measure 43
1000
0000
0001
0000
,  // measure 44
0110
0000
1000
0000
,  // measure 45
0001
0000
1000
0000
,  // measure 46
0002
0000
0013
0010
,  // measure 47
2000
0000
3100
0100
,  // measure 48
0010
0000
0010
0000
,  // measure 49
2001
0000
3000
0000
,  // measure 50
0010
0000
0010
0000
,  // measure 51
0100
0000
0001
0000
,  // measure 52
0100
0000
0010
0000
,  // measure 53
1000
0000
0000
0000
;

//---------------dance-single - ----------------
#NOTES:
     dance-single:
     :
     Beginner:
     2:
     0.140,0.163,0.050,0.100,0.000:
0001
0000
0001
0000
,
0010
0000
0010
0000
,
0100
0000
0100
0000
,
1000
0000
1000
0000
,
0020
0000
0030
0000
,
0200
0000
0300
0000
,
0001
0000
0001
0000
,
0100
0000
0100
0000
,
0010
0000
0000
0000
,
0010
0000
0000
0000
,
0100
0000
0000
0000
,
0100
0000
0000
0000
,
0001
0000
0000
0000
,
0001
0000
0000
0000
,
1000
0000
0000
0000
,
1000
0000
0000
0000
,
0010
0000
0000
0000
,
0010
0000
0000
0000
,
0100
0000
0000
0000
,
0100
0000
0000
0000
,
0010
0000
0010
0000
,
0010
0000
0000
0000
,
0001
0000
0000
0000
,
0010
0000
0000
0000
,
0001
0000
0000
0000
,
0100
0000
0000
0000
,
1000
0000
0000
0000
,
0100
0000
0000
0000
,
1000
0000
0000
0000
,
0010
0000
0000
0000
,
0020
0000
0030
0000
,
0100
0000
0000
0000
,
0200
0000
0300
0000
,
0001
0000
0001
0000
,
0010
0000
0010
0000
,
0100
0000
0000
0000
,
0100
0000
0000
0000
,
1001
0000
0000
0000
,
1001
0000
0000
0000
,
0010
0000
0010
0000
,
0010
0000
0000
0000
,
0110
0000
0000
0000
,
0110
0000
0000
0000
,
1000
0000
1000
0000
,
1000
0000
0000
0000
,
0002
0000
0003
0000
,
0020
0000
0030
0000
,
0200
0000
0300
0000
,
2000
0000
3000
0000
,
0010
0000
0010
0000
,
0010
0000
0010
0000
,
0100
0000
0000
0000
,
0100
0000
0000
0000
;
