#TITLE:Heroine;
#SUBTITLE:;
#ARTIST:SUNMI;
#TITLETRANSLIT:;
#SUBTITLETRANSLIT:;
#ARTISTTRANSLIT:;
#CREDIT:;
#BANNER:Z-6 banner.png;
#BACKGROUND:Z-6 bg.png;
#LYRICSPATH:;
#CDTITLE:;
#MUSIC:Z-6.mp3;
#OFFSET:-8.220;
#SAMPLESTART:63.340;
#SAMPLELENGTH:15.000;
#SELECTABLE:YES;
#BPMS:0.000=122.000;
#STOPS:;
#BGCHANGES:;

//---------------dance-single - ----------------
#NOTES:
     dance-single:
     :
     Hard:
     7:
     0.504,0.439,0.171,0.363,0.064:
0020
0000
0130
2000
0000
3100
0020
0000
,
0030
2000
0000
0000
0000
3000
0000
0000
,
0020
0000
0130
0002
0000
0013
0200
0000
,
0301
0010
2000
0000
3000
0001
0010
0100
,
2000
0000
3100
0000
0010
0100
1000
0100
,
0020
0000
0031
0000
0010
0100
0001
0100
,
1010
0000
1100
0000
0010
0100
0001
1000
,
0200
0000
0301
0000
0010
1000
0100
0001
,
0010
0000
0000
0100
0000
0000
0010
0000
0100
0000
0001
0000
0010
0000
0001
0000
,
2000
0000
3001
0000
0100
0010
0001
0010
,
0200
0000
1300
1000
0100
0010
0001
0010
,
0200
0000
0310
0000
0010
0010
0100
1000
,
0010
0100
0001
0010
0001
0100
0010
1000
,
0010
0100
1000
0020
0000
0000
0100
0130
,
1000
0100
0001
0010
0001
0010
0100
1000
,
0010
0100
0001
2000
0000
0001
3010
0010
,
0100
0001
0100
0010
1000
0010
0100
1000
,
0100
0001
0010
0002
0000
0000
1003
1000
,
0010
0100
1000
0010
0100
1000
0010
0100
,
1000
0010
0001
0020
0000
0030
0110
0000
,
1001
0010
0100
0001
0010
0100
0010
0100
,
0000
0100
2000
0000
0000
3000
0100
0010
,
0101
0010
0100
1000
0000
1000
0100
0020
,
0100
1000
0100
0130
,
1001
0010
0001
0010
0010
0100
0010
1000
,
0000
1000
0002
0000
0000
0003
0100
0100
,
0010
0001
0010
1000
0000
1000
0010
1000
,
2000
0000
0000
0000
3010
0000
0100
0010
0100
0000
0001
0000
0010
0000
0100
0000
,
2010
0000
3000
0012
0000
0003
0210
0000
,
0300
0000
0001
0000
0001
0000
1000
0010
1000
0000
0100
0000
1000
0000
0010
0000
,
0100
0000
0000
0000
0001
0000
0100
0010
0100
0000
1000
0000
0010
0000
1000
0000
,
0001
0010
0002
0000
0003
0000
0100
0000
0010
0000
1000
0000
0010
0000
0001
0000
,
0210
0000
0300
1020
0000
0030
0201
0000
,
0300
0000
0000
0000
0010
0000
0100
0001
1000
0000
0010
0000
0100
0000
0010
0000
,
0100
0000
0001
0010
0100
1000
0100
0010
,
0002
0000
0003
0100
0100
0010
0100
0010
,
1001
0000
0010
0100
0010
0000
1000
0000
0001
0000
0100
0000
0010
0000
2000
0000
,
0000
0000
3010
0000
0100
0000
0000
0000
0011
0000
0100
0010
0100
0000
0000
0000
,
0010
0000
0100
1000
0100
0000
0010
0000
0100
0000
0001
0000
0100
0000
0020
0000
,
0000
0130
0100
0001
0010
0100
1000
0100
,
0110
0000
0001
1000
0001
0000
1000
0000
0010
0000
0100
0000
1000
0000
0020
0000
,
0000
0000
0031
0000
0010
0000
0000
0000
0100
0000
0010
0100
0010
0000
0000
0000
,
1001
0000
0010
0100
0010
0000
1000
0000
0100
0000
0010
0000
0001
0000
0200
0000
,
0000
0310
0010
0000
0000
0000
0000
0000
;

//---------------dance-single - ----------------
#NOTES:
     dance-single:
     :
     Medium:
     5:
     0.331,0.302,0.021,0.182,0.000:
0020
0000
0030
0200
0000
0300
0002
0000
,
0003
0000
0000
0000
,
2000
0000
3000
0020
0000
0030
0200
0000
,
0300
0000
0000
0000
,
0010
0000
0010
0000
0100
0001
0100
0000
,
0010
0000
0010
0000
1000
0100
1000
0000
,
0010
0000
1100
0000
0010
0001
0010
0000
,
0200
0310
1000
0010
,
0100
0000
0100
0000
0001
0010
0001
0000
,
0100
0000
0100
0000
0010
1000
0010
0000
,
0100
0000
0001
0010
0100
0000
0010
0100
,
2000
3100
0010
0100
,
0001
0010
0001
0000
1000
0100
1000
0000
,
0010
0100
0010
0200
0000
0300
0010
0000
,
1000
0100
1000
0000
0010
0100
0010
0000
,
1000
0001
1000
0002
0000
0003
0100
0000
,
0010
0001
0010
0000
0100
1000
0100
0000
,
0010
0001
0010
0002
0000
0003
0100
0000
,
0010
1000
0010
0000
0100
0001
0100
0000
,
0010
1000
0010
2000
0000
3000
0010
0000
,
0100
0000
0001
0100
0000
0100
0010
0000
,
1000
0000
2000
0000
0000
3000
0110
0000
,
0001
0000
1000
0010
0000
0010
0100
0000
,
0020
0000
1000
1030
,
0100
0000
0001
0010
0000
0010
0100
1000
,
0000
0020
0000
0130
,
0001
0000
1000
0010
0000
0010
0100
0020
,
0000
0000
0130
0100
,
0001
0000
1000
0010
0000
0010
1000
0000
,
0010
0000
0010
0000
0100
0001
0100
0000
,
0010
0000
1000
0000
0001
0100
0001
0000
,
0010
1000
0010
0100
,
0001
0000
1000
0010
0000
0010
0001
0000
,
0100
0010
0100
0000
1000
0010
1000
0000
,
0100
0000
0001
0000
0100
0010
0100
0000
,
0020
0000
0000
0030
,
1000
0000
0100
0000
0001
0100
0001
0000
,
0100
0010
0100
0000
1000
0001
1000
0000
,
0010
0000
0100
0000
1000
0010
1000
0000
,
0100
1000
0100
0000
0010
0000
0010
0000
,
0100
0000
0001
0000
0100
0010
0100
0000
,
1000
0001
1000
0000
0010
0100
0010
0000
,
1000
0000
0100
0000
0001
0010
0001
0000
,
0100
0010
0100
0000
0001
0000
0000
0000
;

//---------------dance-single - ----------------
#NOTES:
     dance-single:
     :
     Easy:
     3:
     0.233,0.232,0.043,0.053,0.000: // measure 1
0010
0000
0010
0000
,  // measure 2
0020
0000
0030
0000
,  // measure 3
0100
0000
0100
0000
,  // measure 4
0200
0000
0300
0000
,  // measure 5
0001
0010
0100
0010
,  // measure 6
1000
0100
0010
0100
,  // measure 7
0010
0010
1000
0010
,  // measure 8
0100
0001
0100
0100
,  // measure 9
0001
0010
1000
0010
,  // measure 10
1000
0100
0001
0100
,  // measure 11
0010
0010
1000
0001
,  // measure 12
0200
0000
0300
0000
,  // measure 13
0010
0010
0001
0010
,  // measure 14
0001
0001
0100
0010
,  // measure 15
1000
1000
0100
1000
,  // measure 16
0100
0100
0010
0100
,  // measure 17
0001
0010
0100
1000
,  // measure 18
1000
0100
0010
0001
,  // measure 19
0100
0100
0010
0100
,  // measure 20
0001
0100
0020
0000
,  // measure 21
0130
0000
0000
1000
0000
0000
0001
0000
,  // measure 22
0000
0100
0000
0010
,  // measure 23
1000
0000
0000
0001
0000
0000
0100
0000
,  // measure 24
0000
0010
0100
0100
,  // measure 25
0001
0000
0000
0100
0000
0000
0010
0000
,  // measure 26
0000
0100
0000
0001
,  // measure 27
0100
0000
0000
0001
0000
0000
0100
0000
,  // measure 28
0000
0010
1000
1000
,  // measure 29
1001
0000
0110
0000
,  // measure 30
0001
0010
0100
0100
,  // measure 31
0010
1000
0010
0010
,  // measure 32
0100
0001
0100
0010
,  // measure 33
0110
0000
1001
0000
,  // measure 34
0010
0100
1000
1000
,  // measure 35
0100
0010
0001
0001
,  // measure 36
0200
0000
0000
0300
,  // measure 37
0010
0100
0001
1000
,  // measure 38
0010
0100
0001
1000
,  // measure 39
0100
0010
1000
0001
,  // measure 40
0100
0010
1000
0001
,  // measure 41
0010
0100
1000
0100
,  // measure 42
0010
0100
1000
0100
,  // measure 43
0001
0100
0001
0100
,  // measure 44
0010
0010
0100
0000
;
