#TITLE:Heart Shaker;
#SUBTITLE:;
#ARTIST:TWICE;
#TITLETRANSLIT:;
#SUBTITLETRANSLIT:;
#ARTISTTRANSLIT:;
#CREDIT:;
#BANNER:Z-2 banner.png;
#BACKGROUND:Z-2 bg.png;
#LYRICSPATH:;
#CDTITLE:;
#MUSIC:Z-2.mp3;
#OFFSET:-7.560;
#SAMPLESTART:47.480;
#SAMPLELENGTH:15.000;
#SELECTABLE:YES;
#BPMS:0.000=164.120;
#STOPS:;
#BGCHANGES:;

//---------------dance-single - ----------------
#NOTES:
     dance-single:
     :
     Hard:
     4:
     0.353,0.368,0.105,0.013,0.000:
0010
0000
0000
0010
0000
0000
0010
0000
,
0100
0000
0000
0100
0000
0000
0100
0000
,
0001
0010
0100
0010
,
0100
1000
0010
0010
,
1000
0100
0110
0000
,
0001
0010
0001
0100
,
0010
1000
0110
0000
,
1000
0010
0100
0100
,
0001
0000
0000
0010
0000
0000
0100
0000
,
1000
0000
0000
0100
0000
0000
0010
0000
,
0100
0000
0000
0001
0000
0000
0100
0000
,
0000
0010
0000
0000
0100
0000
0100
0000
,
0010
1000
0010
0000
,
0100
0001
0100
0100
,
0001
0010
0001
0000
,
0010
0010
1000
0010
,
0100
0000
0000
0001
0000
0000
0100
0000
,
0010
0000
0000
1000
0000
0000
0010
0000
,
0100
0000
0000
0010
0000
0000
1000
0000
,
0000
0001
0000
0000
0100
0000
0100
0000
,
0011
0010
0010
1000
,
0010
0010
0100
1000
,
1100
0010
0010
0100
,
0010
1000
0010
0001
,
0110
0100
0100
0010
,
0100
0001
0100
0000
,
0010
0001
0010
0100
,
0010
0000
0000
0000
,
1001
0000
0010
0000
0100
1000
0100
0000
,
0010
0010
0100
0001
,
0010
0100
0010
0000
0001
0000
0001
0000
,
1000
0010
1000
0010
,
1000
0000
0100
0010
0000
0010
0000
0000
,
0100
0100
0001
1000
,
0010
0000
0010
1000
0000
1000
0010
0000
,
0010
0100
0001
0100
,
1001
0000
0010
0000
0001
0100
0010
0000
,
0100
0000
1000
0000
0010
0100
0010
0000
,
1000
0000
1000
0000
1000
0000
0010
0100
,
0010
1000
0010
0010
,
0100
0000
0001
0001
0001
0000
0010
0000
,
0100
0000
0010
0010
0010
0000
0100
0000
,
1000
1000
0100
0010
,
1002
0010
0010
0013
,
0100
0000
0100
0000
0010
0000
1000
0010
,
1000
0001
0010
0100
,
0010
1000
0100
0010
;

//---------------dance-single - ----------------
#NOTES:
     dance-single:
     :
     Challenge:
     7:
     0.546,0.460,0.236,0.092,0.000:
0011
0000
0000
0110
0000
0000
1100
0000
,
0110
0000
0000
0011
0000
0000
0110
0000
,
0001
0010
0100
1000
0010
0000
0001
0010
,
0100
1000
0010
0000
0100
0000
0100
0000
,
0010
0100
1000
0100
0010
0000
0100
0000
,
0001
0010
0001
1000
0100
1000
0010
0000
,
0100
1000
0100
0010
0001
0000
0100
0000
,
0010
0100
0010
1000
0001
1000
0010
0000
,
0002
0000
0013
0100
0000
0100
0010
0000
,
2000
0000
3100
0010
0000
0010
0100
0010
,
1100
0000
0100
0010
0000
0001
0010
0000
,
0100
0010
0100
0000
1000
0000
0010
0100
,
0010
0000
0100
1000
0000
0100
0100
0010
,
0001
0010
0100
1000
0000
1000
0010
0001
,
0100
0010
1000
0010
0000
0100
0001
0010
,
0001
0010
0100
1000
0000
1000
0000
0000
,
0002
0000
0013
0100
0000
1000
0100
0000
,
0020
0000
0130
0001
0000
0001
0100
0010
,
1100
0000
0001
0100
0000
1000
0010
0000
,
0100
0001
0100
0000
0010
0000
0100
0000
,
2001
0100
3100
0010
,
0100
0001
0100
0000
0010
1000
0010
0000
,
1002
0010
0013
0100
,
0001
0010
0100
0000
0010
0100
1000
0000
,
0010
0000
0100
0000
0010
0010
0010
0000
,
1000
0100
0010
0000
0100
0010
0100
0000
,
0001
0010
0000
0010
0100
1000
0100
0010
,
0100
0000
0001
0000
0100
0010
0000
0010
,
1001
0000
0001
0010
0100
1000
0000
0010
,
0100
0010
0000
1000
0100
1000
0010
0100
,
0001
0000
0010
0100
0000
0100
0001
0100
,
0000
0010
0010
0000
1000
0100
0010
0001
,
0010
0000
0100
0110
0000
0110
0000
1000
,
0100
0010
0001
0000
0001
0000
0010
0100
,
0010
0000
1000
0011
0000
0011
0100
0000
,
0100
0000
0001
0000
0010
1000
0000
0001
,
0110
0000
0010
0001
1000
0010
0000
0100
,
0000
0001
0010
0100
0001
0010
0100
1000
,
0010
0100
0100
0010
0100
0100
0000
0110
,
0000
1000
1000
0000
0001
1000
0001
1000
,
0001
0000
0100
0100
0100
0010
1000
0010
,
0100
0000
0001
0000
1000
0100
0010
0100
,
0000
0010
1000
0010
1000
0010
0001
0010
,
0200
0010
1000
0301
,
0010
1000
0010
0100
0001
0100
0010
0100
,
0000
0110
0100
0100
,
0001
0010
0100
1000
;

//---------------dance-single - ----------------
#NOTES:
     dance-single:
     :
     Medium:
     3:
     0.345,0.338,0.118,0.131,0.000:
2000
3100
0002
0013
,
0100
0010
0200
0300
,
0001
0001
0010
0100
,
1000
1000
0100
0010
,
1000
0001
2000
3000
,
0010
0001
0010
0010
,
0100
0001
0200
0300
,
0010
1000
0100
0100
,
0001
0000
0000
1000
0000
0000
0001
0000
,
0100
0000
0000
0010
0000
0000
0100
0000
,
0001
0000
0000
1000
0000
0000
0001
0000
,
0000
1000
0010
0000
0100
0000
0100
0000
,
1001
0010
0200
0300
,
0010
0010
0001
1000
,
0110
1000
0002
0003
,
0010
1000
0010
0010
,
0100
0000
0000
1000
0000
0000
0001
0000
,
0100
0000
0000
0001
0000
0000
0100
0000
,
0010
0000
0000
1000
0000
0000
0001
0000
,
0000
0100
0010
0000
0010
0000
1000
0000
,
0010
0010
1001
0000
,
0001
0001
0011
0000
,
0100
0100
1100
0000
,
0010
0010
1001
0000
,
0001
0010
0100
1000
,
1000
0100
0020
0030
,
0100
0100
0001
0100
,
0010
0000
0000
0000
,
1001
1000
0010
0100
,
0001
0010
0001
0010
,
0100
0010
1000
0010
,
0200
0300
0010
0010
,
1000
0000
0000
0001
0000
0000
1000
0000
,
0010
0010
0100
0001
,
1000
0000
0000
0001
0000
0000
1000
0000
,
1000
0100
0010
0001
,
0110
0001
0010
0001
,
1000
0100
1000
0010
,
0100
0001
0010
1000
,
0002
0003
0100
0010
,
0010
1000
0010
0010
,
1000
0010
0100
0001
,
0100
0001
0100
0100
,
0001
1000
0100
0100
,
0100
0010
1000
0001
,
0010
0100
0010
0100
,
0001
0001
0001
1001
;

//---------------dance-single - ----------------
#NOTES:
     dance-single:
     :
     Easy:
     2:
     0.218,0.214,0.092,0.000,0.000: // measure 1
0010
0000
0010
0000
,  // measure 2
0100
0000
0100
0000
,  // measure 3
0001
0000
1000
0000
,  // measure 4
0001
0001
0010
0010
,  // measure 5
1000
0000
0100
0000
,  // measure 6
0010
0000
0001
0000
,  // measure 7
0001
0000
0010
0000
,  // measure 8
0100
0000
1000
0000
,  // measure 9
0010
0000
0010
0000
,  // measure 10
0100
0000
0100
0000
,  // measure 11
0001
0000
0010
0000
,  // measure 12
0001
0001
0001
0000
,  // measure 13
0010
0000
0100
0000
,  // measure 14
0001
0000
1000
0000
,  // measure 15
0010
0000
0100
0000
,  // measure 16
0001
0000
1000
0000
,  // measure 17
0100
0000
1000
0000
,  // measure 18
0100
0000
1000
0000
,  // measure 19
0010
0000
0100
0000
,  // measure 20
0001
0001
0001
0010
,  // measure 21
0100
0000
0110
0000
,  // measure 22
0010
0000
0110
0000
,  // measure 23
1000
0000
1001
0000
,  // measure 24
0001
0000
1001
0000
,  // measure 25
0010
0010
0010
0000
,  // measure 26
0100
0100
0100
0000
,  // measure 27
0001
0010
0100
1000
,  // measure 28
0100
0000
0000
0000
,  // measure 29
1001
0000
0010
0000
,  // measure 30
0001
0000
0100
0000
,  // measure 31
0001
0000
0100
0000
,  // measure 32
0010
0000
1000
0000
,  // measure 33
0010
0000
0100
0000
,  // measure 34
0010
0010
0010
0000
,  // measure 35
1000
0000
0001
0100
,  // measure 36
0100
0000
0010
0000
,  // measure 37
1001
0000
0010
0000
,  // measure 38
0100
0000
1000
0000
,  // measure 39
0001
0000
0100
0000
,  // measure 40
0010
0000
0100
0000
,  // measure 41
0001
0001
0001
0000
,  // measure 42
0100
0100
0100
0000
,  // measure 43
0010
0000
1000
0000
,  // measure 44
0010
0100
0010
0100
,  // measure 45
0000
0010
0010
0100
,  // measure 46
1000
0000
0001
0000
,  // measure 47
0100
0000
0110
0000
;
