#TITLE:Heart Attack;
#SUBTITLE:;
#ARTIST:LOONA;
#TITLETRANSLIT:;
#SUBTITLETRANSLIT:;
#ARTISTTRANSLIT:;
#CREDIT:;
#BANNER:Heart Attack banner.png;
#BACKGROUND:Heart Attack bg.png;
#LYRICSPATH:;
#CDTITLE:cdtitle.png;
#MUSIC:Heart Attack.mp3;
#OFFSET:-4.940;
#SAMPLESTART:43.740;
#SAMPLELENGTH:15.000;
#SELECTABLE:YES;
#BPMS:0.000=198.000,96.000=99.400,112.000=198.001;
#STOPS:111.750=0.020
;
#BGCHANGES:;

//---------------dance-single - ----------------
#NOTES:
     dance-single:
     :
     Hard:
     8:
     0.611,0.711,0.602,0.424,0.082:
1000
1010
0100
0101
,
0010
0000
0001
0210
0000
0300
0010
0000
,
1100
0000
0110
0000
0011
0000
0100
2000
,
0000
0000
0000
0100
0000
0000
3001
0000
,
0110
0001
0010
1100
,
0100
0000
0010
0002
0000
0000
0013
0000
,
0110
0000
0011
0000
0110
0000
1000
0200
,
0000
0300
0010
0000
1001
0000
0000
0000
,
0110
0000
1000
0010
0100
0000
0100
0001
,
0000
0001
0000
0020
0000
0030
0100
0000
,
0011
0000
0010
0000
0110
1000
0000
0020
,
0000
0030
0100
0000
1000
0000
0100
0010
,
0001
0010
0100
1000
,
0110
0000
1000
0110
0000
0000
0010
0001
,
1000
0100
0100
0001
,
0100
0001
0000
0010
0000
1000
1000
0000
,
1001
0000
0010
0000
0010
0000
1000
0010
,
0000
0010
0000
0200
0000
0300
0001
0010
,
0001
0000
1000
0000
0100
0100
0000
0010
,
0000
0100
0001
0000
0010
0100
1000
0100
,
0220
0330
2002
3003
,
0011
0000
0100
1100
0000
0000
0010
0000
,
1000
0100
0010
0000
0100
0000
0100
0000
,
0101
0000
0010
0200
0000
0000
1300
0000
,
1000
0001
0000
0001
1000
0000
0010
0000
1000
0001
0000
0001
1000
0000
0010
0000
,
0100
0000
1000
0000
0010
0001
0010
0200
0000
0000
0300
0000
0011
0000
0000
0100
,
0000
0100
0010
0000
0001
0000
0010
0000
0100
1000
0000
0100
0000
0010
0000
0002
,
0000
0010
0100
1003
,
1001
0010
0001
0010
,
1001
0000
0100
2000
3000
0020
0030
0002
,
0003
0100
0100
0000
0010
0000
1000
0000
,
0001
0000
0000
0000
1000
0000
0020
0000
0030
0000
0200
0000
0300
0000
0002
0003
,
1010
0010
0100
0010
,
1001
0000
0100
0002
0003
0020
0030
2000
,
3000
0010
0100
0001
,
1010
0000
0100
0020
0030
0200
0300
0020
,
0030
1100
0100
0110
,
0001
0000
0001
2000
3000
0000
0010
0100
,
0010
0000
1000
0000
0010
0000
0100
0001
,
0000
0001
0100
0000
0010
0100
0000
0000
,
1001
0011
1001
0010
,
0010
0000
0100
0000
1000
0000
0010
0100
,
0001
1000
0001
1000
1000
0001
1000
0002
,
0000
0003
0000
0100
0000
0100
0000
0010
,
0110
0001
0110
1000
,
0110
0000
1000
2000
0000
3000
0100
0000
,
0001
0000
0010
0000
0100
0000
1000
0002
,
0000
0010
0010
0013
,
1001
0100
1001
0010
,
1001
0000
1000
0020
0000
0030
0100
0000
,
0011
0000
0110
0000
1100
0000
0010
0010
,
0100
0100
0100
0100
0110
0000
0000
0000
,
0010
0000
0000
0000
;

//---------------dance-single - ----------------
#NOTES:
     dance-single:
     :
     Easy:
     3:
     0.281,0.355,0.041,0.014,0.000: // measure 1
0010
0000
0010
0000
,  // measure 2
0100
0000
0100
0000
,  // measure 3
0001
0000
0010
0000
,  // measure 4
0100
0000
1000
0000
,  // measure 5
1000
0000
1000
0000
,  // measure 6
0001
0000
0001
0000
,  // measure 7
1000
0000
0100
0000
,  // measure 8
0010
0000
0001
0000
,  // measure 9
0110
0000
0000
0100
,  // measure 10
0010
0100
0000
0000
,  // measure 11
0001
0000
0100
0000
,  // measure 12
0010
0000
1000
0000
,  // measure 13
0001
0000
0100
0000
,  // measure 14
0001
0000
1000
0010
,  // measure 15
0000
0100
0000
0001
,  // measure 16
0000
1000
1000
0000
,  // measure 17
0010
0000
0100
0000
,  // measure 18
0001
0000
0100
0000
,  // measure 19
0010
0000
1000
0000
,  // measure 20
0001
0000
0010
0000
,  // measure 21
0100
0000
0100
0000
,  // measure 22
0010
0010
0010
0000
,  // measure 23
1000
0000
0001
0000
,  // measure 24
0100
0010
0100
0000
,  // measure 25
0001
0010
0100
1000
,  // measure 26
0010
0100
0020
0130
,  // measure 27
1000
0100
0010
0100
,  // measure 28
0010
0010
0010
0100
,  // measure 29
1001
0001
0010
0100
,  // measure 30
1000
1000
0100
0000
,  // measure 31
0010
0100
0001
0010
,  // measure 32
1000
0010
0100
0000
,  // measure 33
1000
0001
0100
0001
,  // measure 34
0100
1000
0010
0000
,  // measure 35
1000
0100
0001
0010
,  // measure 36
0001
1000
0100
0000
,  // measure 37
0010
0010
0100
0010
,  // measure 38
1000
1000
0001
1000
,  // measure 39
0001
0010
0100
1000
,  // measure 40
0100
0000
0110
0000
,  // measure 41
0100
0100
0001
0100
,  // measure 42
0100
0010
1000
0001
,  // measure 43
0010
0010
0000
1000
,  // measure 44
1000
0000
0010
0010
,  // measure 45
1000
0000
0001
0000
,  // measure 46
0001
0000
1000
0000
,  // measure 47
0010
0000
0100
0000
,  // measure 48
0010
0000
0100
0000
,  // measure 49
0001
0000
0001
0000
,  // measure 50
1000
0000
1000
0000
,  // measure 51
0001
0000
0010
0000
,  // measure 52
0100
0000
1000
0000
,  // measure 53
0010
0000
0000
0000
;

//---------------dance-single - ----------------
#NOTES:
     dance-single:
     :
     Medium:
     5:
     0.447,0.498,0.096,0.191,0.000:
0100
0010
0100
0010
,
0001
0000
0010
0020
0000
0030
0100
0000
,
1000
0000
0100
0000
0010
0000
0001
0002
,
0000
0003
0100
0000
0000
0010
0000
0000
,
0100
1000
0010
0100
,
0001
0000
1000
0020
0000
0030
0100
0000
,
0001
0010
0100
1000
,
0010
0010
0010
0010
0010
0000
0000
0000
,
0110
1000
1000
0100
,
0001
0001
0100
0010
,
1001
0010
0001
0010
,
0200
0000
0310
1000
,
0010
0001
0001
0010
,
1000
0010
0010
0100
,
0002
0013
0020
0130
,
1000
0010
0100
0000
,
1010
0100
0100
0001
,
0100
0100
0020
0030
,
0100
0001
0010
0001
,
1000
0100
1000
0010
,
0110
0000
1001
0000
,
1100
0100
0100
0001
,
0010
0010
0100
1000
,
0010
0100
0001
0010
,
0100
1000
0100
0000
0010
0100
0010
0000
,
0001
0010
0100
0010
0200
0000
0310
0000
,
1000
1000
1000
0000
0100
0100
0100
0000
,
0020
0100
0100
0130
,
1001
0010
0100
0001
,
0100
0000
0010
1000
0000
1000
0000
0010
,
0000
0100
0001
0100
,
0010
0000
1000
0001
0000
0010
0000
0100
,
0000
0010
0010
0100
,
0001
0000
1000
0010
0000
0100
0000
0001
,
0000
0100
1000
0100
,
0001
0000
0100
0010
0000
1000
0000
0010
,
0100
1000
0100
0100
,
0010
0001
0010
0010
,
1000
0100
0010
0001
,
0020
0000
0130
0000
,
0010
0010
0100
0100
,
0001
0010
0100
1000
,
0010
0000
0010
0000
0000
0100
0000
0100
,
0000
0000
0000
0010
0000
0010
0000
0010
,
0100
1000
0001
0010
,
0001
0000
0100
0200
0000
0300
0010
0000
,
1000
0000
0100
0000
0010
0000
0001
0002
,
0000
0003
0010
0000
0010
0000
0100
0000
,
0010
1000
0001
0100
,
1000
0000
0010
0020
0000
0030
1000
0000
,
0001
0000
0010
0000
0100
0000
1000
2000
,
0000
3000
0010
0000
0010
0000
0100
0000
,
0010
0000
0000
0000
;

//---------------dance-single - ----------------
#NOTES:
     dance-single:
     :
     Beginner:
     1:
     0.156,0.249,0.000,0.055,0.000:
0010
0000
0000
0000
,
0010
0000
0000
0000
,
1000
0000
0000
0000
,
1000
0000
0000
0000
,
0001
0000
0000
0000
,
0001
0000
0000
0000
,
0100
0000
0000
0000
,
0100
0000
0000
0000
,
0020
0000
0000
0030
,
0000
0000
0000
0000
,
0010
0000
0000
0000
,
0001
0000
0000
0000
,
0010
0000
0000
0000
,
1000
0000
0000
0000
,
0010
0000
0010
0000
,
0010
0000
0000
0000
,
0100
0000
0000
0000
,
0001
0000
0000
0000
,
1000
0000
0000
0000
,
0010
0000
0000
0000
,
0100
0000
0000
0000
,
0100
0000
0000
0000
,
1000
0000
1000
0000
,
1000
0000
0000
0000
,
0010
0000
0010
0000
,
0100
0000
0100
0000
,
0001
0000
0010
0000
,
0100
0000
1000
0000
,
0010
0000
0010
0000
,
0100
0000
0100
0000
,
0001
0000
0001
0000
,
1000
0000
0010
0000
,
0100
0000
0100
0000
,
0001
0000
0001
0000
,
1000
0000
1000
0000
,
0010
0000
0001
0000
,
0200
0000
0310
0000
,
2000
0000
3010
0000
,
0002
0000
0013
0000
,
0100
0000
0001
0000
,
0010
0000
0010
0000
,
1000
0000
0001
0000
,
0100
0100
0000
0000
,
0010
0000
0000
0000
,
0010
0000
0000
0000
,
0100
0000
0000
0000
,
0001
0000
0000
0000
,
1000
0000
0000
0000
,
0010
0000
0000
0000
,
0100
0000
0000
0000
,
0001
0000
1000
0000
,
0001
0001
0001
0000
,
0010
0000
0000
0000
;
