#TITLE:Girl Front;
#SUBTITLE:;
#ARTIST:ODD EYE CIRCLE (LOONA);
#TITLETRANSLIT:;
#SUBTITLETRANSLIT:;
#ARTISTTRANSLIT:;
#CREDIT:;
#BANNER:Girl Front banner.png;
#BACKGROUND:Girl Front bg.png;
#LYRICSPATH:;
#CDTITLE:cdtitle.png;
#MUSIC:Girl Front.mp3;
#OFFSET:-7.520;
#SAMPLESTART:40.540;
#SAMPLELENGTH:15.000;
#SELECTABLE:YES;
#BPMS:0.000=140.020;
#STOPS:;
#BGCHANGES:;

//---------------dance-single - ----------------
#NOTES:
     dance-single:
     :
     Hard:
     9:
     0.631,0.631,0.302,0.079,0.256:
0010
0100
0001
0010
1000
0010
0100
0000
,
0001
1000
0100
1000
0010
0100
0001
0000
,
0010
1000
0010
0001
0100
0010
0100
0000
,
0011
0000
0000
0110
0000
0000
1100
0000
0010
0000
0100
0000
1001
0000
0000
0000
,
0010
0000
1000
0000
0001
0100
0001
0000
,
0010
0000
0100
0000
0010
0000
1000
0000
0100
0000
0000
0001
0000
0000
0200
0000
,
0310
0000
0000
0000
0001
0010
0100
1000
0100
0000
0010
1000
0000
0000
1000
0000
,
0010
0100
1000
0010
0100
1000
0001
0100
,
0010
0000
0100
0000
0010
1000
0001
0000
,
0200
0000
0000
0000
1300
0000
1000
0000
0110
0000
0000
0011
0000
0000
0110
0000
,
0000
0000
0100
0000
1000
0100
0010
0001
0010
0000
0100
1000
0000
0000
1000
0000
,
0010
0100
1000
0001
0100
0010
0001
1000
,
0011
0000
0010
0100
1100
0000
0010
0010
,
0100
1000
0001
1000
0010
0000
1100
0001
,
0010
0100
0020
0000
1030
0000
0100
1000
,
0000
0100
0010
0100
0001
0000
0100
0100
,
0200
0000
0010
0010
0010
0000
0001
0301
,
0001
0000
1000
0000
0010
0000
1000
0000
0001
0000
0000
0110
0000
0000
0100
0000
,
0100
0010
0001
1000
0010
1000
0001
0100
,
1010
0000
0000
0101
0000
0000
0110
0000
0001
0000
1000
0000
0010
0000
0100
1000
,
0020
0000
0000
0000
0130
0000
1000
0000
0010
0000
0001
0000
0010
0000
0100
1000
,
0100
0000
1000
0000
0010
0000
0100
0000
0001
0000
1000
0000
0010
0000
1000
0010
,
0001
0000
0000
0000
1000
0000
0001
0000
0110
0000
0000
1000
0000
0000
0110
0000
,
0000
0001
0001
0010
0100
1000
0010
0100
,
1001
0000
1000
0000
0010
0000
0010
0000
0100
0000
0000
0011
0000
0000
1000
0000
,
0000
0000
0100
0000
0010
0000
0100
0000
0010
0000
0000
1001
0000
0000
0001
0000
,
1000
0000
0000
0000
0010
0000
0100
0000
0010
0000
0000
1100
0000
0000
0001
0000
,
0000
0000
1000
0000
0100
0000
0010
0000
0001
0000
0010
0000
0100
0000
0001
1000
,
0001
0000
0100
0010
0100
0000
1000
0000
0011
0000
0000
0100
0000
0000
1100
0000
,
0010
0000
1000
0100
1000
0000
0010
0000
0100
0000
0000
0001
0000
0000
0100
0000
,
0001
0010
0100
1000
0001
0010
0100
2000
,
3000
0000
0010
0100
0010
0000
1000
0000
0100
0000
0010
0000
0001
0000
1000
0100
,
1000
0010
0010
0100
0001
0100
0100
0010
,
1000
0100
0100
0001
0010
0100
1000
0100
,
0010
1000
1000
0100
0010
0001
0001
0100
,
0010
0000
1000
0100
0010
0001
0010
0100
1000
0000
0010
0000
0100
0010
0100
0000
,
1001
0000
0010
0000
0010
0000
0100
1000
0100
0000
0001
0000
0001
0000
0100
0000
,
0010
0000
1000
0001
1000
0000
0010
0100
0010
0000
0001
0000
1000
0000
0100
0000
,
1000
0000
0010
0100
0010
0000
1000
0100
1000
0000
0010
0000
0100
0000
0001
0000
,
0100
0000
0010
1000
0010
1000
0001
1000
0010
0000
0100
0001
0100
0010
1000
0000
,
0100
0000
0000
0000
;

//---------------dance-single - ----------------
#NOTES:
     dance-single:
     :
     Medium:
     6:
     0.361,0.342,0.210,0.105,0.000:
1000
0000
1000
0000
0010
0010
0100
0000
,
0001
0000
0001
0000
0010
0010
1000
0000
,
0100
0000
0100
0000
0001
0001
0001
0000
,
0010
0100
1000
0100
,
1001
1010
0100
0100
,
0001
0010
0001
0000
0010
0000
0100
1000
,
0000
0100
0100
1010
,
0100
0001
0100
0010
,
0101
1001
0010
0100
,
0002
0000
0000
0003
0010
0000
0010
0000
,
1000
0000
0001
0000
0100
0010
0100
0000
,
1000
0010
0100
0001
,
0110
0000
1100
0000
0110
0000
0000
0010
,
0000
0010
0100
0000
0100
0000
0001
0000
,
1100
0000
0110
0000
0011
0000
0000
0100
,
0000
0100
0001
0000
0001
0000
0010
0000
,
2000
3100
0200
0310
,
1000
0001
0010
0010
,
1000
0000
0101
0000
0010
0010
0010
0000
,
0100
0000
0001
0000
0100
0010
0100
0000
,
1001
0100
1000
0100
,
0010
0010
0010
0000
0100
0000
0001
0000
,
0010
1000
0010
0000
0100
0000
1000
0100
,
0200
0000
0010
0010
,
0301
0010
0100
0100
,
1000
0010
0100
0100
,
0001
1000
0010
0010
,
1000
0001
0001
1000
,
1001
0010
0100
1000
,
1001
0010
0100
1000
,
0010
0100
0010
0100
0010
0100
0010
0200
,
0000
0300
0000
0000
0001
0000
0001
0000
,
2000
3100
0010
0100
,
0002
0013
0100
0010
,
2000
3100
0010
0100
,
0001
1000
0010
0010
,
0101
0000
0000
0010
0000
0000
0100
0000
,
0000
1000
0000
0000
0010
0000
0010
0000
,
1000
0000
0000
0001
0000
0000
0100
0000
,
0001
0010
0100
1000
,
0010
0000
0000
0000
;

//---------------dance-single - ----------------
#NOTES:
     dance-single:
     :
     Easy:
     3:
     0.316,0.289,0.131,0.131,0.000: // measure 1
0010
0010
0100
0010
,  // measure 2
1000
1000
0001
1000
,  // measure 3
0100
0100
0010
0100
,  // measure 4
0001
0010
0100
1000
,  // measure 5
0110
0100
0001
0001
,  // measure 6
0010
0100
1000
0100
,  // measure 7
0020
0030
0100
0100
,  // measure 8
0000
0010
0100
1000
,  // measure 9
1001
0010
0001
0100
,  // measure 10
0020
0030
0100
0100
,  // measure 11
1000
0100
0010
0001
,  // measure 12
0001
0010
0100
1000
,  // measure 13
0002
0023
0230
0300
,  // measure 14
0010
0010
1000
0010
,  // measure 15
2000
3200
0320
0030
,  // measure 16
0100
1000
0100
0010
,  // measure 17
0100
0100
0001
0001
,  // measure 18
0010
1000
0010
1000
,  // measure 19
0010
0110
0100
0100
,  // measure 20
0001
1000
0010
0100
,  // measure 21
1001
0010
0100
0010
,  // measure 22
0010
1000
0001
0010
,  // measure 23
0100
0010
1000
1000
,  // measure 24
0020
0000
0130
0100
,  // measure 25
0001
0010
1000
1000
,  // measure 26
0001
0010
1000
1000
,  // measure 27
0100
1000
0010
0010
,  // measure 28
0100
1000
0100
0001
,  // measure 29
0110
0010
0010
0010
,  // measure 30
0110
0100
0100
0100
,  // measure 31
0001
0010
0100
1000
,  // measure 32
0200
0300
0010
0010
,  // measure 33
1000
1000
0100
0010
,  // measure 34
0001
0001
0010
0100
,  // measure 35
1000
1000
0100
0010
,  // measure 36
0100
0001
1000
0100
,  // measure 37
0110
0000
0110
0000
,  // measure 38
1001
0000
1001
0000
,  // measure 39
0001
0000
0001
0000
,  // measure 40
0010
0010
0100
0010
,  // measure 41
0010
0000
0000
0000
;

//---------------dance-single - ----------------
#NOTES:
     dance-single:
     :
     Beginner:
     1:
     0.171,0.209,0.039,0.079,0.000:
0010
0000
0000
0000
,
0010
0000
0000
0000
,
0100
0000
0000
0000
,
0100
0000
0000
0000
,
1000
0000
1000
0000
,
0001
0000
0001
0000
,
0200
0000
0300
0000
,
0010
0000
0110
0000
,
0010
0000
0010
0000
,
0100
0000
0100
0000
,
0001
0000
1000
0000
,
0001
0000
1000
0000
,
0010
0010
0010
0000
,
0100
0000
0100
0000
,
0001
0001
0001
0000
,
1000
0000
0010
0000
,
2000
0000
0000
3000
,
0100
0000
0100
0000
,
1000
0000
0010
0000
,
0100
0000
0001
0000
,
1001
0000
0010
0000
,
0100
0000
0001
0001
,
0001
0000
0100
0000
,
0020
0030
0000
0000
,
0100
0000
0100
0000
,
1000
0000
1000
0000
,
0010
0000
0010
0000
,
0001
0000
0001
0000
,
1001
0000
0010
0000
,
1000
0000
0010
0000
,
0100
0100
0100
0100
,
0100
0000
0010
0000
,
2000
0000
3100
0000
,
0002
0000
0013
0000
,
0200
0000
0310
0000
,
1000
1000
1000
1000
,
0010
0000
0010
0000
,
0010
0000
0010
0000
,
0010
0000
0010
0000
,
0100
0100
0100
0100
;
