#TITLE:Focus;
#SUBTITLE:;
#ARTIST:H.E.R.;
#TITLETRANSLIT:;
#SUBTITLETRANSLIT:;
#ARTISTTRANSLIT:;
#CREDIT:;
#BANNER:Focus banner.png;
#BACKGROUND:Focus bg.png;
#LYRICSPATH:;
#CDTITLE:;
#MUSIC:Focus.mp3;
#OFFSET:-16.880;
#SAMPLESTART:66.560;
#SAMPLELENGTH:15.000;
#SELECTABLE:YES;
#BPMS:0.000=86.960;
#STOPS:26.000=1.040
,32.500=1.020
;
#BGCHANGES:;

//---------------dance-single - ----------------
#NOTES:
     dance-single:
     :
     Hard:
     6:
     0.284,0.248,0.141,0.101,0.020:
0010
0100
0001
0000
0010
0001
0100
0000
,
1000
0010
0100
0000
1000
0100
0010
0000
,
0100
0001
0100
0000
0010
1000
0010
0000
,
1000
0100
1000
0000
0001
0010
0001
0010
,
0100
0100
0100
0000
0010
0100
0010
0000
,
1000
0100
0100
0000
0001
0010
0100
1000
,
0100
0001
0100
0000
1000
0100
0010
0001
,
0000
0010
0100
0010
0000
1000
0100
0010
,
0001
0100
0010
1000
0010
0000
0100
1000
,
0100
0010
0001
0010
0100
0000
0001
0010
,
0001
0000
0010
0100
1000
0100
0010
0000
,
0100
0100
0001
0200
0000
0300
0010
1000
,
0010
0000
0000
0000
1100
0000
0000
0110
0000
0000
0011
0000
0000
0110
0000
0000
,
1000
0100
0001
0200
0000
0300
0001
0010
,
0001
0000
0000
0000
0011
0000
0000
0110
0000
0000
1100
0000
0000
0110
0000
0000
,
0010
0100
0001
0200
0000
0300
1000
0100
,
0010
0000
0100
0010
0001
0010
0100
0010
,
0100
0000
1002
0000
0013
0000
0100
1000
,
0100
0000
0010
0100
0010
0000
1000
0100
,
0010
0001
2100
0000
3010
0000
0100
0001
,
0100
0000
0010
1000
0010
0000
0100
1000
,
0100
0010
0102
0000
0103
0000
0010
0100
,
1000
0000
0100
1000
0100
0010
0100
0001
,
0100
0000
0110
0010
0010
0000
1000
0100
,
0001
0000
0200
0000
0310
0000
1000
0100
,
0001
0100
1002
0000
0103
0000
0010
0100
,
0010
0000
1000
0001
1000
0000
0100
1000
,
0100
0010
0021
0000
1030
0000
0100
0001
,
0100
0000
0020
0000
0000
0000
0000
0030
;

//---------------dance-single - ----------------
#NOTES:
     dance-single:
     :
     Medium:
     4:
     0.170,0.161,0.101,0.040,0.000:
0010
0010
0100
0010
,
1000
1000
0001
1000
,
0010
0100
1000
1000
,
0010
0100
0001
0001
,
0010
0001
0010
0010
,
0100
0010
0100
0100
,
0001
0000
0010
0000
0000
1000
0000
0100
,
0000
0010
0000
0001
0000
0010
0000
0100
,
0000
0010
0100
0001
,
0010
0001
0010
0100
,
0010
1000
1000
0110
,
1000
0020
0000
0030
,
0000
0100
0001
0010
,
0100
2000
0000
3000
,
0000
0001
0100
0010
,
0100
0002
0000
0003
,
0000
0010
0100
0010
,
0010
1001
0100
1000
,
0100
1001
0010
0100
,
0100
1001
0010
0001
,
0010
1001
0100
0010
,
0010
1001
0010
0001
,
0010
1001
0010
0100
,
1000
0010
0100
1000
,
0100
0001
0010
0100
,
0010
1100
0100
0010
,
0001
1100
0100
0010
,
0001
0011
0010
0100
,
1000
0020
0000
0000
,
0030
0000
0000
0000
;

//---------------dance-single - ----------------
#NOTES:
     dance-single:
     :
     Easy:
     2:
     0.127,0.132,0.000,0.040,0.000: // measure 1
0010
0000
0010
0000
,  // measure 2
0100
0000
0100
0000
,  // measure 3
0001
0000
0001
0000
,  // measure 4
0010
0000
0010
0000
,  // measure 5
1000
0000
1000
0000
,  // measure 6
0010
0000
0010
0000
,  // measure 7
0100
0000
0000
0000
0100
0010
0000
0000
,  // measure 8
0000
0010
0000
0000
0000
0001
0000
0000
,  // measure 9
0000
1000
0010
0000
0000
0000
0100
0000
,  // measure 10
0000
0001
0000
0100
,  // measure 11
0000
0010
0000
1000
,  // measure 12
0000
0020
0000
0030
,  // measure 13
0000
0100
0100
0001
,  // measure 14
0100
0020
0000
0030
,  // measure 15
0000
1000
1000
0010
,  // measure 16
1000
0002
0000
0003
,  // measure 17
0000
0100
0010
0100
,  // measure 18
0010
1000
0100
0010
,  // measure 19
0001
1000
0100
0010
,  // measure 20
0001
0001
0010
0100
,  // measure 21
1000
0001
0010
0100
,  // measure 22
1000
0010
0010
0001
,  // measure 23
0100
1000
1000
0010
,  // measure 24
0100
0010
0010
0100
,  // measure 25
0001
0100
0100
0001
,  // measure 26
1000
0010
0100
0010
,  // measure 27
1000
0100
0010
0100
,  // measure 28
0001
0010
0010
1000
,  // measure 29
0010
0200
0000
0000
,  // measure 30
0300
0000
0000
0000
;
