#TITLE:Everyday I Love You;
#SUBTITLE:;
#ARTIST:LOONA;
#TITLETRANSLIT:;
#SUBTITLETRANSLIT:;
#ARTISTTRANSLIT:;
#CREDIT:;
#BANNER:Everyday I Love You banner.png;
#BACKGROUND:Everyday I Love You bg.png;
#LYRICSPATH:;
#CDTITLE:cdtitle.png;
#MUSIC:Everyday I Love You.mp3;
#OFFSET:-9.520;
#SAMPLESTART:57.260;
#SAMPLELENGTH:15.000;
#SELECTABLE:YES;
#BPMS:0.000=104.300,15.500=110.000,16.000=111.000,16.500=112.000,17.000=113.000,17.500=114.000,18.000=120.000,18.500=120.000,19.000=120.000,19.500=120.000,20.000=122.000,28.000=119.900,96.000=120.100;
#STOPS:;
#BGCHANGES:;

//---------------dance-single - ----------------
#NOTES:
     dance-single:
     :
     Hard:
     6:
     0.337,0.308,0.110,0.066,0.000:
0100
0000
0010
0000
1000
0100
1000
0000
,
0010
0000
1000
0000
0010
0001
0010
0000
,
0100
0000
0001
0000
0010
1000
0010
0000
,
0100
0001
0100
0010
,
0000
0000
0000
0000
,
0100
0000
1000
0000
0100
1000
0100
0000
,
0001
0000
0100
0000
0010
0001
0010
0000
,
1001
0000
0010
0000
1000
0100
0010
0000
,
0101
0000
0010
0000
0100
1000
0001
0000
,
0110
0000
0001
1000
0000
1000
0010
1000
,
0000
0100
0000
0001
0000
0100
0010
0100
,
0001
0000
0010
0000
0100
1000
0100
0010
,
0001
0000
0010
0000
0100
0010
1000
0010
,
0100
0000
0001
0010
0000
0010
0001
0010
,
0000
0100
0000
1000
0000
0100
0000
0010
,
0200
1300
0010
0100
,
0002
0013
0100
0010
,
2000
3100
0010
0001
,
0020
0031
1000
0001
,
1010
0000
1000
0000
0010
0100
0010
0000
,
0011
0000
0100
0000
0010
0001
0010
0000
,
0110
0000
0100
0000
0001
0100
0001
0000
,
0010
0010
0000
0100
0000
1000
1000
0000
,
0001
0010
0100
1000
,
1001
0000
0010
0000
0100
1000
0001
0010
,
0001
0000
0100
0000
0010
1000
0010
0100
,
0010
0000
1000
0000
0001
0100
1000
0100
,
0001
0000
0010
0100
0000
0001
0000
1000
,
0110
0000
0001
1000
0000
0010
0000
1000
,
0010
0100
0001
1000
,
0001
0010
0100
2000
0000
3000
0100
0000
,
0010
0100
0010
0100
0000
0100
0010
0000
,
1001
0000
0010
0000
0100
0001
0100
0010
,
1000
0000
0001
0000
0100
0010
1000
0010
,
0001
0000
0100
0000
0010
0001
1000
0100
,
1000
0000
0100
0010
0000
0001
0000
1000
,
0020
0000
0100
0000
1000
0000
0100
1000
,
1000
1000
0000
0000
0100
0000
1000
0030
,
0100
0001
1000
0010
0000
0000
0100
0000
,
0001
0010
0100
1000
0000
0010
0100
0000
,
1001
0000
0000
0000
;

//---------------dance-single - ----------------
#NOTES:
     dance-single:
     :
     Challenge:
     8:
     0.425,0.396,0.088,0.165,0.126:
0010
0000
0000
0000
0100
0000
0001
0010
0001
0000
0010
0000
0100
0000
1000
0000
,
0100
0000
0000
0000
0010
0000
0100
1000
0100
0000
0010
0000
0100
0000
0001
0000
,
0100
0000
0010
1000
0000
1000
0010
0100
,
0000
0001
0000
0100
0000
0010
0100
0020
,
0000
0000
0000
0000
0000
0000
0000
0000
0000
0000
0000
0030
0000
0000
0000
0000
,
0100
0000
0000
0001
0010
0000
0000
0000
0100
0000
1000
0000
0100
0000
0000
0000
,
0010
0000
0000
1000
0100
0000
0000
0000
0010
0000
0100
0000
0010
0000
0000
0000
,
1001
0000
0000
0000
0010
0000
1000
0100
1000
0000
0100
0000
0010
0000
0001
0000
,
0010
0000
0000
0000
0100
0000
0001
0010
0001
0000
0010
0000
1000
0000
0010
0000
,
0100
0000
0010
1000
0000
1000
0100
1000
,
0000
0011
0000
0110
0000
0001
1000
0001
,
0010
0000
0000
0000
0100
0000
0010
1000
0100
0000
0001
0000
0100
0000
0010
0000
,
0100
0000
0000
0000
0001
0000
1000
0001
0010
0000
1000
0000
0100
0000
1000
0000
,
0010
0000
0100
0001
0000
0010
0001
0100
,
0000
1000
0000
0010
0000
0100
0010
0100
,
2000
0000
0000
0000
3100
0000
0010
0000
0000
0000
0010
0000
0000
0000
0100
0010
,
0200
0000
0000
0000
0301
0000
1000
0000
0000
0000
1000
0000
0000
0000
0001
1000
,
0002
0000
0013
0000
0100
0010
1000
0001
,
0100
1000
0001
0010
0000
0100
0010
0100
,
0020
0000
0000
0000
0130
0000
0001
0000
0000
0000
1000
0000
0000
0000
0001
0010
,
0200
0000
0000
0000
0310
0000
0001
0000
0000
0000
1000
0000
0000
0000
0001
1000
,
0002
0000
1003
0000
0010
0100
1000
0100
,
0010
0100
0001
0100
0000
0010
0100
0010
,
0010
0000
0100
0001
0000
1000
0010
0100
,
1001
0000
0000
0000
0010
0000
0100
0000
0000
0000
0001
0000
1000
0000
0010
0200
,
0000
0000
0300
0000
0001
0000
1000
0000
0000
0000
1000
0000
0010
0000
1000
0200
,
0000
0300
0000
0000
0001
0000
0010
0000
0000
0000
0001
0000
1000
0000
0001
0200
,
0000
0300
0000
0000
0010
0000
0010
0000
0000
0000
1000
0000
0100
0000
0010
0000
,
0000
0010
0001
0010
0000
0100
0010
0100
,
0010
1010
0100
1010
,
0100
0001
1000
0020
0000
0130
0000
0001
,
1000
0010
1000
0001
0000
0010
0100
0010
,
1001
0000
0000
0000
0100
0000
0001
0000
0000
0000
1000
0000
0010
0000
0100
0002
,
0000
0000
0003
0000
0010
0000
1000
0000
0000
0000
0100
0000
0010
0000
0001
0020
,
0000
0030
0000
0000
0100
0000
0010
0000
0000
0000
1000
0000
0010
0000
0100
0020
,
0000
0030
0100
0001
0000
0010
0000
1000
,
0010
0100
0010
0100
0010
0100
0020
0000
0000
0000
0100
0000
0030
0000
1000
0100
,
0010
0001
0010
0000
0000
0000
0100
0000
0000
0000
0010
0000
0000
0000
0100
0000
,
1000
0100
0010
0001
0000
0001
0000
0010
,
0100
0001
0100
0010
0000
1000
0010
0000
,
1001
0000
0000
0000
;

//---------------dance-single - ----------------
#NOTES:
     dance-single:
     :
     Medium:
     5:
     0.311,0.308,0.088,0.077,0.000:
0010
0000
0100
0000
0001
1000
0000
1000
,
0010
0000
0100
0000
0001
0010
0000
0010
,
0001
0000
0100
0010
0000
0010
1000
0010
,
0000
0100
0000
0001
0000
0100
0000
0010
,
0000
0000
0000
0000
,
0100
0000
0001
0000
1000
1000
1000
0000
,
0010
0000
0100
0000
0001
0001
0001
0000
,
0110
0000
0001
0000
0010
0000
1000
1000
,
0010
0000
0100
0000
0001
0000
0100
0100
,
0010
0000
1000
0100
0000
0000
0001
0001
,
0000
0010
0000
1000
0000
0010
0000
0100
,
0010
0000
1000
0000
0001
0000
0010
0010
,
0100
0000
1000
0000
0001
0000
0100
0100
,
0010
0000
0000
1000
0000
0000
0001
1000
,
0000
1000
0000
0010
0000
1000
0000
0010
,
0200
0310
1000
0001
,
0020
0130
1000
0001
,
0010
1000
0010
0100
,
0001
0001
0010
0010
0000
0100
0100
0000
,
0002
0013
1000
0010
,
0200
0310
1000
0001
,
2000
3010
0100
0001
,
0010
0010
0000
1000
0000
0001
0001
0000
,
0010
1000
0001
0010
,
1001
0000
0010
0000
1000
0100
1000
0000
,
0011
0000
0100
0000
0001
0010
0001
0000
,
1010
0000
0100
0000
0001
1000
0001
0000
,
1000
0000
0010
0100
0000
0100
0000
0100
,
0010
0000
0001
1000
0000
1000
0000
1000
,
0010
1000
0001
0100
,
0001
0010
0001
0020
0000
0000
0030
0000
,
0100
0010
1000
0010
,
1010
0000
0100
0000
0001
1000
0001
0000
,
0110
0000
1000
0000
0100
0001
0100
0000
,
0011
0000
1000
0000
0010
0100
0010
0000
,
1000
0000
0001
0100
0000
0100
0000
0010
,
0200
1000
1000
1300
,
0010
0010
0000
0100
0000
0010
0000
0100
,
0001
1000
0010
0100
,
0001
0001
1000
1000
0000
0010
0010
0000
,
1001
0000
0000
0000
;

//---------------dance-single - ----------------
#NOTES:
     dance-single:
     :
     Easy:
     3:
     0.240,0.242,0.077,0.110,0.000: // measure 1
0010
0010
0100
0000
,  // measure 2
0001
0001
1000
0000
,  // measure 3
0100
0100
0010
0000
,  // measure 4
1000
1000
0001
0000
,  // measure 5
0000
0000
0000
0000
,  // measure 6
0100
0010
0100
0010
,  // measure 7
1000
0001
1000
0001
,  // measure 8
0110
1000
1000
0010
,  // measure 9
0001
0010
0010
0100
,  // measure 10
1000
0100
0100
0010
,  // measure 11
1000
0100
0010
0001
,  // measure 12
0110
0001
0001
1000
,  // measure 13
0100
1000
1000
0001
,  // measure 14
0100
0010
0100
0010
,  // measure 15
0001
0010
0100
1000
,  // measure 16
0002
0000
0013
0000
,  // measure 17
2000
0000
3100
0000
,  // measure 18
0020
0000
0130
0000
,  // measure 19
0010
0010
0100
0100
,  // measure 20
0002
0000
1003
0000
,  // measure 21
0020
0000
0130
0000
,  // measure 22
2000
0000
3010
0000
,  // measure 23
0100
0001
0100
0010
,  // measure 24
1000
0100
0010
0001
,  // measure 25
1001
0010
1000
0010
,  // measure 26
1001
0100
0001
0100
,  // measure 27
0010
0010
1000
1000
,  // measure 28
0001
0010
0100
1000
,  // measure 29
0020
0030
0010
1000
,  // measure 30
0200
0300
0100
0010
,  // measure 31
1000
0100
0002
0003
,  // measure 32
0100
0100
0010
0010
,  // measure 33
1001
0100
1000
0100
,  // measure 34
1001
0010
0001
0010
,  // measure 35
0100
0001
0001
0100
,  // measure 36
0010
1000
0010
1000
,  // measure 37
0020
0000
0100
0100
,  // measure 38
0130
0001
1000
0001
,  // measure 39
0100
1000
0010
0000
,  // measure 40
0100
0100
0001
0001
,  // measure 41
1001
0000
0000
0000
;

//---------------dance-single - ----------------
#NOTES:
     dance-single:
     :
     Beginner:
     1:
     0.143,0.154,0.055,0.088,0.000:
0010
0000
0000
0000
,
0100
0000
0000
0000
,
0001
0000
0000
0000
,
1000
0000
0000
0000
,
0000
0000
0000
0000
,
0010
0000
0010
0000
,
0001
0000
0001
0000
,
1001
0000
0100
0000
,
1001
0000
0010
0000
,
1000
0000
1000
0000
,
0010
0000
0010
0000
,
1001
0000
0001
0000
,
1001
0000
1000
0000
,
0010
0000
0010
0000
,
0100
0000
0100
0000
,
0002
0000
0003
0000
,
2000
0000
3000
0000
,
0020
0000
0030
0000
,
0100
0000
0100
0000
,
2000
0000
3000
0000
,
0020
0000
0030
0000
,
0200
0000
0300
0000
,
0001
0000
0010
0000
,
0001
0000
0010
0000
,
0100
0100
0100
0000
,
0010
0010
0010
0000
,
1000
1000
1000
0000
,
0001
0001
0001
0000
,
0010
0010
0000
0100
,
1000
1000
0000
0100
,
0020
0000
0030
0000
,
0010
0000
1000
0000
,
0001
0001
0001
0000
,
1000
1000
1000
0000
,
0010
0010
0010
0000
,
0100
0100
0100
0000
,
0002
0000
0000
0003
,
0100
0000
0100
0000
,
0001
0001
0010
0000
,
1000
0000
0001
0000
,
1001
0000
0000
0000
;
