#TITLE:Egoist;
#SUBTITLE:;
#ARTIST:LOONA;
#TITLETRANSLIT:;
#SUBTITLETRANSLIT:;
#ARTISTTRANSLIT:;
#CREDIT:;
#BANNER:Egoist banner.png;
#BACKGROUND:Egoist bg.png;
#LYRICSPATH:;
#CDTITLE:;
#MUSIC:Egoist.mp3;
#OFFSET:-10.700;
#SAMPLESTART:52.300;
#SAMPLELENGTH:15.000;
#SELECTABLE:YES;
#BPMS:0.000=91.980,64.000=184.100;
#STOPS:;
#BGCHANGES:;

//---------------dance-single - Copied from----------------
#NOTES:
     dance-single:
     Copied from:
     Challenge:
     10:
     0.609,0.682,0.215,0.286,0.344:
1010
0000
0100
0000
0010
0000
0000
1000
0010
0001
0010
0100
0000
0000
0010
0000
,
0100
0000
0001
0000
1000
0000
0000
0001
0010
0100
1000
0100
0000
0000
0010
0001
,
0010
0000
0000
0000
0100
0000
0000
0000
0010
0100
1000
0100
0000
0001
0000
0000
,
0010
0100
1000
0100
0000
0010
0000
0000
0001
0010
1000
0010
0000
0000
0100
0010
,
0100
0000
1000
0000
0010
0000
0000
0000
0100
0001
0010
1000
0000
0000
0010
0000
,
0100
0000
0001
0000
0100
0000
0000
0000
0010
0000
1000
0000
0001
0000
0100
0020
,
0000
0000
1000
0000
1030
0000
0000
0100
0001
0100
0010
1000
0000
0001
0000
0000
,
0100
0010
0001
0010
0000
1000
0000
0000
0010
0100
0010
0100
0000
0000
0001
0010
,
0100
0000
1010
0000
0100
0000
0010
0001
0000
0002
0000
0003
0010
0100
1000
0100
,
0010
0000
0100
0000
0001
0000
0100
1000
0000
0010
0000
0000
0100
0000
0001
0010
,
1000
0000
0101
0000
0100
0000
0010
1000
0000
0020
0000
0000
0130
0000
0001
2000
,
0000
0000
0000
3000
0010
0000
0100
0000
0001
0000
0010
0100
0000
0000
1000
0000
,
0110
0000
0100
0000
1000
0000
0100
0010
0000
0002
0000
0003
0100
0010
0100
1000
,
0100
0000
0001
0000
0100
0000
0010
0100
0000
0200
0000
0000
0310
0000
0001
1000
,
0000
0000
0110
0000
1000
0000
0100
0001
0000
0100
0000
0000
0010
0000
0100
1000
,
0100
0010
0100
0010
0001
1000
0001
1000
0100
0010
0001
0010
0100
0000
0010
0001
,
0100
0001
0010
1000
0102
0000
0003
0000
,
0010
0100
0010
0000
1000
0010
0100
0000
,
0001
0010
0100
0000
0010
0100
1000
0000
,
0011
0000
0110
0000
1100
0000
0010
0100
,
0002
0023
0230
2300
,
3001
0000
0101
0000
1001
0000
0010
0100
,
0020
0230
0302
2003
,
3001
0010
0100
1000
0100
0010
0001
0010
,
0100
0010
1000
0001
0200
0000
0301
0010
,
0001
0000
0010
0000
0100
0010
1000
0000
,
0010
1000
0001
0000
0001
0100
0010
0000
,
1100
0000
0110
0000
0011
0000
0100
0010
,
0200
0320
2030
3002
,
0103
0000
1000
0000
0010
0000
1000
0001
,
2000
3200
0320
0032
,
0103
0010
0100
0010
0001
0010
0100
1000
,
0100
0000
0010
0000
0100
0001
0100
0000
,
0010
0000
0010
0100
1000
0100
0010
0000
,
0100
0000
0001
0000
0010
0000
1000
0010
,
0000
0010
0100
0000
0001
0000
1000
0010
,
1000
0000
0010
0000
0100
1000
0100
0000
,
0010
0000
0100
0001
0010
1000
0010
0100
,
0001
0000
0010
0000
0100
1000
0010
0000
,
0101
0000
1010
0000
0110
0000
1000
0001
,
2000
0000
3010
0000
0001
0100
0001
0000
,
0010
0000
0100
1000
0010
1000
0010
0000
,
0100
0000
0001
0000
0001
1000
0000
0100
,
1000
0000
0001
0000
0100
0000
0001
0010
,
0001
0000
0100
0000
0010
0100
0010
0000
,
1000
0000
0001
0010
0100
1000
0100
0000
,
0010
0100
0001
1000
,
1000
0100
0010
0001
0010
0100
1000
0010
,
0100
0001
0100
0010
0120
0000
0030
0100
,
1000
0000
0000
0100
0000
0000
0010
0000
0000
0001
0000
0000
0010
0000
0000
0000
0100
0000
0000
0000
0000
0010
0000
0000
,
2001
0000
0000
0000
3000
0000
0001
0000
0100
0010
0100
0000
1000
0000
0100
0000
,
0001
0000
0010
0100
0010
1000
0001
1000
0020
0000
0000
0000
0030
0000
0100
0000
,
0100
0000
0001
0010
0001
0000
1000
0000
0110
0000
0000
0000
1001
0000
0000
0000
,
0001
0010
0000
0010
0100
1000
0000
1000
0100
0010
0000
0010
0002
0000
0000
0000
,
1003
0000
0100
0000
0010
0000
0001
0000
2000
0000
0000
0000
3000
0000
0001
0010
,
0100
0000
0000
0001
0000
0000
0010
0000
0000
0100
0000
0000
1000
0000
0000
0000
0001
0000
0000
0000
0000
1000
0000
0000
,
0210
0000
0000
0000
0300
0000
0001
0010
0001
0000
0010
0000
0100
0000
0010
0000
,
1000
0010
0100
0010
0002
0000
0003
0010
,
0010
0000
0100
1000
0100
0000
0010
0000
0011
0000
0000
0000
1100
0000
0000
0000
,
0010
0000
1000
0100
0000
0100
0010
0001
0000
0001
0010
0000
0100
0000
0010
0000
,
0100
0010
0100
0001
0100
0010
1000
0010
,
0100
0000
0000
0000
;

//---------------dance-single - ----------------
#NOTES:
     dance-single:
     :
     Hard:
     9:
     0.500,0.464,0.143,0.000,0.063:
1000
0000
0101
0000
0010
0100
1000
0100
,
0010
0000
1100
0000
0010
0001
0100
0010
,
0100
0000
0011
0000
0100
0010
1000
0100
,
0001
0010
1000
0100
0001
1000
0010
0100
,
1000
0000
0101
0000
0010
0001
0010
0100
,
1000
0000
1100
0000
0010
0010
0100
0001
,
0100
0000
0010
0000
0100
0001
0001
0100
,
0010
1000
1000
0010
0100
0001
0100
0010
,
0100
0000
1000
0000
0001
0000
1000
0010
0000
0010
0000
0000
0100
0000
0001
0000
,
0100
0000
0010
0000
0001
0000
0100
1000
0000
1000
0000
0000
0010
0000
0100
0010
,
0000
0000
0100
0000
0001
0000
0010
0000
0001
0000
0010
0000
0100
0000
1000
0010
,
0000
0100
0100
0010
0100
0001
0100
0010
,
1000
0000
0001
0000
0010
0000
0001
0100
0000
0100
0000
0000
0010
0000
0100
0000
,
0010
0000
1000
0000
0100
0000
0001
0010
0000
0010
0000
0000
0100
0000
0010
0100
,
0000
0000
0001
0000
0010
0000
1000
0000
0010
0000
0100
0000
0001
0000
0100
0010
,
0000
0010
0100
1000
0100
0010
0001
0010
,
0100
0001
0010
1000
0010
0000
0100
1000
,
0100
0000
0001
0010
0100
0000
0010
0100
,
1000
0000
0010
0100
0010
0000
0001
0100
,
0011
0000
0110
0000
1100
0000
0010
0100
,
1000
0100
1000
0100
,
0010
0100
0001
0010
0100
0000
0001
0100
,
0001
0010
0001
0010
,
0100
0010
0001
0010
0100
1000
0100
0010
,
0001
0100
0010
0100
1000
0000
0010
0001
,
0010
0000
0100
1000
0100
0000
0010
0100
,
0010
0000
1000
0100
0010
0000
0001
0100
,
0110
0000
1001
0000
0110
0000
1000
0001
,
0100
0010
0100
0010
,
0011
0000
0110
0000
1100
0000
1000
0001
,
0010
0100
0010
0100
,
0001
0010
0100
0010
0100
0000
0100
1000
,
0100
0000
0010
0000
0100
0001
0100
0000
,
0010
0000
0001
0000
0010
0100
0010
0000
,
0100
0010
0001
0000
0100
0010
0001
0000
,
0010
0100
1000
0010
0100
0010
0010
0000
,
0101
0000
0010
0000
1000
0010
1000
0000
,
0100
1000
0100
0000
0001
0100
0001
0000
,
0010
0001
0010
0100
0010
0100
1000
0000
,
0010
0000
0100
0000
0010
0000
0001
1000
,
0001
0000
0010
0000
0100
0010
0100
0000
,
1000
0000
0001
0000
0010
0001
0010
0000
,
0100
0000
0010
0000
0100
1000
0100
0000
,
0010
0000
0100
0000
1000
0000
0010
0100
,
0010
0000
0001
0010
0100
1000
0100
0000
,
0010
0000
0100
0001
0100
0010
0100
0000
,
0001
0010
0100
0001
,
0100
0010
1000
0001
0100
0010
1000
0001
,
0100
0010
0010
0010
0100
0000
0001
0000
,
0010
0000
0000
0100
0000
0000
1000
0000
0000
0100
0000
0000
0010
0000
0000
0000
0001
0000
0000
0000
0000
0010
0000
0000
,
0100
0000
0001
0010
0100
0000
0010
0100
,
1000
0100
0010
0001
0010
0000
0100
0010
,
0100
0000
1000
0001
0100
0000
0100
0000
,
0010
0000
0001
0010
0000
0010
0100
0000
,
1000
0100
0010
0001
0110
0000
0010
0000
,
0100
0000
0000
0000
0000
0000
0001
0000
0000
0010
0000
0000
0001
0000
0000
0000
1000
0000
0000
0000
0000
0001
0000
0000
,
0010
0000
0100
1000
0100
0010
0100
0000
,
0001
0010
0100
1000
0100
0000
0010
0000
,
1000
0010
0100
0000
0001
0000
0001
0000
,
0010
0000
1000
0010
0000
0010
0100
0000
,
0010
0000
0100
0001
0010
1000
0001
0010
,
0100
0000
0000
0000
;

//---------------dance-single - ----------------
#NOTES:
     dance-single:
     :
     Medium:
     6:
     0.369,0.464,0.143,0.152,0.000:
1000
1000
0100
0000
0010
0010
0100
0000
,
0001
0001
0010
0000
0100
0100
0001
0000
,
0010
0000
0100
0000
0001
0010
0001
0000
,
0010
0100
0010
0000
1000
0000
0010
0000
,
0100
0000
0100
0000
0010
0100
0010
0000
,
1000
0000
0001
0000
0100
1000
0100
1000
,
0100
0000
0010
0000
0100
1000
0100
0000
,
0010
0001
0010
0000
0100
0010
0100
0000
,
0010
0000
0100
0010
0010
0000
0100
0000
,
0001
0000
1000
0010
0010
0000
0100
0100
,
1000
0100
0001
0100
,
0020
0000
0000
0030
0100
0000
0100
0000
,
0001
0010
0001
0000
0010
0100
0010
0000
,
0100
0000
1000
0000
0010
0100
0010
0000
,
1000
1000
0100
0100
0010
0010
0001
0001
,
0010
0100
0010
0100
0001
1000
0001
1000
,
0010
0100
0010
0000
,
0100
0010
0001
0010
,
0100
0010
1000
0010
,
0100
1000
1000
0100
,
0012
0000
0103
0000
,
0010
0100
0010
1000
,
0201
0000
0310
0000
,
0010
0010
0100
0001
,
0100
0010
1000
0000
,
0100
0100
1000
0100
,
0010
0100
0001
0100
,
0010
0010
0100
0001
,
2010
0000
3001
0000
,
0010
0100
0001
0100
,
0012
0000
1003
0000
,
0010
0000
0010
0000
0010
0000
0100
0010
,
0100
1000
0100
0100
,
0001
0010
0001
0010
,
0100
0010
0010
1000
,
0010
0100
0001
1000
,
0010
0100
1000
1000
,
0100
0010
0001
0001
,
0100
0010
0001
0010
,
1000
0001
0100
0010
,
0100
0100
0010
0001
,
0010
1000
0010
0010
,
0100
1000
0100
0010
,
0001
0010
0100
1000
,
0010
0100
0001
0001
,
0010
1000
0010
0010
,
0100
1000
0100
0010
,
0100
0001
0100
0100
,
0010
0001
0010
0000
2002
0000
0000
3003
,
0010
0010
0100
1000
,
0022
0000
0000
0033
0100
0000
0010
0000
,
0100
0000
0100
0000
2020
0000
0000
3030
,
0100
0001
0100
0100
,
0011
0000
0000
0110
0000
0000
1100
0000
,
0010
0010
0010
0010
0220
0000
0000
0330
,
0001
0010
0100
1000
,
2200
0000
0000
3300
0010
0000
0010
0000
,
0100
0000
0001
0000
2002
0000
0000
3003
,
0010
0100
0001
0001
,
1010
0000
0000
1100
0000
0000
1010
0000
,
0100
0001
0100
0010
,
0100
0000
0000
0000
;

//---------------dance-single - ----------------
#NOTES:
     dance-single:
     :
     Easy:
     4:
     0.220,0.327,0.089,0.080,0.000: // measure 1
0010
0100
0001
0001
,  // measure 2
0100
1000
0010
0010
,  // measure 3
0100
0001
0010
0010
,  // measure 4
1000
0100
0011
0110
,  // measure 5
1100
0010
0100
0100
,  // measure 6
0001
0010
1000
0001
,  // measure 7
1000
0010
0100
0100
,  // measure 8
1000
1000
0010
0100
,  // measure 9
0001
0010
0100
1000
,  // measure 10
0001
0010
0100
0100
,  // measure 11
1000
0100
0010
0001
,  // measure 12
1000
0100
0010
0001
,  // measure 13
0020
0130
0001
0010
,  // measure 14
2000
3010
0100
0001
,  // measure 15
0010
0010
0100
0100
,  // measure 16
0001
1000
0001
1000
,  // measure 17
0010
0000
0010
0000
,  // measure 18
0100
0000
0100
0000
,  // measure 19
0001
0000
0010
0000
,  // measure 20
0100
0000
0001
0000
,  // measure 21
1000
0000
1000
0000
,  // measure 22
0010
0010
0010
0000
,  // measure 23
0100
0000
0100
0000
,  // measure 24
0001
0001
0001
0000
,  // measure 25
0010
0000
1001
0000
,  // measure 26
0100
0000
1000
0000
,  // measure 27
0010
0000
0100
0000
,  // measure 28
0001
0000
0001
0000
,  // measure 29
0010
0000
0100
0000
,  // measure 30
0010
0010
0010
0000
,  // measure 31
1000
0000
0001
0000
,  // measure 32
0100
0100
0100
0000
,  // measure 33
0010
0000
0100
0000
,  // measure 34
0001
0000
0010
0000
,  // measure 35
0001
0000
1000
0000
,  // measure 36
0010
0000
0100
0000
,  // measure 37
1000
0000
0010
0000
,  // measure 38
0100
0000
0001
0000
,  // measure 39
0100
0000
0010
0000
,  // measure 40
1000
0000
1000
0000
,  // measure 41
0010
0000
1000
0000
,  // measure 42
0010
0000
1000
0000
,  // measure 43
0001
0000
0100
0000
,  // measure 44
0001
0000
0100
0000
,  // measure 45
0010
0000
1000
0000
,  // measure 46
0001
0000
0100
0000
,  // measure 47
0001
0000
1000
0000
,  // measure 48
0010
0000
0100
0000
,  // measure 49
0010
0000
0120
0000
,  // measure 50
0030
0000
0100
0000
,  // measure 51
0210
0000
0300
0000
,  // measure 52
0001
0000
2010
0000
,  // measure 53
3000
0000
0010
0000
,  // measure 54
0100
0000
0000
0100
0000
0000
0100
0000
,  // measure 55
0010
0000
0201
0000
,  // measure 56
0300
0000
0010
0000
,  // measure 57
2001
0000
3000
0000
,  // measure 58
0010
0000
0201
0000
,  // measure 59
0300
0000
0010
0000
,  // measure 60
0001
0000
0000
0001
0000
0000
0002
0000
,  // measure 61
0000
0000
0000
0003
,  // measure 62
0100
0000
0000
0000
;

//---------------dance-single - ----------------
#NOTES:
     dance-single:
     :
     Beginner:
     2:
     0.133,0.191,0.072,0.098,0.000:
0010
0000
0010
0000
,
0100
0000
0100
0000
,
0001
0000
0001
0000
,
1000
0000
1000
0000
,
0010
0000
0100
0000
,
0001
0000
1000
0000
,
0001
0000
0100
0000
,
0010
0000
1000
0000
,
0020
0000
0030
0000
,
0200
0000
0300
0000
,
0002
0000
0003
0000
,
2000
0000
3000
0000
,
0001
0000
0010
0000
,
0100
0000
1000
0000
,
0100
0000
0010
0000
,
0100
0100
0100
0100
,
0010
0000
0000
0000
,
0010
0000
0000
0000
,
1000
0000
0000
0000
,
0001
0000
0000
0000
,
0010
0000
0010
0000
,
0010
0000
0000
0000
,
0100
0000
0100
0000
,
0100
0000
0000
0000
,
0001
0000
0000
0000
,
0010
0000
0000
0000
,
0001
0000
0000
0000
,
0100
0000
0000
0000
,
0001
0000
0001
0000
,
0001
0000
0000
0000
,
1000
0000
1000
0000
,
1000
0000
0000
0000
,
1001
0000
0000
0000
,
0100
0000
0000
0000
,
1001
0000
0000
0000
,
0010
0000
0000
0000
,
0110
0000
0000
0000
,
1000
0000
0000
0000
,
0110
0000
0000
0000
,
0001
0000
0000
0000
,
1001
0000
0000
0000
,
0001
0000
0000
0000
,
1001
0000
0000
0000
,
1000
0000
0000
0000
,
0110
0000
0000
0000
,
0010
0000
0000
0000
,
0110
0000
0000
0000
,
0100
0000
0000
0000
,
0010
0000
0020
0000
,
0030
0000
0100
0000
,
0200
0000
0300
0000
,
0001
0000
0002
0000
,
0003
0000
0100
0000
,
0100
0000
0100
0000
,
0010
0000
2000
0000
,
3000
0000
0010
0000
,
0200
0000
0300
0000
,
0001
0000
0200
0000
,
0300
0000
0010
0000
,
0010
0000
0001
0000
,
0020
0000
0000
0000
,
0030
0000
0000
0000
;
