#TITLE:Eclipse;
#SUBTITLE:;
#ARTIST:LOONA;
#TITLETRANSLIT:;
#SUBTITLETRANSLIT:;
#ARTISTTRANSLIT:;
#CREDIT:;
#BANNER:Eclipse banner.png;
#BACKGROUND:Eclipse bg.png;
#LYRICSPATH:;
#CDTITLE:cdtitle.png;
#MUSIC:Eclipse.mp3;
#OFFSET:-10.360;
#SAMPLESTART:58.660;
#SAMPLELENGTH:15.000;
#SELECTABLE:YES;
#BPMS:0.000=97.560;
#STOPS:;
#BGCHANGES:;

//---------------dance-single - ----------------
#NOTES:
     dance-single:
     :
     Hard:
     8:
     0.438,0.394,0.169,0.101,0.417:
0010
0100
0010
0100
,
0001
1000
0001
1000
,
0100
0010
0100
0010
,
0001
0000
1100
0000
0010
0001
0110
0000
,
1001
0000
0010
0100
0010
0000
0001
0010
0000
0010
0100
0000
1000
0000
0000
0000
,
0110
0000
1000
0100
1000
0000
0010
0001
0000
0001
0010
0000
0100
0000
0000
0000
,
0011
0000
0100
0010
0100
0000
0010
1000
0000
1000
0010
0000
0100
0000
0001
0000
,
0000
0010
0000
0100
1000
0100
0010
0200
,
0000
0000
0301
0000
1000
0000
0000
0010
0000
0010
0000
0000
1000
0100
0010
0001
,
0000
0010
0100
0000
0100
0000
0010
0001
0000
0001
0010
0000
0100
0000
0010
1000
,
0000
0000
1000
0000
0000
0100
0000
0010
0000
0100
0001
0000
0010
0000
0001
0100
,
0000
0000
1000
0000
0010
0100
0020
0000
0000
0000
1000
0000
1000
0000
1030
0000
,
0200
0000
0300
0000
0001
0010
0000
0010
0000
0100
1000
0000
0100
0010
0001
0010
,
0000
0000
0010
0000
0000
0000
0100
0000
0010
0001
0010
0000
0100
0000
1000
0100
,
0000
0000
0010
0000
0100
0000
0001
0010
0002
0000
0000
0000
0013
0000
0100
0000
,
1000
0000
0100
0000
0010
1000
0000
0100
0000
0010
0000
0001
0010
0200
0000
0000
,
0320
0000
0030
0000
0100
1000
0000
1000
0000
0000
0100
0000
0000
0000
0001
0000
,
0100
0000
0010
0000
0100
0000
1000
0000
0001
0010
0001
0000
0010
0000
0100
0010
,
0100
1000
0000
1000
0100
0010
0001
0000
,
0100
0000
0010
0100
0020
0000
0030
0000
0100
0000
1000
0001
1000
0000
0010
0000
,
1001
0000
0010
0000
2000
0000
0000
0000
3100
0010
0001
0000
0010
0000
0100
0010
,
0000
0010
0100
0000
0011
0000
0000
0000
0010
0000
0100
0000
0010
0100
1000
0100
,
0000
0100
1000
0000
1001
0000
0000
0000
0010
0000
0100
0000
0100
0000
0001
0010
,
0000
0100
0010
0000
0100
0000
1000
0001
1000
0000
0010
0000
0100
0000
1000
0000
,
0100
0000
0010
0000
0002
0000
0000
0000
0003
0000
0010
0000
0100
0000
0010
1000
,
0000
1000
0010
0000
0100
0000
0001
0000
0000
0010
0000
0000
0100
0001
0000
0001
,
0000
0010
1000
0000
0010
0000
0100
0000
0001
0000
0000
0000
0010
0000
1000
0000
,
1100
0000
0000
0110
0000
0000
0011
0000
0000
0000
0100
0000
0100
0000
0000
0000
,
0110
0000
0001
0010
0001
0010
0000
0100
0000
0010
0100
0000
1001
0000
0000
0000
,
1000
0000
0100
0010
0100
0010
0000
0001
0000
0100
0010
0000
1001
0000
0000
0000
,
0010
0000
0100
1000
0100
1000
0000
0010
0000
0001
0010
0000
1001
0000
0100
1000
,
0000
1000
0100
0000
0010
0001
0000
0001
0000
0000
0010
0100
0010
0000
0000
0000
;

//---------------dance-single - ----------------
#NOTES:
     dance-single:
     :
     Medium:
     6:
     0.267,0.251,0.034,0.068,0.000:
0010
0010
0100
0100
,
0001
0001
1000
1000
,
0001
0010
0100
1000
,
1000
0200
0310
1001
,
0010
0000
0100
0000
0001
0001
0010
0000
,
0100
0000
0010
0000
1000
1000
0010
0000
,
0100
0000
1000
0000
0010
0010
0100
0100
,
0001
0000
0100
0000
0010
0001
0010
0000
,
1000
0000
0010
0000
1000
0100
1000
0000
,
0010
0000
1000
0000
0010
0100
0010
0000
,
1000
0000
0100
0000
0010
0001
0010
0000
,
0100
0000
0020
0000
0000
0100
0130
0000
,
1001
0000
0010
0000
1000
0000
0100
0100
,
0010
0000
1000
0000
0001
0000
0010
0010
,
0100
0000
0001
1000
1000
0000
0010
0000
,
1000
0100
1000
0010
0001
0010
0100
0000
,
0002
0000
0000
0000
0010
0010
0013
0000
,
0100
0000
0010
0000
1000
1000
0010
0010
,
0100
0000
0001
0000
0100
0010
0100
0000
,
1000
0002
0003
0100
,
1001
0000
2000
3000
0010
0010
0010
0000
,
0100
1000
0100
0000
0001
0001
0001
0000
,
0100
0010
0100
0000
1000
1000
1000
0000
,
0010
0010
0100
0100
0001
0000
1000
0000
,
0010
0002
0000
0013
,
0100
0000
0010
0000
1000
1000
0001
0001
,
0100
0000
0010
0010
0100
0000
0001
0000
,
0100
0000
0100
0010
0000
0010
0100
0000
,
1000
0000
0100
0000
1000
1000
1000
0000
,
0100
0000
0010
0000
0001
0001
0001
0000
,
0010
0000
0100
0000
0010
0010
0010
0000
,
0100
0001
0100
0010
;

//---------------dance-single - ----------------
#NOTES:
     dance-single:
     :
     Easy:
     4:
     0.217,0.197,0.090,0.101,0.000: // measure 1
0100
1000
0100
0000
,  // measure 2
0001
0010
0001
0000
,  // measure 3
0100
0010
0100
0000
,  // measure 4
0001
0110
1000
0110
,  // measure 5
1001
0010
0010
0200
,  // measure 6
0301
1000
1000
0020
,  // measure 7
0030
0100
1000
1000
,  // measure 8
0020
0030
0100
0100
,  // measure 9
0001
0010
0100
0000
,  // measure 10
0010
0100
1000
0000
,  // measure 11
0100
0010
0001
0000
,  // measure 12
1000
0020
0000
0130
,  // measure 13
1001
0010
0100
0001
,  // measure 14
1000
0010
1000
0100
,  // measure 15
0010
0000
0110
0100
,  // measure 16
0001
0010
0100
2000
,  // measure 17
3000
0100
0100
0010
,  // measure 18
0100
1000
0100
1000
,  // measure 19
0200
0300
0001
0001
,  // measure 20
0100
0102
0003
0010
,  // measure 21
0100
0000
0020
0030
0100
0000
0100
0000
,  // measure 22
0010
0010
0010
0000
0100
0000
0001
0000
,  // measure 23
1000
1000
1000
0000
0010
0000
0100
0000
,  // measure 24
0010
1000
0010
0100
,  // measure 25
1000
0020
0030
0100
,  // measure 26
0001
0001
0001
0000
0010
0000
1000
0000
,  // measure 27
0010
0000
0100
0100
0100
0000
0010
0000
,  // measure 28
1000
0001
0100
0110
,  // measure 29
1000
0001
0100
1000
,  // measure 30
0010
0100
0001
0100
,  // measure 31
0001
0010
1000
0010
,  // measure 32
0100
1000
0001
0110
;

//---------------dance-single - ----------------
#NOTES:
     dance-single:
     :
     Beginner:
     1:
     0.124,0.143,0.045,0.023,0.000:
0010
0000
0000
0000
,
0010
0000
0000
0000
,
0100
0000
0000
0000
,
0100
0000
0000
0000
,
0001
0000
0001
0000
,
1000
0000
1000
0000
,
0010
0000
0100
0000
,
0100
0000
0010
0000
,
1000
1000
1000
0000
,
0010
0010
0010
0000
,
0100
0100
0100
0000
,
0001
0001
0001
0000
,
0020
0000
0030
0000
,
1000
0000
0100
0000
,
0001
0010
0001
0000
,
1000
0100
1000
0000
,
0200
0000
0300
0000
,
0010
0000
0010
0000
,
0100
0000
0010
0010
,
0000
0100
0000
0010
,
1001
0000
0010
0000
,
0110
0000
0100
0000
,
0001
0001
1000
1000
,
0010
0000
0010
0000
,
1001
0000
1000
0000
,
1001
0000
0001
0000
,
0010
0010
0010
0000
,
0100
0100
0100
0100
,
0001
0000
0001
0000
,
1000
0000
1000
0000
,
0010
0000
0010
0000
,
0100
0000
0100
0010
;
