#TITLE:DDU-DU DDU-DU;
#SUBTITLE:;
#ARTIST:BLACKPINK;
#TITLETRANSLIT:;
#SUBTITLETRANSLIT:;
#ARTISTTRANSLIT:;
#CREDIT:;
#BANNER:Z-9 banner.png;
#BACKGROUND:Z-9 bg.png;
#LYRICSPATH:;
#CDTITLE:;
#MUSIC:Z-9.mp3;
#OFFSET:-9.080;
#SAMPLESTART:76.753;
#SAMPLELENGTH:15.000;
#SELECTABLE:YES;
#BPMS:0.000=140.080;
#STOPS:156.000=1.300
;
#BGCHANGES:;

//---------------dance-single - ----------------
#NOTES:
     dance-single:
     :
     Hard:
     8:
     0.544,0.488,0.198,0.121,0.269:
1010
0000
0010
0000
0100
0000
0001
0000
0100
0000
0000
0000
0010
0000
1000
0100
,
1000
0010
0100
0001
0100
0001
0010
0100
,
1000
0000
0000
0000
0100
0000
0001
0000
0010
0000
0000
0000
0100
0000
0001
0010
,
0001
0010
0100
0010
1000
0010
0010
0000
,
1001
0000
0100
0000
0010
0000
0100
0000
0100
0000
0000
0000
0001
0000
0100
0010
,
0100
1000
0010
0100
0001
0010
0100
0010
,
0001
0000
0000
0000
0010
0000
1000
0000
0100
0000
0000
0000
0010
0000
0100
0001
,
0100
0010
1000
0010
0001
0000
0100
0000
,
0110
0000
0001
0010
0100
0010
1000
0010
,
0100
1000
0001
0100
0010
1000
0000
0100
,
0100
0010
0100
0001
0100
0010
1000
0010
,
0001
0010
0100
0001
0100
2000
0000
3000
,
0010
0100
0010
0001
1000
0001
0100
1000
,
0100
0010
0100
0001
0010
0010
0100
0000
,
0110
0000
0010
0100
1001
0000
0100
1000
,
0010
0100
0001
0100
0010
0100
0100
0000
,
0011
0000
0000
1000
0100
0010
0001
0010
0100
1000
0000
0100
,
0000
0000
0010
0001
0010
0100
0010
1000
0100
0010
0000
0100
,
0000
0000
0000
1000
0100
0010
0001
0010
0100
1000
0000
0001
,
0000
0000
0000
0100
0010
0001
0010
1000
0010
0100
0000
0010
,
0000
0000
1000
0000
0001
0000
0000
0020
0000
0030
1000
0000
0100
0000
0000
0020
,
0000
0030
0100
0000
0001
0000
0000
2000
0000
3000
0100
0000
0001
0000
0000
0020
,
0000
0030
1000
0000
0001
0000
0000
0210
0000
0300
0001
0000
1000
0000
0000
0120
,
0000
0030
1000
0000
0010
0000
0000
1200
0000
0300
0001
0000
0100
0000
0100
0000
,
0002
0000
0003
0000
0100
0010
1000
0010
,
0200
0000
0301
0000
1000
0000
0001
0010
,
0100
0000
0010
1000
0000
1000
0010
0100
,
0010
0000
0100
0001
0100
0000
0010
1000
,
0010
0000
0100
0000
0001
0010
0100
1000
,
0200
0000
0300
0000
0010
0000
0100
0010
,
0001
0000
0000
1000
0000
0000
0001
0000
0000
0000
0100
0000
0010
0000
1000
0000
,
0010
0000
0000
1000
0000
0000
0010
0000
0100
0000
0000
0000
0101
0000
0000
0000
,
0010
0000
1000
0000
0010
0000
0000
0000
0100
0000
0000
0001
0000
0000
0100
0000
,
1000
0000
0000
0010
0000
0000
0100
0000
0001
0000
0000
1000
0000
0000
0010
0100
,
0010
0000
0000
1000
0000
0000
0001
0000
0100
0000
0000
0010
0000
0000
1000
0000
,
0001
0010
0100
0001
1000
0000
0010
0000
,
1000
0000
0001
0000
1000
0000
0000
0000
0010
0000
0000
1000
0000
0000
0010
0000
,
0100
0000
0000
0001
0000
0000
0100
0000
0010
0000
0000
1000
0000
0000
0010
0000
,
0101
0110
1001
0110
,
0000
0000
0110
0001
1000
0010
0100
0000
,
0010
0000
1000
0100
1000
0000
0100
0000
0010
0000
0100
0000
0001
0000
0100
0000
,
1000
0010
0101
1000
0100
0010
0100
0000
,
0010
0000
1000
0001
1000
0000
0010
0000
0100
0000
0010
0000
1000
0100
0000
0000
,
0100
0010
0000
0000
1001
0000
0100
0000
1000
0000
0010
0000
0100
0000
0000
0000
,
0001
0000
0100
0010
0100
0000
1000
0000
0010
0000
0100
0000
0001
0000
0010
0000
,
0001
1000
0110
1000
0010
0100
0001
0000
,
0010
0000
0100
0001
0100
0000
0010
0000
1000
0000
0010
0000
0100
0000
0000
0000
;

//---------------dance-single - ----------------
#NOTES:
     dance-single:
     :
     Medium:
     5:
     0.339,0.282,0.077,0.033,0.000:
0100
0000
0010
0000
0101
0000
0010
1000
,
1000
0010
0100
0001
,
1000
0000
0010
0000
1100
0000
0010
0001
,
0001
0010
0100
0100
,
0010
0000
0100
0000
1001
0000
0010
1000
,
1000
0100
0010
0100
,
0001
0000
0100
0000
0110
0000
0001
0100
,
0100
0010
0100
0010
,
1000
0000
0001
0010
0001
0000
0100
0000
,
0010
0000
1000
0010
0100
0000
0010
0000
,
1000
0000
0100
0010
0100
0000
0001
0000
,
0100
0000
0001
0010
0001
0000
0010
0000
,
0010
0000
0100
0000
0010
0000
1000
0100
,
1000
0010
0100
0010
,
1000
0000
0100
0010
0001
0000
0100
0000
,
0010
0010
0100
0001
,
0010
0000
1000
0000
0100
0000
0010
0001
,
0010
0000
0100
0000
0001
0000
1000
0010
,
1000
0000
0010
0000
0100
0000
0001
0010
,
0001
0000
0100
0000
0010
0000
1000
0010
,
1000
0000
0100
0100
0000
0001
0001
0000
,
1000
1000
0000
0010
0010
0000
0100
0100
,
0000
0001
0001
0000
1000
1000
0000
0010
,
0010
0100
0001
0100
,
0020
0030
0100
0100
,
0002
0000
0000
0000
0000
0003
0100
0000
,
0010
0000
1000
0000
0010
0000
0001
0100
,
0001
0010
1000
0010
,
1000
0000
0100
0000
1000
0010
1000
0000
,
0020
0000
0030
0100
,
0010
0010
0001
0100
,
0010
0010
1000
0001
,
1100
0010
0100
0100
,
0001
0100
0010
0010
,
1000
0001
0100
0100
,
0001
0010
0001
0001
,
0110
1000
0010
0100
,
0010
0001
1000
0010
,
0100
0100
0010
0100
,
0000
0110
1000
0010
,
0100
0001
0100
0000
0010
0000
0100
0000
,
1000
0000
0010
0000
1000
0001
1000
0000
,
0010
0100
1000
0001
,
0010
0100
0010
1000
,
0010
0001
0010
0000
0100
0000
1000
0000
,
0010
0000
0100
0000
0001
0010
0001
0000
,
0100
0010
0010
0010
;

//---------------dance-single - ----------------
#NOTES:
     dance-single:
     :
     Easy:
     4:
     0.282,0.334,0.055,0.088,0.000: // measure 1
0010
0100
0001
0010
,  // measure 2
0001
1000
0010
0010
,  // measure 3
0100
1000
0010
0100
,  // measure 4
1000
0001
0100
0100
,  // measure 5
0001
0100
0010
1000
,  // measure 6
0001
0100
0010
0010
,  // measure 7
1000
0010
1000
0100
,  // measure 8
0001
0100
0010
0100
,  // measure 9
1000
0000
1000
0000
,  // measure 10
0010
0010
0100
0000
,  // measure 11
0001
0000
0010
0000
,  // measure 12
0001
0100
0010
0000
,  // measure 13
1000
0000
0010
0000
,  // measure 14
0100
1000
0010
0000
,  // measure 15
0100
0100
0010
0000
,  // measure 16
0100
0001
0100
0010
,  // measure 17
1000
1000
0100
0010
,  // measure 18
0001
0001
0010
0100
,  // measure 19
0010
0001
0010
0010
,  // measure 20
1000
0010
0100
0100
,  // measure 21
1000
0010
1000
0100
,  // measure 22
1000
1000
0010
0100
,  // measure 23
0001
0100
0001
0010
,  // measure 24
0001
0001
0100
0010
,  // measure 25
2000
0000
3010
0010
,  // measure 26
0200
0000
0000
0310
,  // measure 27
1000
1000
0010
0100
,  // measure 28
0001
0010
0001
0100
,  // measure 29
0020
0000
0130
1000
,  // measure 30
0020
0000
0000
0031
,  // measure 31
0100
0010
0100
0100
,  // measure 32
0010
1000
0010
0010
,  // measure 33
2100
3000
0210
0300
,  // measure 34
0012
0003
0120
0030
,  // measure 35
0001
0001
0010
0100
,  // measure 36
0010
1000
0010
1000
,  // measure 37
0100
0100
0010
1000
,  // measure 38
0010
0010
0001
0100
,  // measure 39
0010
0100
0010
0100
,  // measure 40
0000
0110
1000
0010
,  // measure 41
0100
0001
0100
0010
,  // measure 42
0010
1000
0001
0100
,  // measure 43
0001
1000
0010
0001
,  // measure 44
0010
0100
0010
0001
,  // measure 45
0100
0010
1000
0010
,  // measure 46
0010
1000
0100
0001
,  // measure 47
0100
1000
0001
1000
;
