#TITLE:DALLY;
#SUBTITLE:;
#ARTIST:HYOLYN;
#TITLETRANSLIT:;
#SUBTITLETRANSLIT:;
#ARTISTTRANSLIT:;
#CREDIT:;
#BANNER:DALLY banner.png;
#BACKGROUND:DALLY bg.png;
#LYRICSPATH:;
#CDTITLE:;
#MUSIC:DALLY.mp3;
#OFFSET:-6.820;
#SAMPLESTART:53.480;
#SAMPLELENGTH:15.000;
#SELECTABLE:YES;
#BPMS:0.000=144.100;
#STOPS:;
#BGCHANGES:;

//---------------dance-single - ----------------
#NOTES:
     dance-single:
     :
     Hard:
     9:
     0.621,0.632,0.289,0.163,0.314:
2010
0000
0000
0000
3000
0101
0000
0210
,
0000
0000
0000
0000
0000
0000
0310
0000
0010
0000
0000
0000
1000
0001
0000
0000
,
2000
0000
0000
0000
3100
0000
0010
0000
0001
0000
0000
0000
0100
0010
0000
0000
,
1000
0100
0010
1001
,
0001
0000
0000
0010
0000
0000
0100
0000
0000
1000
0000
0000
0010
0000
0000
0100
,
0000
0000
0010
0000
0000
0100
0000
0000
0001
0000
1000
0000
0010
0000
0000
0000
,
1000
0000
0000
0010
0000
0000
0100
0000
0000
0001
0000
0000
1000
0000
0000
0010
,
0000
0000
0001
0000
0000
0010
0000
0000
1000
0000
0010
0000
0100
0000
0001
0000
,
0200
0000
0301
0010
0100
1000
0100
0010
,
0002
0000
0013
0100
1000
0000
1000
0100
,
0010
0010
0100
0000
0001
0001
1000
0000
,
0010
0100
1000
0100
0010
0000
0110
0110
,
0001
0000
0010
0100
0000
0100
0010
0000
1000
0010
0000
0010
1000
0000
0100
0001
,
0000
0001
0100
0000
0010
1000
0000
1000
0010
0000
0100
0000
0001
0000
0000
0000
,
0010
0000
1000
0001
0000
0001
1000
0000
0010
0100
0000
0100
0010
0000
0001
0010
,
0000
0010
0100
0000
1000
0010
0000
0010
1000
0000
0100
0000
0010
0000
0001
0000
,
0020
0000
0130
1000
0100
0001
0100
0010
,
0200
0000
0301
0001
0010
0000
0010
1000
,
0010
0100
0010
0000
1000
0001
1000
0000
,
0001
0010
0010
0100
1000
0000
0010
0100
,
0001
0010
0000
0000
0100
1000
0000
0000
0001
0010
0000
0000
0100
0000
1000
0000
,
1000
0100
0000
0000
0010
0001
0000
0000
1000
0100
0000
0000
0001
0000
0010
0000
,
0100
0010
1000
0010
0001
0100
0010
2000
,
3000
0001
0100
0001
0100
0010
0000
1000
,
0010
0100
0000
0000
0001
1000
0000
0000
0010
0100
0000
0000
0010
0000
0100
0000
,
1000
0001
0000
0000
0100
0001
0000
0000
0010
0000
0000
0000
0010
0000
0100
0000
,
1000
0001
0010
0100
1000
0001
0010
0100
,
0000
0010
0100
0001
1000
0010
0100
0000
,
1001
0000
0010
0000
0010
0000
0100
1000
0100
0000
0010
0000
0100
0000
0001
0000
,
0100
0000
0010
0000
0001
0000
1000
0001
1000
0000
0010
0000
0100
0000
0011
0000
,
0011
0000
0010
0000
0100
0000
1000
0100
1000
0000
0010
0000
0100
0000
0001
0000
,
0000
0001
0010
0100
1000
0100
0010
0100
,
1001
0000
0010
0000
0010
0000
0100
1000
0100
0000
0010
0000
0100
0000
0001
0000
,
1100
0000
0000
0110
0000
0000
0101
0000
0010
0000
0020
0000
0030
0000
0100
0000
,
0100
0000
0000
0000
0001
1000
0000
0000
0020
0000
0000
0000
0130
0000
1000
0000
,
0100
0000
0000
0000
0001
1000
0000
0000
0020
0000
0000
0000
0130
0000
0100
0000
,
1001
0000
1000
0000
0100
0000
0001
0010
0001
0000
0100
0000
1000
0000
0001
0000
,
0110
0000
1000
0000
0100
0000
0001
1000
0001
0000
0010
0000
1000
0000
0110
0000
,
0110
0000
1000
0000
0001
0000
0100
1000
0100
0000
0010
0000
0100
0000
1000
0000
,
0000
1000
0010
0100
0001
0010
0001
1000
,
0110
0001
0100
0100
0001
0010
1000
0010
,
0011
0000
0000
0110
0000
0000
1100
0000
0110
0000
0110
0000
1000
0000
0001
0000
,
0010
0000
0000
0000
1000
0001
0000
0000
0200
0000
0000
0000
0310
0000
0001
0000
,
0010
0000
0000
0000
1000
0001
0000
0000
0200
0000
0000
0000
0300
0000
0000
0000
;

//---------------dance-single - ----------------
#NOTES:
     dance-single:
     :
     Medium:
     6:
     0.405,0.386,0.188,0.201,0.000:
0200
0000
0000
0000
0300
0002
0000
0023
,
0000
0000
0030
1000
1000
0000
0100
0000
,
0020
0000
0030
0001
0001
0000
0010
0000
,
0200
0300
0010
1001
,
0010
0000
0100
0000
1000
0100
1000
0000
,
0100
0000
0010
0000
0001
0010
0001
0000
,
0100
0000
0001
0000
0010
0100
0010
0000
,
1000
0000
0001
0000
0100
1000
0100
0000
,
0020
1030
0100
0001
,
0200
0301
0010
1000
,
0001
0010
0001
0000
0010
0100
0010
0000
,
1000
0010
0100
0001
,
1010
0000
1000
0000
0100
0010
0100
0000
,
0001
0000
0100
0000
0010
0001
0010
0000
,
0001
0100
0010
1000
,
0010
0000
0100
0000
0001
0010
0001
0000
,
2100
3100
0010
0100
,
0012
0013
0001
0100
,
0010
0100
0010
0000
1000
0001
1000
0000
,
0010
1000
0010
0010
,
1100
0000
0110
0000
0011
0000
0010
0100
,
0001
0000
0010
0000
0100
0000
1000
0010
,
1000
0000
0100
0000
0010
0000
0100
0001
,
0100
0100
0010
0100
,
0011
0000
0110
0000
1100
0000
0010
0100
,
0010
1000
0001
0100
,
0010
0010
0010
0000
1000
0000
0001
0100
,
0000
0010
0010
0010
,
1001
0000
0010
0000
0100
0000
0001
0020
,
0000
0030
0100
0000
1001
0000
0010
0100
,
0100
0000
1000
0100
1000
0000
0010
0020
,
0000
0030
0100
0000
0001
0000
1000
0000
,
0010
0000
0100
0001
0001
0000
0100
0000
,
0010
0000
0010
0000
0100
0000
1000
0001
,
0001
0000
0100
0000
0020
0000
0000
1030
,
1000
0000
0100
0000
0002
0000
0000
0003
,
0110
0000
1000
0000
0001
0000
0100
0200
,
0000
0300
0001
0000
0110
0000
1000
0010
,
0010
0000
0100
0001
0001
0000
1000
0000
,
0010
0100
0001
1000
,
0011
0000
0100
1000
0100
0000
0010
0000
,
1000
0000
0100
0000
0010
0000
0001
1000
,
1000
0000
0010
0000
0200
0000
0000
0301
,
0001
0000
0100
0000
0020
0000
0000
0030
;

//---------------dance-single - ----------------
#NOTES:
     dance-single:
     :
     Easy:
     4:
     0.326,0.412,0.176,0.126,0.000: // measure 1
1000
0000
0000
0100
,  // measure 2
0100
0000
0001
0001
,  // measure 3
0010
0000
1000
1000
,  // measure 4
0010
0000
0100
0010
,  // measure 5
1000
0100
0010
0010
,  // measure 6
0100
0001
0010
0010
,  // measure 7
0001
1000
0010
0010
,  // measure 8
0100
0001
1000
1000
,  // measure 9
0020
0030
0100
0001
,  // measure 10
2000
3000
0001
0100
,  // measure 11
0010
0010
1000
1000
,  // measure 12
0010
0100
0001
1000
,  // measure 13
0100
0001
0100
0100
,  // measure 14
0010
1000
0001
0001
,  // measure 15
0100
0010
1000
1000
,  // measure 16
0100
1000
0010
0010
,  // measure 17
0200
0300
0001
0010
,  // measure 18
0002
0003
1000
0010
,  // measure 19
0100
0100
0001
0001
,  // measure 20
0010
0001
0100
0010
,  // measure 21
1001
1001
1001
0010
,  // measure 22
0110
0110
0110
1000
,  // measure 23
0001
0010
0001
0100
,  // measure 24
0010
1000
0100
0100
,  // measure 25
0011
0011
0011
0100
,  // measure 26
1100
1100
1100
0010
,  // measure 27
0100
0000
0100
0000
0010
0000
0100
0100
,  // measure 28
0000
0000
0000
0000
,  // measure 29
1001
0010
0100
0010
,  // measure 30
0001
0100
0010
1000
,  // measure 31
0100
0010
1000
0010
,  // measure 32
0100
0001
0010
0100
,  // measure 33
1000
0010
0100
0100
,  // measure 34
0010
0001
0020
0030
,  // measure 35
0100
0100
0020
0030
,  // measure 36
1000
1000
0020
0030
,  // measure 37
0110
1000
0001
0010
,  // measure 38
0001
0010
1000
0010
,  // measure 39
0100
1000
0010
1000
,  // measure 40
0010
1000
0100
0010
,  // measure 41
0001
0100
0010
1000
,  // measure 42
0010
0100
0020
0030
,  // measure 43
0100
0100
0002
0003
,  // measure 44
0010
0010
0002
0003
;
