#TITLE:BBOOM BBOOM;
#SUBTITLE:;
#ARTIST:MOMOLAND;
#TITLETRANSLIT:;
#SUBTITLETRANSLIT:;
#ARTISTTRANSLIT:;
#CREDIT:;
#BANNER:Z-1 banner.png;
#BACKGROUND:Z-1 bg.png;
#LYRICSPATH:;
#CDTITLE:;
#MUSIC:Z-1.mp3;
#OFFSET:-7.900;
#SAMPLESTART:67.940;
#SAMPLELENGTH:15.000;
#SELECTABLE:YES;
#BPMS:0.000=126.020;
#STOPS:;
#BGCHANGES:;

//---------------dance-single - ----------------
#NOTES:
     dance-single:
     :
     Hard:
     7:
     0.525,0.482,0.242,0.182,0.086:
0001
0010
0100
0010
1000
0010
0100
1000
,
0020
0000
0130
0100
0001
0010
0100
1000
,
0010
1000
0100
0010
1000
0001
0100
0010
,
1000
0001
0010
0100
0110
0000
1001
0000
,
0100
1000
0100
0010
1000
0001
0010
0100
,
2000
0000
3100
0100
0001
0100
0010
0100
,
0001
0000
0000
0010
0000
0000
0100
1000
0000
0000
1000
0000
0000
0100
0000
0000
,
0010
0000
1001
0000
0010
0000
0010
0100
,
1000
0000
0010
1000
0010
0001
0010
0100
,
0010
0000
1000
0100
0020
0030
0000
0100
,
0010
0001
0010
0100
1000
0010
0100
0001
,
0100
0000
0001
0010
0200
0300
0010
0010
,
0100
0000
1000
0000
0100
0000
1000
0000
0010
0000
0000
0010
0000
0000
0100
0000
,
1000
0100
0000
0000
0100
0010
0000
0000
1001
0000
0000
0000
0010
0000
0100
0000
,
0001
0010
0100
0010
1000
0000
0100
1000
,
0100
0010
0100
0001
0100
0000
0011
0000
,
2000
3000
0200
0300
0001
0010
0100
1000
,
0002
0003
0020
0030
0100
0010
1000
0001
,
0200
0300
0020
0030
0100
1000
0001
1000
,
0001
0010
0000
0000
0010
0100
0000
0000
0100
1000
0000
0000
1001
0000
0000
0000
,
0020
0000
0230
0000
0302
0000
1003
0010
,
0100
0000
0001
0000
0100
0000
0010
1000
0000
0000
0100
0000
0001
0000
0100
0000
,
0010
1000
0010
0100
0100
0000
0001
0100
,
1000
0010
0100
0001
,
0200
0000
0310
0000
0002
0010
0013
1000
,
0010
0000
0100
0000
1000
0100
0001
0100
,
0000
0010
1000
0010
0100
0001
0100
0010
,
0000
1000
0100
1000
0001
0100
1000
0010
,
0200
0000
1300
0000
0100
0010
0001
0010
,
0200
0000
0310
0000
0001
0010
1000
0010
,
0001
1000
0001
1000
0001
1000
0001
1000
,
0001
0000
0000
0000
0010
0100
0010
0100
,
1001
0010
1000
0010
0100
0001
0100
0010
,
1000
0000
0000
0001
0000
0000
1000
0000
0010
0000
0100
0000
0001
0000
0010
0000
,
1000
0100
0010
0001
1000
0100
0010
0001
,
1001
0000
0001
0000
0010
0100
0010
0100
,
1001
0010
0001
0100
1000
0010
0001
0100
,
0001
0000
0000
1000
0000
0000
0001
0000
1000
0000
0010
0000
0100
0000
0010
0000
,
1100
0000
0000
1100
0000
0000
0010
0000
0100
0000
0010
0000
1000
0000
0010
0000
,
0011
0000
0000
0011
0000
0000
0010
0000
0100
0000
1000
0000
0100
0000
0010
0000
,
1001
0001
0010
0100
0010
1000
0010
0100
,
0002
0003
0010
0010
0100
1000
0010
1000
,
0100
0001
0100
0010
1000
0010
0100
0001
,
0010
0001
0010
0100
1001
0000
1001
0000
,
0110
0100
1000
0010
0001
0100
0010
1000
,
0010
0000
0100
0001
0100
0010
0010
1000
,
0011
0000
0000
0011
0000
0000
0010
0000
0100
0000
1000
0000
0010
0000
0100
0000
,
1100
0000
0000
1100
0000
0000
0110
0000
0000
0110
0000
0000
1001
0000
0000
0000
;

//---------------dance-single - ----------------
#NOTES:
     dance-single:
     :
     Medium:
     6:
     0.343,0.386,0.151,0.071,0.000:
0100
0000
1000
0000
0001
0010
0001
0000
,
0200
0000
0310
0000
1000
1000
1000
0000
,
0010
0100
0001
0010
,
0001
0010
0100
0000
1001
0000
0110
0000
,
0010
0000
1000
0000
0001
0100
0001
0000
,
0020
0000
0130
0000
1000
0001
0001
0000
,
0100
0000
0010
0000
1000
0001
0010
0000
,
0100
0000
0010
0000
1000
0000
1000
0100
,
0010
0000
0100
0000
0010
0000
0100
0001
,
0020
0000
0030
0000
,
0010
0100
0001
0000
1000
0000
0010
0000
,
0200
0000
0300
0010
,
0010
0100
0001
0100
,
0010
0001
0010
0000
1100
0000
0010
0000
,
0100
1000
0100
0010
,
0100
0001
0100
0000
0010
0000
0010
0000
,
1001
0000
1001
0000
0010
0010
0010
0000
,
0110
0000
0110
0000
0100
0100
0100
0000
,
0011
0000
0011
0000
0100
0100
0100
0000
,
0010
1000
0010
0101
,
0020
0030
0200
0300
0002
0003
0100
0000
,
0010
0100
0010
0000
1000
0000
1000
0000
,
0010
0100
0001
0010
,
0001
0100
1000
0010
,
0100
1000
0100
0000
0010
0001
0010
0000
,
0100
0100
0001
0100
,
0001
0010
0100
1000
,
0010
0000
0100
0000
0010
0001
0010
0000
,
1000
0010
0100
0001
,
0010
0010
0010
0000
0100
0100
0100
0000
,
0010
0000
0001
0000
1000
0100
0010
0001
,
0000
0000
0110
0110
,
1001
0000
0010
0000
0100
1000
0100
0000
,
0010
0010
0100
0001
,
0100
0000
0010
0000
1000
1000
1000
0000
,
0101
0010
0001
0100
,
0110
0000
0001
0000
0010
0100
0010
0000
,
1000
0000
1000
0000
0010
0010
0010
0000
,
0100
0000
0100
0000
0001
0001
0001
0000
,
0010
0010
1000
0001
,
0010
0100
0000
0100
0010
0001
0010
0100
,
0010
0000
0100
0100
,
0010
1000
0001
0100
,
0001
0010
0001
0000
0100
0000
0100
0000
,
0010
0000
1000
0000
0001
0010
0100
1000
,
0100
0000
0001
0100
,
0010
0010
1000
0001
,
0100
0100
0001
0100
;

//---------------dance-single - ----------------
#NOTES:
     dance-single:
     :
     Easy:
     4:
     0.283,0.265,0.071,0.061,0.000: // measure 1
0010
0100
0010
0100
,  // measure 2
0001
0010
0001
0010
,  // measure 3
1000
0010
1000
0010
,  // measure 4
0100
0001
0110
0110
,  // measure 5
1000
0100
1000
0100
,  // measure 6
0001
0010
0001
0010
,  // measure 7
0100
0001
0100
0010
,  // measure 8
1000
0001
0100
0100
,  // measure 9
0001
0010
0100
1000
,  // measure 10
0200
0310
0001
0000
,  // measure 11
1000
0010
0100
0001
,  // measure 12
0020
1030
0010
0000
,  // measure 13
0100
0100
0001
0100
,  // measure 14
0010
1000
0110
1000
,  // measure 15
0010
0100
0010
0000
,  // measure 16
0100
0001
0100
0010
,  // measure 17
1000
1000
0010
0100
,  // measure 18
0001
0001
0010
0100
,  // measure 19
0010
0010
1000
0001
,  // measure 20
1000
0100
0010
1001
,  // measure 21
0010
0010
0010
0100
,  // measure 22
1000
0100
0010
0100
,  // measure 23
0001
0010
0001
0010
,  // measure 24
1000
0010
0100
0001
,  // measure 25
1000
1000
0010
0010
,  // measure 26
0100
0001
0100
0010
,  // measure 27
1000
0001
0200
0300
,  // measure 28
0010
0100
0002
0003
,  // measure 29
0010
0100
0010
0100
,  // measure 30
0001
1000
0001
1000
,  // measure 31
0010
0100
1000
0100
,  // measure 32
0010
0000
0010
0010
,  // measure 33
1001
0010
0001
0100
,  // measure 34
0010
1000
0010
0100
,  // measure 35
0001
0100
0010
1000
,  // measure 36
0110
0000
1000
1000
,  // measure 37
0110
0001
0010
0001
,  // measure 38
0100
0010
1000
0001
,  // measure 39
0100
0100
0001
0100
,  // measure 40
0010
0010
1000
0100
,  // measure 41
1000
1000
0001
0100
,  // measure 42
0020
0000
0130
0100
,  // measure 43
0001
0100
0010
0100
,  // measure 44
0001
1000
0010
0010
,  // measure 45
0100
0001
1000
0100
,  // measure 46
0020
0030
0100
0100
,  // measure 47
0001
0100
0010
1000
,  // measure 48
0010
0100
0001
0001
;
