#TITLE:BAD BOY;
#SUBTITLE:;
#ARTIST:Red Velvet;
#TITLETRANSLIT:;
#SUBTITLETRANSLIT:;
#ARTISTTRANSLIT:;
#CREDIT:;
#BANNER:Z-8 banner.png;
#BACKGROUND:Z-8 bg.png;
#LYRICSPATH:;
#CDTITLE:;
#MUSIC:Z-8.mp3;
#OFFSET:-6.820;
#SAMPLESTART:51.640;
#SAMPLELENGTH:15.000;
#SELECTABLE:YES;
#BPMS:0.000=150.000;
#STOPS:;
#BGCHANGES:;

//---------------dance-single - ----------------
#NOTES:
     dance-single:
     :
     Hard:
     8:
     0.589,0.664,0.422,0.222,0.056:
0010
0100
0001
0000
0020
0000
0030
0000
,
1000
0010
0100
0000
0002
0000
0003
0000
,
0100
0010
1000
0000
0020
0000
0030
0000
,
0100
0001
0010
0000
0100
0000
0001
0001
,
1000
0010
0100
0010
1000
0001
0100
0000
,
0001
0010
0011
0000
0010
0100
1000
0100
,
0010
0000
0101
0000
0010
1000
0020
0000
,
0130
1000
0100
0000
0001
0010
0010
0100
,
1001
0000
1100
0000
0010
0000
0100
0001
,
0101
0000
0110
0000
2000
0000
3010
0100
,
0010
0000
0010
0001
0010
0100
1000
0000
,
0110
0000
1000
0100
0010
0000
0010
0100
,
1001
0000
1100
0000
0010
0100
0002
0000
,
0013
0100
0010
0000
1000
0100
0001
0100
,
1000
0010
0100
0001
0010
0001
0100
0000
,
0010
1000
0100
0000
0010
0100
0001
0100
,
0110
0000
1010
0000
0100
0000
0001
0100
,
0110
0000
1001
0000
0020
0000
0130
0001
,
0100
0000
0000
0001
0000
0000
0100
0000
0010
0000
0000
1000
0000
0000
0010
0000
,
0000
0100
1000
0100
0010
0100
0001
0100
,
0020
1000
0031
0100
,
0001
0010
0001
0100
0010
0100
1000
0100
,
2000
0100
3001
0100
,
0010
0100
1000
0000
1000
0100
0010
0001
,
0110
1100
0210
0301
,
0100
0010
0010
0100
0010
0010
1000
0010
,
1001
0011
1100
0010
,
1000
0000
0000
0000
0001
0000
0000
0000
1000
0000
0000
0000
0001
0000
0000
0000
0010
0000
0000
0000
0100
0000
0000
0000
1000
0000
0000
0001
0000
0000
1000
0000
0000
0010
0000
0000
0100
0000
0000
0001
0000
0000
0100
0000
0000
0010
0000
0000
,
1001
0000
1100
0000
1001
0000
0010
0100
,
0002
0000
2003
0000
3020
0000
1030
0100
,
0100
0001
0010
1000
0010
0001
0100
0010
,
0100
0000
1000
0010
0100
0001
0100
0000
,
0011
0000
1100
0000
0010
0100
0100
0010
,
0100
0001
0010
1000
0010
0000
0010
0000
,
1100
0000
0011
0000
0100
1000
1000
0100
,
0010
0100
0100
0001
0010
1000
0010
0000
,
0101
0000
1010
0000
0101
0000
0010
0100
,
1000
0100
0010
0000
0101
0000
0020
0000
,
0130
0000
1000
0100
0010
0001
0010
0100
,
1000
0000
0001
0010
0110
1000
0110
0000
,
1001
0000
1001
0000
0010
0100
0100
0001
,
0100
0010
1000
1000
0010
0000
0100
0000
,
1001
0000
1100
0000
0010
1000
1000
0001
,
0100
0100
0010
0010
1000
0001
0100
0010
,
1001
0000
0010
0100
2000
0100
0100
0010
,
0000
0010
3100
0000
0002
0010
0100
0100
,
0000
0010
0103
0000
1001
0000
0010
0000
,
0001
0010
0100
1000
0100
0000
0010
0100
,
0001
0010
0100
0000
0020
0100
1000
1000
,
0000
0100
0031
0000
0200
0010
0010
0001
,
0000
0010
1300
0010
0000
0200
0000
0301
,
0010
0000
0100
0000
1000
0000
0100
0000
0020
0000
0000
0000
0000
0000
0000
0030
;

//---------------dance-single - ----------------
#NOTES:
     dance-single:
     :
     Medium:
     4:
     0.373,0.376,0.133,0.167,0.000:
0010
0010
0200
0300
,
0001
0001
0200
0300
,
0010
0010
2000
3000
,
0100
0100
0002
0013
,
0100
0100
0010
0100
,
0001
0010
1000
1000
,
0010
0100
0001
0001
,
0010
0000
1000
0000
0001
0100
0001
0000
,
0100
0100
0010
1000
,
0010
0100
0001
1000
,
0010
0000
0010
0000
1000
0100
1000
0000
,
0010
0010
0100
0001
,
1000
0100
0010
0001
,
0010
0000
0010
0000
0100
0010
0100
0000
,
0001
0010
0100
1000
,
0010
0100
0010
0000
0001
0000
0010
0000
,
0100
0100
0010
1000
,
0010
0000
0100
0000
0001
0010
0001
0000
,
0010
1000
0010
0010
,
0100
0020
0030
0100
,
0200
0001
0310
0000
,
0010
1000
0010
0100
,
0002
1000
0103
0000
,
0010
0010
0100
0001
,
0100
0100
0110
0000
,
1000
0100
0001
0100
,
0010
1000
0201
0300
,
0100
0000
0010
0000
1000
0001
1000
0001
,
0100
0000
0010
0000
1000
0000
0001
0100
,
0001
0010
0200
0300
,
0010
1000
0010
0100
,
0002
0000
0003
0100
0010
0100
0010
0000
,
1100
1100
0010
0100
,
0001
0010
0001
0000
0100
0000
0100
0000
,
0011
0011
0100
0100
,
0010
0100
0010
0000
1000
0001
1000
0000
,
0010
0100
1000
0100
,
0001
0100
0020
0030
,
0100
0001
0010
0001
,
0200
0300
0010
0010
,
1001
1001
0010
0010
,
1000
0100
0010
0000
0100
0000
0100
0000
,
0110
0110
0001
0100
,
0001
0010
0100
0000
0010
0000
0010
0000
,
1002
0000
0103
0010
,
0100
0100
0001
1000
,
0010
0010
0100
0100
,
0001
0010
0100
1000
,
1020
0000
0130
0001
,
0100
0100
0001
0100
,
0001
0001
0100
0010
,
1000
0010
0200
0000
,
0300
0000
0000
0000
;

//---------------dance-single - ----------------
#NOTES:
     dance-single:
     :
     Easy:
     3:
     0.340,0.374,0.178,0.189,0.000: // measure 1
0010
0001
0020
0030
,  // measure 2
1000
0100
2000
3000
,  // measure 3
0010
0100
0020
0030
,  // measure 4
0001
0100
0001
0200
,  // measure 5
0310
0010
1000
0010
,  // measure 6
0100
0100
0001
0100
,  // measure 7
0010
0010
1000
0100
,  // measure 8
1000
1000
0100
0010
,  // measure 9
1001
1001
0010
0100
,  // measure 10
1001
1001
0010
0010
,  // measure 11
0001
0010
0100
1000
,  // measure 12
0020
0030
0100
0100
,  // measure 13
0010
0010
0001
0010
,  // measure 14
0001
0001
0100
0010
,  // measure 15
1000
1000
0010
0100
,  // measure 16
0001
0001
0100
0010
,  // measure 17
0110
0110
1000
0001
,  // measure 18
0110
0110
0001
0010
,  // measure 19
0001
0001
0010
0100
,  // measure 20
0010
1000
0100
0010
,  // measure 21
2000
0000
3001
0000
,  // measure 22
0010
0100
0010
0100
,  // measure 23
0002
0000
1003
0000
,  // measure 24
0001
0010
0100
1000
,  // measure 25
0100
0100
0100
0000
,  // measure 26
0010
0010
0001
1000
,  // measure 27
0010
0010
0020
0030
,  // measure 28
0100
0100
0001
0100
,  // measure 29
0001
0010
0100
1000
,  // measure 30
0100
0010
0002
0003
,  // measure 31
0100
0100
0010
1000
,  // measure 32
0020
0030
0100
0100
,  // measure 33
1001
1002
0003
0100
,  // measure 34
0010
0100
1000
0100
,  // measure 35
0110
0120
0030
1000
,  // measure 36
0100
0001
0100
0100
,  // measure 37
0001
0100
0010
1000
,  // measure 38
0100
0010
0002
0003
,  // measure 39
0100
0100
1000
0100
,  // measure 40
0020
0030
0100
0001
,  // measure 41
1001
2001
3000
0010
,  // measure 42
0100
0001
0100
1000
,  // measure 43
0110
0210
0300
0001
,  // measure 44
0010
0010
0100
1000
,  // measure 45
0001
0000
0010
0000
,  // measure 46
0100
1000
0100
1000
,  // measure 47
0010
0000
1000
0000
,  // measure 48
0010
0100
0001
0100
,  // measure 49
1000
0000
0010
0000
,  // measure 50
0100
0001
0010
0001
,  // measure 51
1000
0000
0010
0000
,  // measure 52
0100
0010
0200
0300
;
