#TITLE:Around You;
#SUBTITLE:;
#ARTIST:LOONA;
#TITLETRANSLIT:;
#SUBTITLETRANSLIT:;
#ARTISTTRANSLIT:;
#CREDIT:;
#BANNER:Around You banner.png;
#BACKGROUND:Around You bg.png;
#LYRICSPATH:;
#CDTITLE:;
#MUSIC:Around You.mp3;
#OFFSET:-14.360;
#SAMPLESTART:54.580;
#SAMPLELENGTH:15.000;
#SELECTABLE:YES;
#BPMS:0.000=70.040;
#STOPS:;
#BGCHANGES:;

//---------------dance-single - ----------------
#NOTES:
     dance-single:
     :
     Hard:
     6:
     0.203,0.206,0.099,0.033,0.000:
0100
0000
0001
0000
1000
0010
1000
0000
,
0001
0010
0100
1000
0100
0000
0000
0000
,
0010
0000
0100
0000
0010
1000
0100
0001
,
0100
0001
0100
0010
,
1000
0000
0010
0000
0100
1000
0001
0100
,
0010
0000
0001
0001
0100
0000
0010
0010
,
1000
0010
0100
0001
,
0200
0000
0300
0000
,
0001
0010
0100
0000
0010
0100
1000
0000
,
0100
0010
0001
0000
1000
0100
0010
0000
,
0100
0100
0001
0001
0100
0010
0100
0000
,
0001
0010
0100
1000
,
1001
0000
0110
0000
0001
1000
0010
0100
,
0011
0000
1100
0000
0010
0100
1000
0100
,
0010
0010
0100
0001
0200
0310
0000
0001
,
0010
1000
0100
0010
0100
0001
0001
0000
,
0110
0000
1001
0000
0010
0100
1000
0100
,
1100
0000
0011
0000
0100
0100
1000
1000
,
0010
0010
0001
0010
0100
0000
0100
0000
,
0001
1000
0010
0100
0000
0001
1000
0001
,
0020
0000
0000
0030
,
0100
0100
0001
0001
,
0110
0000
0000
0000
;

//---------------dance-single - ----------------
#NOTES:
     dance-single:
     :
     Challenge:
     8:
     0.296,0.291,0.099,0.110,0.276:
0100
0000
0000
0000
0100
0010
0001
0010
0000
0000
0100
0000
0000
0000
0010
0000
,
1000
0000
0001
0100
0000
0100
0001
0000
0010
0000
0000
0000
0100
0000
1000
0000
,
0100
0000
0000
0000
0010
0100
1000
0100
0000
0000
0010
0000
0000
0000
0010
0100
,
0010
0000
0000
0000
0100
0000
0000
0000
0001
0000
0010
0000
0100
1000
0100
0000
,
0010
0000
0000
0000
0100
1000
0001
0100
0000
0000
0010
0000
0000
0000
0100
0000
,
0001
0000
1000
0010
0000
0010
0100
0000
0000
0000
0001
0000
0100
0000
0010
0100
,
0010
1000
0001
0100
0010
1000
0100
0001
,
0200
0000
0000
0000
1000
0000
0000
0000
0010
0000
0000
0000
1300
0000
0001
0010
,
0001
0000
0010
0100
0010
0000
0100
1000
0100
0000
1000
0100
0000
0010
0000
0001
,
0000
0010
0000
0000
0100
0000
0000
0000
1000
0000
0100
0000
0100
0000
1000
0100
,
1000
0000
0100
0010
0100
0000
0010
0001
0010
0000
0100
0000
0010
0000
0100
0000
,
2000
3200
0320
0032
0023
0000
0130
0100
,
1001
0000
0000
0000
0110
0000
0000
0000
0001
0010
0100
1000
0000
0100
0010
0000
,
0110
0000
0000
0000
1001
0000
0000
0000
1000
0100
0010
0001
0000
0100
0010
0000
,
1000
0000
0001
0100
0000
0100
0000
0020
0000
0030
2000
0000
0100
0000
3000
0000
,
0001
0000
0010
0100
0000
0010
0000
0100
0000
1000
0000
0010
0000
0100
0000
0000
,
1001
0000
0000
0000
0011
0000
0000
0000
0010
0100
1000
0010
0100
0001
0100
0000
,
1001
0000
0000
0000
1100
0000
0001
0010
0000
0010
0100
1000
0000
0100
0000
0020
,
0000
0030
0100
0001
0000
0010
0000
0100
1000
0000
0000
0000
0100
0000
0010
0100
,
0010
1000
0100
0010
0001
0100
0010
1000
,
0002
0010
0100
1003
,
0100
0010
1000
0001
,
0110
0000
0000
0000
;

//---------------dance-single - ----------------
#NOTES:
     dance-single:
     :
     Medium:
     5:
     0.180,0.182,0.099,0.033,0.000:
1000
1000
0010
0010
,
0100
0001
0100
0001
0100
0000
0000
0000
,
0001
0001
0010
0010
,
1000
0000
0100
0000
0010
0000
1000
0100
,
1000
0010
1000
0010
,
0100
0001
0100
1000
0100
0000
0000
0000
,
0010
0010
0100
0100
,
0001
0010
0001
0000
0010
0000
0010
0000
,
1000
1000
1000
0000
0100
0100
0100
0000
,
0001
1000
0010
0100
,
0001
0001
0001
0000
0010
0010
0010
0000
,
2000
0000
0000
0000
0000
0000
3010
0010
,
1001
0000
0110
0000
1000
1000
0100
0000
,
0011
0000
0011
0000
0100
0100
0010
0000
,
0100
0000
1000
0000
0010
0002
0000
0003
,
0100
0000
0010
0000
1000
0001
1000
0001
,
0110
0000
1001
0000
0001
0001
0100
0000
,
1100
0000
1100
0000
0010
0010
0001
0000
,
0100
0001
0100
0001
,
1000
1000
0100
0100
0000
0010
0010
0100
,
0020
0000
0000
0030
,
0100
0100
0100
0010
,
1001
0000
0000
0000
;

//---------------dance-single - ----------------
#NOTES:
     dance-single:
     :
     Easy:
     4:
     0.162,0.158,0.099,0.110,0.000: // measure 1
0010
0010
0100
0100
,  // measure 2
0001
0010
0100
1000
,  // measure 3
1000
1000
0001
0001
,  // measure 4
1000
0100
0010
0001
,  // measure 5
0100
0001
0100
0010
,  // measure 6
1000
0010
1000
0001
,  // measure 7
2000
3200
0320
0031
,  // measure 8
0010
0010
0100
0100
,  // measure 9
0001
0002
0013
0020
,  // measure 10
0130
1000
0010
0001
,  // measure 11
1000
2000
3100
0200
,  // measure 12
0310
1000
0010
0100
,  // measure 13
1001
0110
0001
1000
,  // measure 14
1001
0110
1000
0010
,  // measure 15
0100
0000
1000
0000
0100
0200
0300
0000
,  // measure 16
0010
0001
0010
0100
,  // measure 17
1001
0110
1000
0001
,  // measure 18
0110
1001
0010
1000
,  // measure 19
0001
0001
0020
0030
,  // measure 20
0100
0100
1000
1000
,  // measure 21
0020
0000
0000
0030
,  // measure 22
0001
0000
0001
0100
,  // measure 23
1001
0000
0000
0000
;

//---------------dance-single - ----------------
#NOTES:
     dance-single:
     :
     Beginner:
     1:
     0.090,0.109,0.055,0.044,0.000:
0010
0000
0010
0000
,
0100
0000
0100
0000
,
0001
0000
0001
0000
,
1000
0000
1000
0000
,
0100
0000
1000
0000
,
0010
0000
0001
0000
,
0100
0000
0001
0000
,
0010
0000
1000
0000
,
0020
0030
0100
0000
,
0002
0003
0010
0000
,
1000
0000
0100
0000
,
0010
0000
0001
0000
,
1001
0000
0010
0000
,
1001
0000
0100
0000
,
0001
0000
0020
0030
,
1000
1000
1000
1000
,
1001
0000
0010
0000
,
1001
0000
0100
0000
,
0010
0010
0000
0001
,
1000
1000
0001
0000
,
0020
0000
0000
0030
,
0100
0000
0100
0000
,
1001
0000
0000
0000
;
