#TITLE:banana man;
#SUBTITLE:;
#ARTIST:sa10;
#TITLETRANSLIT:;
#SUBTITLETRANSLIT:;
#ARTISTTRANSLIT:;
#GENRE:;
#CREDIT:M.P.B.L.;
#MUSIC:banana man.ogg;
#BANNER:banana man.png;
#BACKGROUND:banana man-bg.png;
#CDTITLE:cdtitle.png;
#SAMPLESTART:106.824;
#SAMPLELENGTH:14.222;
#SELECTABLE:YES;
#OFFSET:-0.157;
#BPMS:0.000=135.000;
#STOPS:;
#BGCHANGES:;
#FGCHANGES:;

//--------------- dance-single - ----------------
#NOTES:
     dance-single:
     :
     Beginner:
     4:
     0,0,0,0,0:
0000
0000
0000
0000
,
0000
0000
0000
0000
,
0000
0000
0000
0000
,
0000
0000
0000
0000
,
1000
0000
0001
0000
,
0100
0010
0100
0000
,
0001
0000
1000
0000
,
0010
0100
0010
0000
,
1000
0000
0100
0000
,
0010
0001
0010
0000
,
0001
0000
0010
0000
,
0100
1000
0100
0000
,
1000
0010
1000
0010
,
1000
0010
0100
0000
,
0001
0100
0001
0100
,
0001
1001
1001
0000
,
0100
0000
0100
0000
,
0001
0010
0001
0000
,
0100
0000
0100
0000
,
0010
1000
0010
0000
,
0000
0000
0000
0000
,
0000
0000
0000
0000
,
0000
0000
0000
0000
,
0000
0000
0000
0000
,
0100
0000
0000
0000
,
0100
0000
0000
0000
,
0100
0000
0000
0000
,
0100
0000
0000
0000
,
0001
0000
1000
0000
,
0001
0000
1000
0000
,
0010
0000
0100
0000
,
0010
0000
0100
0000
,
0001
0000
0010
0000
,
0100
0000
1000
0000
,
0001
0000
0100
0000
,
0010
0000
0000
0000
,
0100
0000
0100
0000
,
0010
0100
0010
0000
,
0000
0000
0000
0000
,
0110
0000
0000
0000
,
1000
0001
1000
0000
,
0001
1000
0001
0000
,
1000
0100
1000
0000
,
0100
1000
0100
0000
,
0010
0001
0010
0001
,
0010
0001
0010
0000
,
1000
0010
1000
0000
,
0001
0100
0001
0000
,
1000
0000
1000
0000
,
0001
0100
0001
0000
,
0010
0000
0010
0000
,
1000
1001
1001
0000
,
1000
0100
0010
0001
,
1000
0100
0010
0000
,
0001
0100
0010
0000
,
0110
0000
0000
0000
,
0200
0000
0000
0000
,
0000
0000
0000
0300
,
0020
0000
0000
0000
,
0000
0000
0030
0000
,
1000
0000
0100
0000
,
0001
0000
0010
0000
,
1000
0000
0001
0000
,
1000
0000
0001
0000
,
1000
0100
0010
0001
,
0100
0000
0100
0000
,
0001
0000
0100
0000
,
0001
0000
0100
0000
,
0001
0010
0001
0000
,
1000
0100
1000
0000
,
0010
0000
0010
0000
,
0100
0000
0100
0000
,
0010
0000
0000
0000
;

//--------------- dance-single - M.P.Banana.L. ----------------
#NOTES:
     dance-single:
     M.P.Banana.L.:
     Easy:
     9:
     0,0,0,0,0:
0000
0000
0000
0000
,
0000
0000
0000
0000
,
0000
0000
0000
0000
,
0000
0000
0000
0000
,
1000
0010
1000
0010
0000
0000
0000
0000
,
0100
0010
0100
0010
0000
0000
0000
0000
,
0001
0100
0001
0100
0000
0000
0000
0000
,
1000
0100
1000
0100
0000
0000
0011
0000
,
1000
0100
0010
0001
0000
0000
0000
0000
,
0001
0010
0100
1000
0000
0000
0000
0000
,
0001
0100
0010
1000
0000
0000
0000
0000
,
1000
0010
0100
0001
0000
0000
0000
0000
,
1000
0000
0100
0000
0001
0100
0001
0000
,
1000
0001
1000
0001
0000
0000
0000
0000
,
0010
0100
0010
0100
0000
0000
0000
0000
,
0001
0101
1100
1001
,
0001
0010
0001
0100
0000
0000
0000
0000
,
1000
0010
1000
0100
0000
0000
0000
0000
,
0001
0010
0001
1000
0000
0000
0000
0000
,
0100
0010
1000
0001
0000
0000
0000
0000
,
0200
0000
0000
0000
,
0310
0000
0000
0000
,
0010
0000
0000
0000
,
0010
0000
0000
0000
,
1000
1000
1000
0000
,
0010
0010
0010
0000
,
0100
0100
0100
0000
,
0001
0001
0001
0000
,
1000
0100
0010
0000
,
0100
0010
0001
0000
,
0001
0010
0100
0000
,
0010
0100
1000
0000
,
0001
0100
0001
0000
,
1000
0010
1000
0000
,
1000
0100
1000
0000
,
0001
0010
0001
0000
,
1000
1000
1000
1000
,
0010
0100
0010
0100
0020
0000
0000
0000
,
0000
0000
0000
0030
,
0110
0000
0000
0000
,
1000
0100
0010
0001
0000
0000
0001
0000
,
0010
0100
0010
0100
0000
0000
0001
0000
,
0001
0010
0100
1000
0000
0000
0010
0000
,
1000
0100
1000
0100
0000
0000
0010
0000
,
0001
0100
0001
0010
1000
0010
0000
0000
,
1000
0100
1000
0100
0000
0000
0100
0000
,
1000
0010
0100
0001
0000
0000
1000
0000
,
0100
0010
0100
0002
0000
0003
0000
0000
,
1000
0100
1000
0001
0000
0000
0010
0000
,
0001
1000
0100
1000
0000
0000
0010
0000
,
0001
0010
0100
1000
0000
0000
0010
0000
,
1000
1010
0011
1001
,
1000
0100
0010
0100
1000
0100
0000
0000
,
0010
0001
0010
0001
0000
0000
0100
0000
,
0010
1000
0010
0100
0000
0000
0001
0000
,
1001
0000
0000
0110
0000
0000
1001
0000
,
0200
0000
0000
0000
,
0000
0000
0000
0300
,
0010
0100
0010
0000
0100
0010
0100
0000
,
0020
0000
0030
0000
,
1000
0010
0100
0001
0010
0000
0001
0000
,
0001
0010
0100
1000
0100
0000
0010
0000
,
0001
0100
0010
1000
0100
0000
0100
0000
,
1000
0100
0010
0001
0010
0000
0010
0000
,
1000
0001
1000
0010
0100
0010
0000
0000
,
0001
0100
0001
0100
0001
0100
0010
0000
,
1000
0100
1000
0100
0000
0000
0100
0000
,
0001
0100
0001
0100
0000
0000
0100
0000
,
1000
1000
0100
0000
0001
0001
0100
0000
,
1000
1000
0100
0000
0001
0001
0100
0000
,
0010
0100
0010
0100
0000
0000
0100
0000
,
0001
1000
0001
1000
0000
0000
0010
0000
,
1001
0000
0000
0000
;

//--------------- dance-single - M.P.Banana.L. ----------------
#NOTES:
     dance-single:
     M.P.Banana.L.:
     Medium:
     11:
     0,0,0,0,0:
0000
0000
0000
0000
,
0000
0000
0000
0000
,
0000
0000
0000
0000
,
0000
0000
0100
0100
,
0001
0100
0001
1000
0000
1000
0000
0001
,
1000
0010
1000
0100
0000
0100
0000
1000
,
0001
0010
0001
1000
0000
1000
0000
0001
,
1000
0100
1000
0010
0000
0010
0100
0000
,
1000
0100
1000
0001
0000
0001
0000
1000
,
0001
0010
0001
0100
0000
0100
0000
0001
,
1000
0010
1000
0001
0000
0001
0000
1000
,
0001
0100
0001
0010
0000
0010
0000
0001
,
1000
0000
1000
0100
0000
0010
0000
0001
,
1000
0010
0100
0001
0000
0001
0000
1000
,
0001
0100
0001
0100
0000
0010
0000
0100
,
0001
0000
1000
0000
1001
0000
0000
0000
0110
0000
0000
0000
1000
0100
1000
0100
,
1000
0010
1000
0001
0000
0001
0000
1000
,
0010
0100
0010
1000
0000
0001
0000
0100
,
0001
0010
0001
1000
0000
1000
0000
0001
,
0010
0100
0010
0001
0000
1000
0100
0000
,
0010
0000
0010
0000
,
0010
0000
0010
0000
,
0100
0000
0100
0000
,
0100
0000
0100
0000
,
1000
0000
0000
0001
0000
0000
1000
0000
0000
0000
0000
0000
0000
0000
0000
0000
,
0001
0000
0000
0100
0000
0000
0001
0000
0000
0000
0000
0000
0000
0000
0000
0000
,
1000
0000
0000
0010
0000
0000
1000
0000
0000
0000
0000
0000
0000
0000
0000
0000
,
0010
0000
0000
0100
0000
0000
0010
0000
0000
0000
0000
0000
0000
0000
0000
0000
,
1000
0000
1000
0000
0001
0100
0001
0000
,
0100
0000
0100
0000
0010
1000
0010
1000
,
0100
0000
0100
0000
0001
0010
0001
0000
,
1000
0000
1000
0000
0001
0100
0001
0100
,
0010
0000
0010
0000
1000
0100
1000
0000
,
0100
0000
0100
0000
1000
0010
1000
0010
,
0100
0000
0001
0000
0100
0001
0100
0000
,
0010
0000
1000
0000
0010
1000
0010
0000
,
1000
1000
0100
0100
0010
0010
0001
0001
,
1000
0001
1000
0000
0001
1000
0001
0000
0220
0000
0000
0000
0000
0000
0000
0000
,
0000
0000
0000
0000
0000
0000
0000
0000
0000
0000
0330
0000
,
0011
0000
0100
0100
,
0001
0010
0100
1000
0000
1000
0000
0001
,
1000
0100
0010
0001
0000
0010
0000
0100
,
1000
0010
0100
0001
0000
0001
0000
1000
,
0001
0100
0010
1000
0000
0100
0010
0000
,
0001
0100
1000
0100
0001
0010
0000
0001
,
0100
0001
0100
0001
0000
0010
0000
0100
,
1000
0100
0010
0001
0000
0100
0000
0010
,
1000
0010
0100
0001
0000
0101
0000
0010
,
1000
0010
1000
0100
0000
0010
0000
0001
,
0100
0001
0100
0010
0000
0100
0000
1000
,
0100
0010
0100
1000
0000
0010
0000
0001
,
0100
0000
0010
0000
0101
0000
0000
0000
1010
0000
0000
0000
0100
0010
0100
0010
,
0100
0001
0010
1000
0100
1000
0000
0001
,
1000
0010
1000
0001
0000
0100
0000
0010
,
1000
0100
1000
0010
0000
0100
0000
0001
,
1001
0000
0000
1010
0000
0000
1001
0000
,
0200
0000
0000
0000
,
0000
0000
0000
0300
,
0001
1000
0001
1000
0001
1000
0001
1000
,
0020
0000
0130
0100
,
0010
0100
0010
0100
0000
0001
0000
1000
,
0001
0100
0001
0100
0000
0001
0000
1000
,
0010
0100
0010
0100
0000
0010
0000
0100
,
0001
0010
0001
0010
0000
0001
0000
1000
,
0100
0001
0100
1000
0100
1000
0000
0001
,
0010
0100
0010
0001
0000
0001
0000
0001
,
1000
0100
1000
0010
0000
0100
0000
0001
,
0010
0100
1000
0010
0000
0001
0101
0000
,
1000
0010
1000
0001
0100
0001
0010
0001
,
1000
0010
0100
0010
1000
0001
0100
0000
,
0001
0010
0001
0010
0000
0100
0000
1000
,
0010
1000
0010
0000
0100
0000
0100
0000
,
0110
0000
0000
0000
;

//--------------- dance-single - M.P.Banana.L. ----------------
#NOTES:
     dance-single:
     M.P.Banana.L.:
     Hard:
     13:
     0,0,0,0,0:
0000
0000
0000
0000
,
0000
0000
0000
0000
,
0000
0000
0000
0000
,
0000
0000
0100
0100
,
1000
0000
0000
0010
0000
0000
1000
0000
0000
0001
0000
0000
0000
0000
0100
0001
0000
0000
0000
0000
0001
0100
0000
0000
,
0010
0001
0010
0100
0000
0010
2000
0000
,
3001
0000
0000
0010
0000
0000
0001
0000
0000
1000
0000
0000
0000
0000
0100
1000
0000
0000
0000
0000
1000
0100
0000
0000
,
0010
1000
0010
0100
0000
0010
0011
0000
,
1000
0000
0000
0100
0000
0000
1000
0000
0000
0001
0000
0000
0000
0000
0010
0001
0000
0000
0000
0000
0001
0010
0000
0000
,
0100
0001
0100
0010
0000
0100
2000
0000
,
3001
0000
0000
0100
0000
0000
0001
0000
0000
1000
0000
0000
0000
0000
0010
1000
0000
0000
0000
0000
1000
0010
0000
0000
,
0100
0000
0000
1000
0000
0000
0100
0000
0000
0010
0000
0000
0000
0000
0100
0010
0000
0000
0000
0000
0100
0001
0000
0000
,
1000
0000
0000
0000
0000
0000
1000
0000
0000
0100
0000
0000
0000
0000
0000
0001
0000
0000
0000
0000
0100
0000
0000
0000
,
1000
0000
0000
0100
0000
0000
0010
0000
0000
0001
0000
0000
0000
0000
0000
0100
0000
0000
0000
0000
1000
0000
0000
0000
,
0001
0000
0000
0100
0000
0000
0010
0000
0000
1000
0000
0000
0000
0000
0010
0100
0000
0000
0000
0000
0100
0010
0000
0000
,
0001
0000
0000
1000
0000
0000
1010
0000
0000
0000
0000
0000
0101
0000
0000
0000
0000
0000
1000
0000
0100
0010
0000
0001
,
0100
0000
0000
0100
0000
0000
0010
0000
0000
1000
0000
0000
0000
0000
0001
0100
0000
0000
0000
0000
0100
0010
0000
0000
,
1000
0000
0000
0010
0000
0000
0001
0000
0000
0010
0000
0000
0000
0000
1000
0000
0000
0000
0110
0000
0000
0000
0000
0000
,
0010
0000
0000
0010
0000
0000
0100
0000
0000
1000
0000
0000
0000
0000
0001
0010
0000
0000
0000
0000
0010
0100
0000
0000
,
1000
0000
0000
0100
0000
0000
0001
0000
0000
0100
0000
0000
0000
0000
1000
0000
0000
0000
0010
0000
0000
0000
0000
0000
,
1000
0000
0000
0000
0000
0100
0000
0000
0000
1000
0000
0000
0001
0000
0000
0001
0000
0000
0010
0000
0000
0000
0000
0000
,
1000
0000
0000
0000
0000
0010
0000
0000
0000
1000
0000
0000
0001
0000
0000
0001
0000
0000
0100
0000
0000
0000
0000
0000
,
0001
0000
0000
0000
0000
0010
0000
0000
0000
0001
0000
0000
1000
0000
0000
1000
0000
0000
0100
0000
0000
0000
0000
0000
,
0001
0000
0000
0000
0000
0100
0000
0000
0000
0001
0000
0000
1000
0000
0000
1000
0000
0000
0010
0000
0000
1000
0000
0000
,
0001
0000
0000
0000
0000
0010
0000
0000
0000
0100
0000
0000
1000
0000
0000
0100
0000
0000
0010
0000
0000
0000
0000
0000
,
0001
0000
0000
0000
0000
0100
0000
0000
0000
0010
0000
0000
1000
0000
0000
0010
0000
0000
0100
0000
0000
0000
0000
0000
,
0001
0000
0000
0000
0000
0100
0000
0000
0000
1000
0000
0000
0100
0000
0000
0001
0000
0000
0010
0000
0000
0000
0000
0000
,
1000
0000
0000
0000
0000
0100
0000
0000
0000
0001
0000
0000
0100
0000
0000
1000
0000
0000
0010
0000
0000
0100
0000
0000
,
0001
0000
0000
0000
0000
0001
0000
0000
0000
0001
0000
0000
0100
0000
0000
0010
0000
0000
0100
0000
0000
0000
0000
0000
,
1000
0000
0000
0000
0000
1000
0000
0000
0000
1000
0000
0000
0001
0000
0000
0100
0000
0000
0001
0000
0000
1000
0000
0000
,
0010
0000
0000
0000
0000
0010
0000
0000
0000
0010
0000
0000
1000
0000
0000
0001
0000
0000
1000
0000
0000
0000
0000
0000
,
0100
0000
0000
0000
0000
0100
0000
0000
0000
0100
0000
0000
0001
0000
0000
0010
0000
0000
0100
0000
0000
1000
0000
0000
,
0001
0000
0000
0000
0000
0001
0000
0000
0000
1000
0000
0000
0001
0000
0000
0001
0000
0000
1000
0000
0000
0000
0000
0000
,
0100
0000
0000
0000
0000
0100
0000
0000
0000
0001
0000
0000
0001
0000
0000
0001
0000
0000
0100
0000
0000
0001
0000
0000
,
1000
0000
0000
0000
0000
1000
0000
0000
0000
0010
0000
0000
1000
0000
0000
1000
0000
0000
0010
0000
0000
0000
0000
0000
,
0001
0000
0000
0000
0000
0001
0000
0000
0000
0001
0000
0000
0010
0000
0000
1000
0000
0000
0100
0000
0000
0001
0000
0000
,
0010
0100
0010
0100
1000
0001
1000
0001
,
1000
0000
0000
0000
0000
0000
0100
0000
0000
0000
0000
0000
0010
0000
0000
0000
0000
0000
0001
0000
0000
0000
0000
0000
1000
0000
0000
0000
0000
0000
0010
0000
0000
0000
0000
0000
0100
0000
0000
0000
0000
0000
0001
0000
0000
0000
0000
0000
1000
0000
0000
0000
0000
0000
0000
0000
0100
0000
0000
0000
0000
0000
0000
0000
0001
0000
0000
0000
0000
0000
0000
0000
0000
0000
0000
0100
0000
0000
0000
0000
0000
0000
0000
0000
1000
0000
0000
0000
0000
0000
0000
0000
0000
0100
0000
0000
,
0000
0000
0010
0000
0000
0001
0000
0000
1000
0000
0000
0000
1001
0000
0000
0000
0000
1100
0000
0000
0000
0000
0011
0000
0000
0000
0000
1010
0000
0000
0000
0000
,
1001
0000
0100
0100
,
0001
0000
0000
0100
0000
0000
0001
0000
0000
1000
0000
0000
0000
0000
0100
1000
0000
0000
0000
0000
1000
0100
0000
0000
,
0010
0001
0100
0010
0000
0100
0002
0000
,
1003
0000
0000
0100
0000
0000
1000
0000
0000
0001
0000
0000
0000
0000
0100
0001
0000
0000
0000
0000
0001
0100
0000
0000
,
0010
1000
0100
0010
0000
0100
1100
0000
,
0001
0000
0000
0100
0000
0000
1000
0000
0000
0001
0000
0000
0010
0000
0000
1000
0000
0000
0000
0000
1000
0100
0000
0000
,
1000
0100
0010
0100
0000
0010
0002
0000
,
1003
0000
0000
0100
0000
0000
1000
0000
0000
0010
0000
0000
0000
0000
1000
0001
0000
0000
0000
0000
0001
1000
0000
0000
,
0010
0000
0000
0001
0000
0000
0010
0000
0000
0200
0000
0000
0000
0000
0000
0300
0000
0000
0000
0000
0010
1000
0000
0000
,
0100
0000
0000
0100
0000
0000
0100
0000
0000
0010
0000
0000
0000
0000
1000
0100
0000
0000
0000
0000
1000
0001
0000
1000
,
0001
0001
0001
0010
0000
0200
0000
1300
,
0010
0000
0000
0010
0000
0000
0010
0000
0000
0100
0000
0000
0000
0000
1000
0010
0000
0000
0000
0000
1000
0100
0000
1000
,
0100
0000
0000
0100
0000
0000
1001
0000
0000
0000
0000
0000
1100
0000
0000
0000
0000
0000
0100
0000
0001
0100
0000
0010
,
1000
0100
0001
1000
0010
0001
0000
1000
,
0100
0000
0000
1000
0000
0000
0010
0000
0000
0100
0000
0000
0000
0000
0001
0010
0000
0000
0000
0000
0010
0001
0000
0000
,
0100
0000
0000
0010
0000
0000
0100
0000
0000
0001
0000
0000
0000
0000
1000
0010
0000
0000
1000
0000
0000
0100
0000
0000
,
0011
0000
0000
1100
0000
0000
0011
0000
,
1000
0100
1000
0100
1000
0100
1000
0100
,
0001
0100
0001
0100
0001
0100
0001
0000
,
1000
0010
1000
0010
1000
0010
1000
0010
,
0001
0010
0001
0010
0100
0010
0100
0000
0000
0100
0000
0000
,
1000
0000
0000
0100
0000
0000
0010
0000
0000
0001
0000
0000
0000
0000
1000
0010
0000
0000
0000
0000
1000
0010
0000
0000
,
0001
0010
0100
0010
0000
0001
2000
0000
,
3001
0000
0000
0010
0000
0000
0100
0000
0000
1000
0000
0000
0000
0000
0010
0100
0000
0000
0000
0000
0010
0100
0000
0000
,
1000
0000
0000
0100
0000
0000
0010
0000
0000
0100
0000
0000
0000
0000
0000
0100
0000
0000
0000
0000
1000
0000
0000
0000
,
1000
0000
0000
0100
0000
0000
0001
0000
0000
0100
0000
0000
1000
0000
0000
0010
0000
0000
0000
0000
0100
0010
0000
0000
,
0100
0000
0000
0001
0000
0000
0100
0000
0000
1000
0000
0000
0000
0000
0000
1000
0000
0000
0000
0000
0010
0000
0000
0000
,
1000
0000
0000
0100
0000
0000
1000
0000
0000
0001
0000
0000
0000
0000
0100
0010
0000
0000
0000
0000
0100
0010
0000
0000
,
1000
0001
0100
0001
0000
0010
1010
0000
,
0100
1000
0010
0001
0100
0010
1100
0000
,
0001
0000
0010
0000
1000
0000
0010
0000
0100
0000
0001
0010
0002
0000
0000
0000
,
1003
0000
0000
0100
0000
0000
1000
0000
0000
0100
0000
0000
0000
0000
0010
0001
0000
0000
0000
0000
0001
0100
0000
0000
,
0010
1000
0100
0010
0100
0000
0100
0000
,
1010
0000
0000
0000
;
