#TITLE:Unshakable;
#SUBTITLE:;
#ARTIST:RiraN;
#TITLETRANSLIT:;
#SUBTITLETRANSLIT:;
#ARTISTTRANSLIT:;
#GENRE:;
#CREDIT:M.P.B.L.;
#MUSIC:Unshakable.ogg;
#BANNER:Unshakable.png;
#BACKGROUND:Unshakable-bg.png;
#CDTITLE:cdtitle.png;
#SAMPLESTART:86.703;
#SAMPLELENGTH:12.800;
#SELECTABLE:YES;
#OFFSET:1.297;
#BPMS:0.000=150.000;
#STOPS:;
#BGCHANGES:3.450=Unshakable.avi=1.000=1=0=0=StretchNoLoop==CrossFade==,
99999.000=-nosongbg-=1.000=0=0=0=StretchNoLoop====
;
#FGCHANGES:;

//--------------- dance-single - M.P.B.L. ----------------
#NOTES:
     dance-single:
     M.P.B.L.:
     Beginner:
     3:
     0,0,0,0,0:
0000
0000
0000
0000
,
0000
0000
0000
0000
,
0000
0000
0000
0000
,
0000
0000
0000
0000
,
0000
0000
0000
0000
,
0000
0000
0000
0000
,
0000
0000
0000
0000
,
0000
0000
0000
0000
,
0000
0000
0000
0000
,
0000
0000
0000
0000
,
0000
0000
0000
0000
,
0010
0000
0000
0000
,
0010
0000
0000
0000
,
0100
0000
0000
0000
,
0100
0000
0000
0000
,
0010
0000
0000
0000
,
0010
0000
0000
0000
,
0100
0000
0000
0000
,
0100
0000
0100
0000
,
0100
0000
0000
0000
,
0001
0000
0000
0000
,
1000
0000
0000
0000
,
0010
0000
0000
0000
,
1000
0000
0000
0000
,
0100
0000
0000
0000
,
0010
0000
0000
0000
,
0001
0000
0000
0000
,
1000
0000
0100
0000
,
1000
0000
0000
0000
,
0001
0000
0100
0000
,
0001
0000
0000
0000
,
1000
0000
0100
0000
,
0010
0000
0001
0000
,
1000
0000
0010
0000
,
0110
0000
0000
0000
,
1000
0000
0001
0000
,
1000
0000
0000
0000
,
0010
0000
0100
0000
,
0010
0000
0000
0000
,
1000
0000
0010
0000
,
1000
0000
0000
0000
,
0001
0000
0100
0000
,
0001
0000
0000
0000
,
0100
0000
0010
0000
,
0001
0000
0000
0000
,
1000
0000
0100
0000
,
0010
0000
0000
0000
,
0001
0000
0010
0000
,
0100
0000
0000
0000
,
1000
0000
0001
0000
,
1000
0000
0000
0000
,
0001
0000
0010
0000
,
0001
0000
0010
0000
,
0100
0000
1000
0000
,
0100
0000
1000
0000
,
0010
0000
0100
0000
,
0010
0000
0100
0000
,
0001
0000
1000
0000
,
0001
0000
0000
0000
,
0000
1000
1000
0000
,
0010
0000
0010
0000
,
1000
0000
1000
0000
,
0010
0000
0010
0000
,
0100
0000
0001
0000
,
0100
0000
0001
0000
,
0010
0000
0001
0000
,
1000
0000
0000
0000
,
1001
0000
0000
0000
;

//--------------- dance-single - M.P.B.L. ----------------
#NOTES:
     dance-single:
     M.P.B.L.:
     Easy:
     5:
     0,0,0,0,0:
0000
0000
0000
0000
,
0000
0000
0000
0000
,
0000
0000
0000
0000
,
0000
0000
0000
0000
,
0000
0000
0000
0000
,
0000
0000
0000
0000
,
0000
0000
0000
0000
,
0000
0000
0000
0000
,
0000
0000
0000
0000
,
0000
0000
0000
0000
,
0000
0000
0000
0000
,
1000
0000
1000
0000
,
0001
1000
0001
0000
,
0001
0000
0001
0000
,
0100
0001
0100
0000
,
0010
0000
0010
0000
,
0010
0100
0010
0000
,
0100
0000
0100
0000
,
0010
1000
0001
0100
,
0010
0000
0010
0000
,
0100
0000
0100
0000
,
0001
0000
0001
0000
,
1000
0000
1000
0000
,
0001
0010
0100
0000
,
1000
0100
0010
0000
,
1000
0001
1000
0000
,
0001
1000
0001
0000
,
0100
0000
0100
0000
,
0010
0000
0010
0000
,
0100
0000
0100
0000
,
0010
0000
0010
0000
,
1000
0001
1000
0001
,
1000
0001
1000
0001
,
0100
0010
0100
0010
0100
0010
0100
0000
,
0110
0000
0000
0000
,
1000
0010
1000
0001
,
1000
0010
1000
0000
,
0001
0100
0001
0010
,
0001
0100
0001
0000
,
0100
0010
0100
0001
,
0100
0010
0100
0000
,
0001
1000
0001
0010
,
0001
0000
0000
0000
,
1000
0100
1000
0010
,
1000
0001
1000
0000
,
0001
0010
0001
0100
,
0001
1000
0001
0000
,
0100
0010
0100
1000
,
0100
0010
0100
0000
,
0001
0010
0100
0010
,
0001
0000
0000
0000
,
1000
0000
0100
0000
,
0010
0100
1000
0000
,
0001
0000
0010
0000
,
0100
0010
0001
0000
,
1000
0000
0100
0000
,
0001
0100
0001
0000
,
0001
0000
0010
0000
,
1000
0010
1000
0000
,
0000
0010
0100
0010
,
0100
0010
0100
0000
,
0001
1000
0001
1000
,
0010
0100
0010
0000
,
1000
0100
0010
0000
,
0001
0010
0100
0000
,
1000
0010
0100
0000
,
0001
0100
0010
0000
,
1001
0000
0000
0000
;

//--------------- dance-single - M.P.B.L. ----------------
#NOTES:
     dance-single:
     M.P.B.L.:
     Medium:
     9:
     0,0,0,0,0:
0000
0000
0000
0000
,
0000
0000
0000
0000
,
0000
0000
0000
0000
,
0000
0000
0000
0000
,
0000
0000
0000
0000
,
0000
0000
0000
0000
,
0000
0000
0000
0000
,
0000
0000
0000
0000
,
0000
0000
0000
0000
,
0000
0000
0000
0000
,
0000
0000
0000
0000
,
1000
1000
1000
0000
,
0001
0100
0001
0100
0010
0000
0000
0000
,
0100
0100
0100
0000
,
0010
0100
0010
1000
0001
0000
0000
0000
,
0001
0001
0001
0000
,
1000
0100
1000
0100
0010
0000
0000
0000
,
0010
0010
0010
0000
,
0010
0001
0010
0001
0000
0001
0000
0001
,
1000
0000
0000
0010
0000
0000
1000
0000
0000
0010
0000
0000
1000
0000
0000
0000
,
0001
0000
0000
0010
0000
0000
0001
0000
0000
0010
0000
0000
0001
0000
0000
0000
,
1000
0000
0000
0100
0000
0000
1000
0000
0000
0100
0000
0000
1000
0000
0000
0000
,
0001
0000
0000
0100
0000
0000
0001
0000
0000
0100
0000
0000
0001
0000
0000
0000
,
0100
0000
0000
0010
0000
0000
0100
0000
0000
0010
0000
0000
0100
0000
0000
0000
,
1000
0000
0000
0010
0000
0000
1000
0000
0000
0010
0000
0000
1000
0000
0000
0000
,
0001
0000
0000
0010
0000
0000
0001
0000
0000
0010
0000
0000
0001
0000
0000
0000
,
1000
0000
0000
0001
0000
0000
1000
0000
0000
0001
0000
0000
1000
0000
0000
0000
,
0001
0000
0001
0000
0001
0000
0001
0010
,
0100
0000
0100
0000
0100
0000
0100
1000
,
0001
0000
0001
0000
0001
0000
0001
0010
,
0100
0100
0100
0100
,
1000
0010
1000
0000
0001
0100
0001
0000
,
0100
0010
0100
0000
0010
1000
0010
0000
,
1000
0100
0010
0000
0010
0100
1000
0000
,
0010
0000
0000
0000
,
1000
0010
1000
0000
1000
0010
1000
0000
,
0001
0010
0100
0010
0001
0010
0100
0000
,
0001
0010
0001
0000
0001
0010
0001
0000
,
1000
0010
0100
0010
1000
0010
0100
0000
,
0001
1000
0001
0000
0001
1000
0001
0000
,
1000
0001
0100
0001
1000
0001
0100
0000
,
0010
0100
0010
0000
0010
0100
0010
0000
,
2002
0000
0000
3003
,
1000
0010
1000
0010
1000
0001
1000
0000
,
0001
0010
0001
0010
0001
1000
0001
0000
,
0100
0010
0100
0010
0100
0001
0100
0000
,
0010
0100
0010
0100
0010
1000
0010
0000
,
1000
0001
1000
0010
1000
0001
1000
0000
,
0001
0100
0001
0010
0001
0100
0001
0000
,
1000
0100
0010
0001
,
0220
0000
0000
0330
,
1000
0010
0100
0000
0001
0010
0100
0000
,
1000
0001
1000
0001
1000
0010
0100
0000
,
0001
0100
0010
0000
1000
0100
0010
0000
,
0001
0100
0001
0100
0001
1000
0010
0000
,
1000
0100
0010
0000
0001
0100
0010
0000
,
1000
0001
1000
0001
1000
0100
0010
0000
,
0001
0010
0100
0000
1000
0010
0100
0000
,
0022
0000
0000
0033
,
0010
0000
0010
1000
0010
0000
0010
0100
,
0010
1000
0100
0010
,
0001
0000
1000
0100
1000
0000
1000
0100
,
1000
0001
0010
0100
,
1000
0001
1000
0000
0001
0100
0001
0000
,
1000
0010
1000
0000
0010
0100
0010
0000
,
1000
0100
0010
0001
1000
0010
0100
0001
,
1000
0000
1000
0000
0001
1000
0010
0000
,
0101
0000
0000
0000
;

//--------------- dance-single - M.P.B.L. ----------------
#NOTES:
     dance-single:
     M.P.B.L.:
     Hard:
     12:
     0,0,0,0,0:
0000
0000
0000
0000
,
0000
0000
0000
0000
,
0000
0000
0000
0000
,
0000
0000
0000
0000
,
0000
0000
0000
0000
,
0000
0000
0000
0000
,
0000
0000
0000
0000
,
0000
0000
0000
0000
,
0000
0000
0000
0000
,
0000
0000
0000
0000
,
0000
0000
0000
0000
,
0100
0000
0100
0000
0100
0000
1000
0100
,
0010
0000
0100
0000
1000
0000
0100
0001
0000
0000
0000
0000
0000
0000
0000
0000
,
0010
0000
0010
0000
0010
0000
0010
1000
,
0001
0000
0100
0000
0010
0000
1000
0001
0000
0000
0000
0000
0000
0000
0000
0000
,
1000
0000
0010
0000
1000
0000
0010
1000
,
0010
0000
0100
0000
0001
0000
0010
1000
0000
0000
0000
0000
0000
0000
0000
0000
,
0001
0000
0100
0000
0001
0000
0100
0010
,
1000
0100
0010
0001
0000
0001
0000
0001
,
1000
0000
0000
0100
0000
0000
1000
0000
0000
0010
0000
0000
0100
0000
0001
0000
,
0010
0000
0000
0001
0000
0000
0100
0000
0000
0001
0000
0000
0010
0000
0000
0000
,
0100
0000
0000
1000
0000
0000
0010
0000
0000
0001
0000
0000
0010
0000
1000
0000
,
0010
0000
0000
0100
0000
0000
0010
0000
0000
1000
0000
0000
0001
0000
0100
0000
,
0001
0000
0000
0100
0000
0000
0001
0000
0000
0010
0000
0000
0100
0000
1000
0000
,
0010
0000
0000
1000
0000
0000
0100
0000
0000
1000
0000
0000
0010
0000
0000
0000
,
0100
0000
0000
0001
0000
0000
0010
0000
0000
1000
0000
0000
0010
0000
0001
0000
,
0010
0000
0000
0100
0000
0000
0010
0000
0000
0001
0000
0000
1000
0000
0100
0000
,
0010
0000
1000
0000
0010
0000
1000
0100
,
0001
0000
1000
0000
0100
0000
1000
0010
,
0001
0000
1000
0000
0100
0000
0001
0100
,
1000
0000
0001
0000
0100
0000
0001
0010
,
1000
0010
1000
0010
1000
0100
1000
0100
,
0010
0001
0010
0001
1000
0010
1000
0010
,
1000
0100
0010
0001
1000
0000
0001
0000
1000
0001
0100
0010
1000
0000
0010
0000
,
0100
0000
0000
1001
,
1000
0000
0010
0100
0000
0000
0100
0000
0001
0000
0100
0000
1000
0000
0100
0000
,
0010
0000
0001
0010
0000
0000
1000
0000
1000
0000
0010
0000
0100
0000
0000
0000
,
0001
0000
0100
0010
0000
0000
0010
0000
1000
0000
0010
0000
0001
0000
0010
0000
,
0100
0000
0010
1000
0000
0000
0100
0000
0100
0000
0010
0000
0010
0000
0000
0000
,
0001
0000
0010
0100
0000
0000
0100
0000
1000
0000
0100
0000
0001
0000
0100
0000
,
0010
0000
1000
0010
0000
0000
0001
0000
0001
0000
0010
0000
0100
0000
0000
0000
,
1000
0000
0100
0010
0000
0000
0010
0000
0001
0000
0010
0000
1000
0000
0010
0000
,
0000
0000
0001
0001
0000
0100
0000
0010
,
1000
0000
0001
0010
0000
0000
0010
0000
0001
0000
0010
0000
0001
0000
0100
0000
,
0010
0000
1000
0100
0000
0000
0010
0000
0010
0000
1000
0000
0100
0000
0000
0000
,
0010
0000
1000
0001
0000
0000
0001
0000
0100
0000
0001
0000
0100
0000
0010
0000
,
1000
0000
0001
0010
0000
0000
0100
0000
0100
0000
0010
0000
0110
0000
0000
0000
,
0001
0000
1000
0010
0000
0000
0010
0000
1000
0000
0010
0000
1000
0000
0100
0000
,
0010
0000
0001
0100
0000
0000
0010
0000
0010
0000
0001
0000
0100
0000
0000
0000
,
0010
0000
0001
1000
0000
0000
1000
0000
0100
0000
1000
0000
0100
0000
0010
0000
,
0000
0000
0001
0001
0000
1000
0000
0010
,
0100
0000
0000
0001
0000
0000
1000
0000
0000
0100
0000
0000
0001
0000
0100
0000
,
0010
0000
0000
0100
0000
0000
1000
0000
0000
0010
0000
0000
0110
0000
0000
0000
,
1000
0000
0000
0001
0000
0000
0010
0000
0000
1000
0000
0000
0010
0000
1000
0000
,
0001
0000
0000
0010
0000
0000
0100
0000
0000
0001
0000
0000
1001
0000
0000
0000
,
0100
0000
0000
1000
0000
0000
0001
0000
0000
0100
0000
0000
1000
0000
0100
0000
,
0010
0000
0000
1000
0000
0000
0100
0000
0000
0010
0000
0000
0011
0000
0000
0000
,
0001
0000
0000
1000
0000
0000
0010
0000
0000
0001
0000
0000
0010
0000
0001
0000
,
1000
0000
0000
0000
0001
0000
0000
0000
0100
0010
0100
0010
0100
0000
0000
0000
,
0000
0000
0100
0100
0101
0000
1000
0100
,
0001
0000
0000
0001
0000
0000
0100
0000
0000
0100
0000
0000
1010
0000
0000
0000
,
0100
0000
0000
0010
0000
0000
0001
0000
0000
0010
0000
0000
0001
0000
0100
0000
,
1000
0000
0000
1000
0000
0000
0100
0000
0000
0100
0000
0000
0011
0000
0000
0000
,
1000
0000
0000
0010
0000
0000
1000
0000
0000
0001
0000
0000
0100
0000
0010
0000
,
0001
0000
0000
0010
0000
0000
0100
0000
0000
1000
0000
0000
0011
0000
0000
0000
,
1000
0000
0000
0100
0000
0000
0010
0000
0000
0001
0000
0000
0100
0000
0010
0000
,
0001
0000
0000
0000
1000
0000
0000
0000
0010
0100
0010
0100
0010
0000
0000
0000
,
1001
0000
0000
0000
;

//--------------- dance-single - M.P.B.L. ----------------
#NOTES:
     dance-single:
     M.P.B.L.:
     Challenge:
     14:
     0,0,0,0,0:
0000
0000
0000
0000
,
0000
0000
0000
0000
,
0000
0000
0000
0000
,
0000
0000
0000
0000
,
0000
0000
0000
0000
,
0000
0000
0000
0000
,
0000
0000
0000
0000
,
0000
0000
0000
0000
,
0000
0000
0000
0000
,
0000
0000
0000
0000
,
0000
0000
0000
0000
,
1000
0000
0010
0000
1000
0000
0010
1000
0000
0010
0000
0000
1000
0000
0100
0000
,
0001
0000
0100
0000
1000
0000
0010
0100
0000
0000
0000
0000
0000
0000
0000
0000
,
0001
0000
0010
0000
0001
0000
0010
0001
0000
0010
0000
0000
1000
0000
0010
0000
,
1000
0000
0100
0000
1000
0000
0010
0001
0000
0000
0000
0000
0000
0000
0000
0000
,
0100
0000
0010
0000
0100
0000
0010
0001
0000
1000
0000
0000
0001
0000
0100
0000
,
1000
0000
0100
0000
0001
0000
0010
1000
0000
0000
0000
0000
0000
0000
0000
0000
,
0001
0000
1000
0000
0001
0000
1000
0100
0000
0010
0000
0100
1000
0000
0001
0000
,
1000
0100
0010
0011
0000
0110
0000
1100
,
1000
0000
0010
1000
0000
0001
0100
0000
0010
1000
0000
0001
0100
0000
0010
0000
,
0001
0000
1000
0100
0000
0010
0001
0000
1000
0100
0000
1000
0010
0000
0000
0000
,
0100
0000
0010
0100
0000
0001
1000
0000
0010
0100
0000
0001
1000
0000
0100
0000
,
1000
0000
0001
0010
0000
0100
1000
0000
0001
0010
0000
0000
0001
0000
0001
0000
,
1000
0000
0100
1000
0000
0001
0010
0000
0100
1000
0000
0001
0010
0000
0100
0000
,
0001
0000
1000
0010
0000
0100
0001
0000
1000
0010
0000
1000
0100
0000
0000
0000
,
0010
0000
0100
0010
0000
0001
1000
0000
0100
0010
0000
0001
1000
0000
0010
0000
,
1000
0000
0001
0100
0000
0010
1000
0000
0001
0100
0000
0000
0001
0000
0001
0000
,
1000
0000
0000
0100
0000
0000
0001
0000
0000
0100
0000
0000
1000
0000
0010
0000
,
1000
0000
0000
0010
0000
0000
0001
0000
0000
0010
0000
0000
1000
0000
0100
0000
,
0001
0000
0000
0100
0000
0000
1000
0000
0000
0100
0000
0000
0001
0000
0010
0000
,
0001
0000
0000
0010
0000
0000
1000
0000
0000
0010
0000
0000
0001
0000
0010
0000
,
0001
0010
0100
1000
0001
0010
0100
1000
,
0001
1000
0010
0100
0001
1000
0010
0100
,
1000
0100
0010
0001
1000
0100
0001
0100
1000
0010
0100
0001
0010
0100
0010
0001
,
0100
0010
0000
0010
0000
0100
0010
0000
1000
0000
0100
0000
1001
0000
0000
0000
,
1000
0000
0010
0100
0000
0000
0001
0000
0010
0000
1000
0000
0010
0000
0001
0000
,
0100
0000
1000
0010
0000
0000
1000
0000
0100
0000
0001
0000
0010
0000
0000
0000
,
1000
0000
0100
0010
0000
0000
0001
0000
0100
0000
1000
0000
0100
0000
0001
0000
,
0010
0000
1000
0010
0000
0000
0100
0000
1000
0000
0100
0000
0101
0000
0000
0000
,
0001
0000
0010
0100
0000
0000
1000
0000
0010
0000
0001
0000
0010
0000
1000
0000
,
0100
0000
0001
0010
0000
0000
0001
0000
0100
0000
1000
0000
0010
0000
0000
0000
,
0001
0000
0100
0010
0000
0000
1000
0000
0100
0000
0001
0000
0100
0000
0010
0000
,
1000
0000
0000
0001
0100
0000
0010
0000
1000
0010
1000
0000
0110
0000
0000
0000
,
0102
0013
2100
3010
,
1002
0013
2001
3100
,
0120
0031
0210
1300
,
1001
0000
0110
0000
0010
0100
1010
0000
,
1100
0000
0000
0100
0010
0000
0001
0000
0010
0000
0100
0000
1010
0000
0000
0000
,
0011
0000
0000
0001
0100
0000
0001
0000
0001
0000
1000
0000
0110
0000
0000
0000
,
1001
0000
0000
0100
0001
0000
0000
0000
1010
0000
0000
0010
0100
0000
0000
0000
,
0001
0000
0000
0100
0010
0000
0100
0000
0001
1000
0001
0000
0100
0000
0000
0000
,
0011
0000
0000
0110
0000
0000
1100
0000
0000
1010
0000
0000
1000
0000
0100
0000
,
0001
0000
0000
1000
0000
0000
0010
0000
0000
0100
0000
0000
0011
0000
0000
0000
,
1100
0000
0000
0011
0000
0000
0101
0000
0000
1010
0000
0000
1000
0000
0001
0000
,
0010
0000
0000
0100
0000
0000
1000
0000
0000
0010
0000
0000
2001
0000
3000
0000
,
0101
0000
0000
0110
0000
0000
1010
0000
0000
1100
0000
0000
1000
0000
0010
0000
,
0001
0000
0000
1000
0000
0000
0100
0000
0000
0010
0000
0000
1001
0000
0000
0000
,
1010
0000
0000
0101
0000
0000
0011
0000
0000
1100
0000
0000
1000
0000
0001
0000
,
0100
0000
0000
0000
0100
0000
0000
0000
0100
0010
0001
1000
0100
0000
0000
0000
,
0010
0000
1001
0110
1001
0000
0010
0100
,
1000
0000
0000
0010
0000
0000
0001
0000
0000
0100
0000
0000
1010
0000
0000
0000
,
0101
0000
0000
0011
0000
0000
0110
0000
0000
0011
0000
0000
1000
0000
0100
0000
,
0001
0000
0000
0100
0000
0000
1000
0000
0000
0001
0000
0000
0120
0000
0030
0000
,
1100
0000
0000
0110
0000
0000
0011
0000
0000
0110
0000
0000
0100
0000
1000
0000
,
0010
0000
0000
1000
0000
0000
0001
0000
0000
0010
0000
0000
0101
0000
0000
0000
,
0011
0000
0000
0101
0000
0000
0110
0000
0000
0101
0000
0000
1000
0000
0010
0000
,
1000
0000
0000
0000
1000
0000
0000
0000
1000
0010
0100
0001
0010
0000
0000
0000
,
0110
0000
0000
0000
;
