#TITLE:龍と少女とデコヒーレンス;
#SUBTITLE:;
#ARTIST:黒猫ダンジョン;
#TITLETRANSLIT:The dragon, the girl, and decoherence;
#SUBTITLETRANSLIT:;
#ARTISTTRANSLIT:Kuroneko Dungeon;
#GENRE:;
#CREDIT:M.P.B.L.;
#MUSIC:Ryuu to shoujo to decoherence.ogg;
#BANNER:Ryuu to shoujo to decoherence.png;
#BACKGROUND:Ryuu to shoujo to decoherence-bg.png;
#CDTITLE:cdtitle.png;
#SAMPLESTART:93.415;
#SAMPLELENGTH:11.636;
#SELECTABLE:YES;
#OFFSET:1.132;
#BPMS:0.000=165.000;
#STOPS:;
#BGCHANGES:0.325=Ryuu to shoujo to decoherence.avi=1.000=1=0=0=StretchNoLoop==CrossFade==,
99999.000=-nosongbg-=1.000=0=0=0=StretchNoLoop====
;
#FGCHANGES:;

//--------------- dance-single - M.P.B.L.(黒) ----------------
#NOTES:
     dance-single:
     M.P.B.L.(黒):
     Beginner:
     4:
     0,0,0,0,0:
0000
0000
0000
0000
,
0000
0000
0000
0000
,
0000
0000
0000
0000
,
0000
0000
0000
0000
,
0000
0000
0000
0000
,
0010
0000
0000
0001
,
0100
0000
0000
1000
,
0001
0000
0000
0010
,
1000
0000
0000
0100
,
0001
0000
0000
0000
,
0000
0000
0000
0000
,
0000
0000
0000
0000
,
0000
0000
0000
0000
,
1001
0000
0000
0000
,
0110
0000
0000
0000
,
1001
0000
1001
0000
,
0110
0000
0110
0000
,
1000
0000
0010
0000
,
1000
0000
0010
0000
,
0100
0000
0001
0000
,
0100
0000
0001
0000
,
1000
0000
0100
0000
,
1000
0000
0100
0000
,
0010
0000
0001
0000
,
0010
0000
0001
0000
,
1000
0000
0100
0000
,
0010
0000
0001
0000
,
1000
0000
0010
0000
,
0100
0000
0001
0000
,
1000
0000
0100
0000
,
0001
0000
0010
0000
,
0100
0000
1000
0000
,
0010
0000
0001
0000
,
1000
0000
0000
0000
,
0000
0000
0000
0000
,
1000
0000
0000
0000
,
0000
0000
0000
0000
,
0001
0000
0000
0000
,
0000
0000
0000
0000
,
0001
0000
0000
0000
,
0000
0000
0000
0000
,
0100
0010
0000
0010
,
0100
0010
0000
0010
,
0100
0010
0000
0010
,
0100
0010
0000
0001
,
1000
0001
0000
0001
,
1000
0001
0000
0001
,
1000
0001
0000
0001
,
1000
0001
0000
0000
,
1001
0000
0000
0000
,
0000
0000
0000
0000
,
0000
0000
0000
0000
,
0000
0000
0000
0000
,
0000
0000
0000
0000
,
0000
0000
0000
0000
,
0000
0000
0000
0000
,
0000
0000
0000
0000
,
2000
0000
0000
0000
,
0000
0000
3000
0000
,
0200
0000
0000
0000
,
0000
0000
0300
0000
,
0002
0000
0000
0000
,
0000
0000
0003
0000
,
1000
0000
1000
0000
,
0001
0000
0001
0000
,
1000
0000
0010
0000
,
1000
0000
0000
0000
,
0001
0000
0100
0000
,
0001
0000
0000
0000
,
0100
0000
0010
0000
,
0100
0000
0000
0000
,
0001
0000
1000
0000
,
0010
0000
0100
0000
,
0001
0000
1000
0000
,
0010
0000
0000
0000
,
1000
0000
0001
0000
,
0100
0000
0000
0000
,
0001
0000
0010
0000
,
0100
0000
0000
0000
,
1000
0000
0100
0000
,
0010
0100
0010
0100
,
1000
0000
0000
0000
;

//--------------- dance-single - M.P.B.L.(黒) ----------------
#NOTES:
     dance-single:
     M.P.B.L.(黒):
     Easy:
     8:
     0,0,0,0,0:
0000
0000
0000
0000
,
0000
0000
0000
0000
,
0000
0000
0000
0000
,
0000
0000
0000
0000
,
0000
0000
0000
0000
,
0100
0001
0000
0001
,
1000
0010
0000
0010
,
0100
1000
0000
1000
,
0010
0100
0000
0100
,
0001
0000
0000
0000
,
0000
0000
0000
0000
,
0000
0000
0000
0000
,
0000
0000
0000
0000
,
1100
0000
0000
0000
,
0011
0000
0000
0000
,
1010
0000
0101
0000
,
1001
0110
1001
0000
,
1000
0000
0010
0000
0100
0001
0100
0000
,
0001
0000
0010
0000
0100
1000
0100
0000
,
1000
0000
0001
0000
0100
0010
0100
0000
,
0001
0000
0100
0000
0010
1000
0010
0000
,
1000
0000
0100
0000
0010
0001
0010
0000
,
0001
0000
0100
0000
0010
1000
0010
0000
,
1000
0000
0001
0000
0010
0100
0010
0000
,
0001
0000
0010
0000
0100
1000
0100
0000
,
1000
0000
0001
0010
0001
0000
0100
0000
,
0010
0000
1000
0100
1000
0000
0001
0000
,
1000
0000
0010
0100
0010
0000
1000
0000
,
0010
0000
0100
0001
0100
0000
0010
0000
,
1000
0000
0001
0100
0001
0000
0010
0000
,
0100
0000
1000
0010
1000
0000
0001
0000
,
1000
1000
0010
0010
,
0100
0100
0001
0001
,
0200
0000
0000
0000
,
0000
0000
0000
0300
,
0020
0000
0000
0000
,
0000
0000
0000
0030
,
2000
0000
0000
0000
,
0000
0000
0000
3000
,
0002
0000
0000
0000
,
0000
0000
0000
0003
,
2000
0000
0000
0000
,
0000
0000
0000
3000
,
0200
0000
0000
0000
,
0000
0000
0000
0300
,
0020
0000
0000
0000
,
0000
0000
0000
0030
,
0002
0000
0000
0000
,
0000
0000
0000
0003
,
1001
0000
0000
0000
,
0000
0000
0000
0000
,
0100
0000
0000
0000
,
0000
0000
0000
0000
,
0010
0000
0000
0000
,
0000
0000
0000
0000
,
0100
0000
0000
0000
,
0000
0000
0000
0000
,
2001
0000
0000
0000
,
3002
0000
0000
0003
,
0120
0000
0000
0000
,
0230
0000
0000
0300
,
0012
0000
0000
0000
,
2003
0000
0000
3000
,
1000
1000
0100
0100
,
0010
0010
0001
0001
,
1000
0000
0100
0000
0010
0001
0010
0001
,
0010
0000
0000
0100
,
0001
0000
0010
0000
0100
1000
0100
1000
,
0100
0000
0000
0010
,
0100
0000
0001
0000
1000
0010
1000
0010
,
1000
0000
0000
1000
,
0001
0000
1000
0000
0001
0100
0001
0100
,
0001
0000
0100
0000
0010
0100
0010
0100
,
0010
0000
1000
0000
0001
1000
0001
1000
,
0001
0001
0010
0010
,
0100
0000
1000
0000
0001
0010
0001
0010
,
0001
0001
1000
1000
,
0010
0000
0100
0000
0010
1000
0010
1000
,
0010
0010
1000
1000
,
0100
0010
0100
0010
,
1000
0001
1000
0001
,
0200
0000
0000
0000
,
0000
0000
0000
0000
,
0300
0000
0000
0000
;

//--------------- dance-single - M.P.B.L.(黒) ----------------
#NOTES:
     dance-single:
     M.P.B.L.(黒):
     Medium:
     12:
     0,0,0,0,0:
0000
0000
0000
0000
,
0000
0000
0000
0000
,
0000
0000
0000
0000
,
0000
0000
0000
0000
,
0000
0000
0000
0000
,
1000
0010
0100
0000
0001
0010
0100
0000
,
0001
0100
0010
0000
1000
0100
0010
0000
,
1000
0001
0100
0000
0001
1000
0010
0000
,
1000
0100
0010
0001
0100
0010
1000
0000
,
0011
0100
0000
0100
,
0000
0100
0000
0100
,
0000
0010
0000
0010
,
0000
0010
0000
0010
,
1100
0000
0000
0010
,
0101
0000
0000
1000
,
0011
0100
1010
0001
,
1000
0000
0010
0000
1000
0000
0010
0000
0100
0010
0100
0010
0100
0000
0000
0000
,
0001
0000
0100
0000
0010
0100
1000
0100
,
0010
0000
1000
0000
0001
0010
0100
0010
,
0001
0000
0100
0000
0010
1000
0001
1000
,
0010
0000
1000
0000
0001
0100
0010
0100
,
0001
0000
0010
0000
1000
0100
0001
0100
,
0010
0000
1000
0000
0001
0100
1000
0100
,
0010
0000
1000
0000
0001
0010
1000
0010
,
0100
0000
0001
0000
1000
0010
0001
0010
,
0100
0010
1000
0000
0001
0100
0010
0000
,
1000
0100
0010
0000
0001
0010
0100
0000
,
1000
0100
0001
0000
1000
0010
0001
0000
,
1000
0010
0100
0001
0100
0010
0001
0000
,
0010
0100
1000
0000
0001
0010
0100
0000
,
1000
0010
0100
0000
0001
0100
0010
0000
,
1000
0100
1000
0100
1000
0010
1000
0010
,
0100
0001
0100
0001
0010
0001
0010
0001
,
0200
0000
0000
0000
,
0000
0000
0000
0000
,
0320
0000
0000
0000
,
0000
0000
0000
0000
,
2030
0000
0000
0000
,
0000
0000
0000
0000
,
3002
0000
0000
0000
,
0000
0000
0000
0000
,
2003
0100
0000
0100
,
0000
0100
0000
0100
,
3020
0100
0000
0100
,
0000
0100
0000
0100
,
2030
0010
0000
0010
,
0000
0010
0000
0010
,
3200
0010
0000
0010
,
0000
0010
0000
0010
,
0310
0100
0001
1000
0000
0000
0000
0000
0000
0000
0000
0000
,
1000
0010
0100
0001
0000
0000
0000
0000
0000
0000
0000
0000
,
1000
0100
0010
0001
0000
0000
0000
0000
0000
0000
0000
0000
,
0001
0100
0010
1000
0000
0000
0000
0000
0000
0000
0000
0000
,
1000
0010
0100
1000
0000
0000
0000
0000
0000
0000
0000
0000
,
0001
0100
0010
0001
0000
0000
0000
0000
0000
0000
0000
0000
,
1000
0000
0100
0000
0001
0000
0100
0000
1000
0000
0100
0000
,
1000
0000
0010
0000
0001
0000
0010
0000
1000
0000
0010
0000
,
0210
0000
0000
0000
,
0302
0000
0000
0000
0000
0000
0000
0000
0000
0000
0003
0000
,
2100
0000
0000
0000
,
3020
0000
0000
0000
0200
0000
0000
0330
,
1002
0000
0203
0000
,
0320
0000
0000
0000
2000
0000
0000
3030
,
0001
0100
0001
0100
0010
1000
0010
1000
,
0100
1000
0100
1000
0001
0010
0001
0010
,
0100
0000
0001
0010
0100
1000
0100
0001
,
0100
0000
0000
1000
,
0110
0000
1000
0100
0010
0001
0100
0010
,
0001
0000
0000
1000
,
0101
0000
0010
0100
0001
1000
0010
0100
,
0001
0000
0000
0100
,
1001
0000
1000
0010
0100
0001
0100
0010
,
1000
0100
0010
0001
0010
0100
1000
0000
,
0011
0000
1000
0010
1000
0001
1000
0100
,
1000
0100
0001
0100
1000
0100
0010
0000
,
1100
0000
0001
0010
0001
1000
0001
0100
,
0001
0100
1000
0100
0001
0100
0010
0000
,
0110
0000
1000
0100
1000
0100
0010
0100
,
0001
0010
0001
0010
1000
0010
1000
0000
,
0001
0100
0001
0000
0100
1000
0100
0000
,
1000
0000
0100
0000
0010
0000
0001
0000
1000
0010
1000
0010
1000
0010
1000
0010
,
2000
0000
0000
0000
,
0000
0000
0000
0000
,
3000
0000
0000
0000
;

//--------------- dance-single - M.P.B.L.(黒) ----------------
#NOTES:
     dance-single:
     M.P.B.L.(黒):
     Hard:
     16:
     0,0,0,0,0:
0000
0000
0000
0000
,
0000
0000
0000
0000
,
0000
0000
0000
0000
,
0000
0000
0000
0000
,
0000
0000
0000
0000
,
1000
0000
0010
0000
1000
0100
0000
0010
0001
0000
0100
0000
0001
0010
0000
0100
,
1000
0000
0001
0000
1000
0100
0000
0010
0001
0000
1000
0000
0001
0010
0000
0100
,
1000
0000
0100
0000
1000
0010
0000
0100
0001
0000
0010
0000
0001
0100
0000
0010
,
1000
0000
0001
0000
1000
0010
0000
0100
0001
0000
1000
0000
0001
0100
0000
0010
,
1000
0100
0100
0100
,
0100
0100
0100
0100
,
0001
0010
0010
0010
,
0010
0000
0010
0000
0010
0000
1000
0010
,
0101
0000
0000
0000
0000
0000
0001
0100
,
1010
0000
0000
0000
0000
0000
1000
0100
,
0011
0000
0001
0010
1100
0000
1000
0010
,
1001
0000
0110
0000
1001
0000
0110
0000
1000
0100
0010
0001
1000
0010
1000
0010
,
0100
0000
0001
0010
0001
0000
0000
1000
0100
0000
0001
0100
0001
0000
0010
0000
,
0100
0000
1000
0100
1000
0000
0000
0100
0001
0000
0010
1000
0010
0000
0100
0000
,
0010
0000
0001
0100
0001
0000
0000
1000
0010
0000
0001
0010
0001
0000
0100
0000
,
0010
0000
1000
0010
1000
0000
0000
0010
0001
0000
0100
1000
0100
0000
0010
0000
,
0001
0000
1000
0010
0100
0000
0000
0001
1000
0000
0001
0100
0010
0000
1000
0000
,
0010
0000
1000
0001
0100
0000
0000
0010
0100
0000
1000
0100
0010
0000
0001
0000
,
1000
0000
0001
0010
0100
0000
0000
1000
0001
0000
1000
0100
0010
0000
0001
0000
,
0010
0000
0001
1000
0100
0000
0000
0010
0100
0000
0001
0100
0010
0000
1000
0000
,
0010
0000
1000
0100
1000
0000
0001
0010
0001
0000
1000
0010
1000
0000
0001
0100
,
0001
0000
0100
0010
0100
0000
0001
1000
0001
0000
0100
0000
0010
0000
0000
0000
,
0100
0000
0001
0010
0001
0000
1000
0100
1000
0000
0001
0100
0001
0000
1000
0010
,
1000
0000
0010
0100
0010
0000
1000
0001
1000
0000
0010
0000
0100
0000
0000
0000
,
0001
0000
1000
0100
0010
0000
0001
0100
0010
0000
1000
0001
0010
0000
0100
1000
,
0001
0000
0001
0100
1000
0000
1000
0100
0001
0000
0100
0000
0010
0000
0000
0000
,
1000
0100
0001
0010
0100
1000
0010
0001
,
1000
0010
1000
0010
1000
0010
0001
0010
0100
0001
0100
0001
0100
1000
0100
0001
,
0200
0000
0000
0000
,
0000
0000
0000
0000
,
2300
0000
0000
0000
,
0000
0000
0000
0000
,
3020
0000
0000
0000
,
0000
0000
0000
0000
,
0032
0000
0000
0000
,
0000
0000
0000
0000
,
2003
0100
0000
0010
0000
0100
0000
0010
,
0000
0100
0000
0010
0000
0100
0000
0010
,
3200
0001
0000
1000
0000
0001
0000
1000
,
0000
0001
0000
1000
0000
0001
0000
1000
,
0320
0100
0000
0001
0000
0100
0000
0001
,
0000
0100
0000
0001
0000
0100
0000
0001
,
0230
1000
0000
0010
0000
1000
0000
0010
,
0000
1000
0000
0010
0000
1000
0000
0010
,
1300
0100
0010
0001
0010
0100
1000
0010
0100
0001
0000
0000
,
0100
0001
0100
0010
0100
1000
0100
0010
1000
0001
0000
0000
,
1000
0100
0001
0100
1000
0010
0100
0001
0010
1000
0000
0000
,
0001
0010
1000
0010
0001
0100
0010
1000
0100
0001
0000
0000
,
1000
0100
0010
0100
1000
0100
0010
0001
0010
0100
0000
0000
,
1000
0001
0100
0001
1000
0010
1000
0001
0100
0001
0000
0000
,
1000
0100
0010
0001
0000
0000
1000
0100
0001
0100
0000
0000
,
0001
0010
0100
1000
0000
0000
0001
0010
1000
0010
0000
0000
,
0102
0000
0000
0000
,
0020
0000
0000
0000
0000
0000
0000
0033
,
1200
0000
0000
0000
,
0002
0000
0000
0003
0020
0000
0000
0330
,
2001
0000
0000
0000
0200
0000
0000
0300
,
0002
0000
0000
3000
0020
0000
0000
0033
,
1000
0100
1000
0100
1000
0000
0000
0000
0001
0100
0001
0100
0001
0000
0000
0000
,
0100
0010
0100
0010
0100
0000
0000
0000
0001
1000
0001
1000
0001
0000
0000
0000
,
1100
0000
0000
0001
1000
0100
0010
0001
0100
0000
0000
0010
1000
0100
0010
0001
,
0010
0000
0000
0110
,
1010
0000
0000
0100
1000
0010
0100
0001
1000
0000
0000
0010
1000
0010
0100
0001
,
0010
0000
0000
0011
,
0101
0000
0000
1000
0001
0010
0100
1000
0010
0000
0000
0100
0001
0010
0100
1000
,
0010
0000
0000
1100
,
1001
0000
0000
0010
1000
0100
0010
0001
1000
0000
0000
0000
0010
0000
0000
1000
,
0001
0010
0100
1000
0001
0010
0100
1000
0001
0010
0100
1000
0001
0010
0100
0010
,
0001
0000
0000
0000
1000
0100
1000
0100
1000
0000
0010
0000
1000
0001
1000
0001
,
1000
0100
0010
0001
1000
0000
0000
0000
0001
0010
0100
1000
0001
0000
0000
0000
,
1100
0000
0000
0000
0001
0010
0001
0010
0001
0000
1000
0000
0001
0100
0001
0100
,
0001
0010
0100
1000
0100
0000
0010
0000
0001
0010
0100
1000
0100
0000
0000
0000
,
0101
0000
0000
0000
0010
0100
0010
0100
0010
0000
1000
0000
0001
0010
0001
0010
,
0001
0100
0010
0100
0001
0000
1000
0000
0001
0100
0010
0100
0001
0000
0000
0000
,
1000
0100
1000
0000
0100
0010
0100
0000
0010
0001
0010
0000
0100
0010
0100
0000
,
1000
0010
0100
0000
0001
0010
0100
0000
1000
0100
0001
0000
1000
0010
0001
0000
,
0220
0000
0000
0000
,
0000
0000
0000
0000
,
0330
0000
0000
0000
;
